<?xml version="1.0" standalone="no"?>
<!DOCTYPE svg PUBLIC "-//W3C//DTD SVG 1.1//EN" "http://www.w3.org/Graphics/SVG/1.1/DTD/svg11.dtd" >
<!--
2013-9-30: Created.
-->
<svg>
<metadata>
Created by iconfont
</metadata>
<defs>

<font id="iconfont" horiz-adv-x="1024" >
  <font-face
    font-family="iconfont"
    font-weight="500"
    font-stretch="normal"
    units-per-em="1024"
    ascent="896"
    descent="-128"
  />
    <missing-glyph />
    
    <glyph glyph-name="quanbudingdan" unicode="&#58886;" d="M875 675h-62.5V737.5c0 34.5-28 62.5-62.5 62.5H125C90.5 800 62.5 772 62.5 737.5v-750c0-34.5 28-62.5 62.5-62.5h62.5v-62.5c0-34.5 28-62.5 62.5-62.5h625c34.5 0 62.5 28 62.5 62.5V612.5C937.5 647 909.5 675 875 675zM403.625 675H656.25C673.4375 675 687.5 661 687.5 643.75S673.4375 612.5 656.25 612.5H403.625c-17.25 0-31.25 14-31.25 31.25S386.375 675 403.625 675zM216.125 487.5H656.25C673.4375 487.5 687.5 473.5 687.5 456.25S673.4375 425 656.25 425H216.125c-17.25 0-31.25 14-31.25 31.25S198.875 487.5 216.125 487.5zM216.125 300H656.25C673.4375 300 687.5 286 687.5 268.75 687.5 251.5625 673.4375 237.5 656.25 237.5H216.125c-17.25 0-31.25 14.0625-31.25 31.25C184.875 286 198.875 300 216.125 300zM216.125 50c-17.25 0-31.25 14.0625-31.25 31.25s14 31.25 31.25 31.25H656.25c17.1875 0 31.25-14.0625 31.25-31.25S673.4375 50 656.25 50H216.125zM875-137.5H250v62.5h500c34.5 0 62.5 28 62.5 62.5V612.5h62.5V-137.5z"  horiz-adv-x="1000" />

    
    <glyph glyph-name="houtui" unicode="&#58897;" d="M531.6803 445.8002h-6.3539200000000005c0 71.1414 0 126.9494 0 143.1818 0 53.5388-30.72 75.8436-68.5312 45.4236L104.9661 351.3587c-37.8112-30.4292-37.7856-80.1372 0.0584-110.5039l349.1471-280.1306c37.8399-30.3432 71.1547 0.4844 71.1547 45.5434 0 14.5111 0 74.5359 0 151.0339h52.885504000000005c152.6743 0 269.1236-65.9579 340.5445-193.2196 13.995-23.0943 28.673-18.0582 28.673 0C944.3871 190.8324 752.3512 445.8002 531.6803 445.8002z"  horiz-adv-x="1024" />

    
    <glyph glyph-name="pdf" unicode="&#59202;" d="M483.555556 669.777778l355.555556 0 0-28.444444-355.555556 0 0 28.444444ZM483.555556 598.666667l355.555556 0 0-14.222222-355.555556 0 0 14.222222ZM284.444444 129.333333l298.666667 0 0-28.444444-298.666667 0 0 28.444444ZM284.444444 58.222222l298.666667 0 0-14.222222-298.666667 0 0 14.222222ZM483.555556 541.777778l355.555556 0 0-14.222222-355.555556 0 0 14.222222ZM483.555556 484.888889l355.555556 0 0-14.222222-355.555556 0 0 14.222222ZM483.555556 428l355.555556 0 0-14.222222-355.555556 0 0 14.222222ZM483.555556 371.111111l355.555556 0 0-14.222222-355.555556 0 0 14.222222ZM284.444444 314.222222l554.666667 0 0-14.222222-554.666667 0 0 14.222222ZM284.444444 257.333333l554.666667 0 0-14.222222-554.666667 0 0 14.222222ZM284.444444 200.444444l554.666667 0 0-14.222222-554.666667 0 0 14.222222ZM284.444444 1.333333l298.666667 0 0-14.222222-298.666667 0 0 14.222222ZM284.444444-55.555556l298.666667 0 0-14.222222-298.666667 0 0 14.222222ZM199.111111 797.777778l0-85.333333L99.555556 712.444444l0-298.666667 99.555556 0 0-611.555556 398.222222 0 71.111111 0 28.444444 0 14.222222 0 1.720889 0L924.444444 13.834667 924.444444 15.555556 924.444444 797.777778 199.111111 797.777778zM183.879111 464.536889c-34.403556-49.550222-79.715556-3.854222-43.264 30.520889 10.410667 9.813333 28.046222 19.470222 52.423111 28.700444 11.022222 21.788444 21.987556 45.824 30.620444 67.157333-7.296 15.203556-11.989333 31.260444-13.980444 47.758222-7.495111 61.994667 62.677333 57.386667 52.010667-0.355556-2.048-11.064889-6.926222-26.595556-14.535111-46.222222 11.064889-19.683556 25.543111-34.474667 37.091556-44.273778 15.786667 2.517333 38.257778 5.12 54.058667 2.787556 42.026667-6.172444 36.693333-52.437333-0.64-52.437333-19.541333 0-43.989333 15.217778-59.306667 26.922667-23.452444-4.309333-48.526222-10.951111-70.101333-18.574222C201.358222 493.28 192.113778 476.412444 183.879111 464.536889zM711.111111-139.168 711.111111 15.555556l154.723556 0L711.111111-139.168zM881.777778 58.222222 668.444444 58.222222l0-213.333333L241.777778-155.111111 241.777778 413.777778l156.444444 0L398.222222 712.444444 241.777778 712.444444 241.777778 755.111111l640 0L881.777778 58.222222z"  horiz-adv-x="1024" />

    
    <glyph glyph-name="title-right" unicode="&#58950;" d="M513.61 60.12l45.254-45.252 271.53 271.526-271.53 271.528-45.258-45.254 226.28-226.274zM193.61 60.12l45.254-45.252 271.53 271.526-271.53 271.528-45.258-45.254 226.28-226.274z"  horiz-adv-x="1024" />

    
    <glyph glyph-name="title-left" unicode="&#58951;" d="M284.114 286.394l226.28 226.274-45.258 45.254-271.53-271.528 271.53-271.526 45.254 45.252zM604.114 286.394l226.28 226.274-45.258 45.254-271.53-271.528 271.53-271.526 45.254 45.252z"  horiz-adv-x="1024" />

    
    <glyph glyph-name="favor" unicode="&#58957;" d="M767.104-63.936c-5.344 0-10.688 1.344-15.52 4.032l-241.312 133.856-241.824-133.024c-10.72-5.92-23.904-5.152-33.888 1.92-10.016 7.072-15.104 19.264-13.12 31.328l46.88 284.736-196.448 202.08c-8.256 8.512-11.168 20.928-7.456 32.192 3.68 11.296 13.312 19.616 25.024 21.632l155.072 26.592c17.632 2.944 33.984-8.736 36.96-26.144 2.976-17.408-8.704-33.952-26.144-36.96l-95.168-16.32 165.344-170.08c7.072-7.296 10.272-17.504 8.64-27.488l-38.816-235.68 199.616 109.824c9.632 5.312 21.344 5.312 30.944-0.064l199.168-110.464-38.016 235.776c-1.632 10.016 1.632 20.224 8.704 27.456l164.672 168.256-225.664 34.816c-10.56 1.632-19.584 8.416-24.128 18.08l-99.2 212.384-100.064-211.84c-7.552-16-26.624-22.816-42.624-15.264-15.968 7.552-22.816 26.624-15.264 42.624l129.152 273.44c5.312 11.2 16.576 18.336 28.928 18.336 0 0 0.032 0 0.064 0 12.416-0.032 23.68-7.232 28.928-18.464l120.8-258.624 270.336-41.728c11.872-1.824 21.696-10.144 25.504-21.504 3.776-11.36 0.864-23.936-7.488-32.48l-196.928-201.216 45.92-284.864c1.952-12.096-3.2-24.256-13.216-31.296C780-62.016 773.568-63.936 767.104-63.936z"  horiz-adv-x="1024" />

    
    <glyph glyph-name="top" unicode="&#59038;" d="M825.568 340.672l-287.392 289.28C531.808 636.352 523.488 639.424 515.2 639.36 514.08 639.456 513.12 640 512 640c-4.672 0-9.024-1.088-13.024-2.88-4.032-1.536-7.872-3.872-11.136-7.136l-259.328-258.88c-12.512-12.48-12.544-32.736-0.032-45.248 6.24-6.272 14.432-9.408 22.656-9.408 8.192 0 16.352 3.136 22.624 9.344L480 531.712 480-32c0-17.696 14.336-32 32-32s32 14.304 32 32L544 533.28l236.192-237.728c6.24-6.272 14.496-9.44 22.688-9.44s16.32 3.104 22.56 9.312C838.016 307.872 838.048 328.16 825.568 340.672zM864 704 160 704C142.336 704 128 718.336 128 736s14.336 32 32 32l704 0c17.696 0 32-14.336 32-32S881.696 704 864 704z"  horiz-adv-x="1024" />

    
    <glyph glyph-name="xitongshezhi" unicode="&#58952;" d="M965.632-3.672889C1001.073778-16.643556 1024-25.916444 1024-25.916444l-13.141333-50.972444c0 0-26.225778 4.096-65.422222 11.832889-12.060444-22.016-28.672-40.675556-48.014222-55.125333 19.456-39.879111 31.573333-66.958222 31.573333-66.958222L886.044444-212c0 0-18.432 25.6-44.487111 64.568889-20.195556-5.688889-41.472-8.021333-63.146667-5.688889C764.302222-188.903111 754.403556-212 754.403556-212l-52.508444 12.401778c0 0 4.892444 26.680889 13.653333 66.673778-14.563556 8.021333-27.591111 18.033778-39.082667 29.639111-38.513778-19.456-64.568889-31.516444-64.568889-31.516444l-24.348444 43.690667c0 0 21.162667 15.758222 53.987556 38.855111-10.695111 23.665778-16.497778 49.720889-15.815111 76.686222-34.531556 12.686222-56.832 21.731556-56.832 21.731556l13.084444 50.972444c0 0 22.471111-3.527111 56.888889-10.126222 8.590222 21.048889 21.447111 39.310222 36.579556 54.897778-19.114667 39.196444-30.947556 65.706667-30.947556 65.706667l42.894222 24.860444c0 0 15.473778-21.504 38.058667-54.954667 27.363556 12.856889 58.083556 18.773333 89.372444 15.303111 14.051556 35.726222 24.007111 58.823111 24.007111 58.823111l52.451556-12.401778c0 0-4.835556-26.737778-13.596444-66.844444 22.300444-12.344889 41.187556-29.525333 55.808-49.607111 39.139556 19.854222 65.763556 32.142222 65.763556 32.142222l24.405333-43.690667c0 0-25.088-18.773333-63.203556-45.283556C966.542222 43.715556 968.817778 20.220444 965.632-3.672889zM825.856 131.779556c-60.643556 16.554667-123.050667-20.138667-139.320889-81.976889-16.270222-61.781333 19.797333-125.383111 80.440889-141.937778 60.757333-16.611556 123.107556 20.138667 139.320889 81.92C922.567111 51.68 886.613333 115.224889 825.856 131.779556zM585.329778 261.486222c36.750222-43.349333 59.676444-72.078222 59.676444-72.078222l-53.020444-53.987556c0 0-29.809778 24.803556-74.353778 64-32.881778-21.390222-70.485333-36.067556-110.933333-41.585778-4.380444-60.416-8.533333-99.384889-8.533333-99.384889L322.389333 58.449778c0 0-4.266667 40.448-8.760889 102.741333-37.489778 7.964444-72.021333 24.064-102.286222 45.795556-49.152-43.633778-82.773333-71.509333-82.773333-71.509333l-53.020444 53.987556c0 0 27.306667 34.190222 70.087111 84.252444C124.245333 304.551111 108.373333 339.708444 100.579556 378.051556 39.537778 382.602667 0 386.926222 0 386.926222L0 464.238222c0 0 38.286222 4.209778 97.564444 8.647111 5.461333 41.187556 19.911111 79.473778 40.903111 112.981333C99.896889 631.264 75.548444 661.699556 75.548444 661.699556L128.568889 715.687111c0 0 28.216889-23.438222 70.826667-60.928C232.334222 681.383111 271.416889 700.497778 314.197333 709.486222 318.520889 771.267556 322.389333 812 322.389333 812l75.776 0c0 0 3.754667-39.310222 7.964444-99.328 45.909333-6.200889 88.120889-23.893333 123.904-50.119111 37.546667 32.824889 62.008889 53.134222 62.008889 53.134222l53.020444-53.987556c0 0-19.911111-24.917333-52.167111-63.146667 25.770667-36.522667 43.121778-79.530667 49.208889-126.293333C700.928 468.049778 739.555556 464.238222 739.555556 464.238222l0-77.312c0 0-39.936-3.925333-100.465778-8.248889C630.272 334.986667 611.498667 295.107556 585.329778 261.486222zM369.777778 638.090667c-109.966222 0-199.168-90.851556-199.168-202.865778s89.201778-202.865778 199.168-202.865778 199.054222 90.851556 199.054222 202.865778S479.744 638.090667 369.777778 638.090667z"  horiz-adv-x="1024" />

    
    <glyph glyph-name="zuzhiguanli" unicode="&#58970;" d="M373.396245 514.440977c0-96.91733 78.83551-175.763073 175.75284-175.763073s175.75284 78.845743 175.75284 175.763073c0 96.907097-78.83551 175.75284-175.75284 175.75284S373.396245 611.348074 373.396245 514.440977zM124.415614 45.756505c0-72.685439 59.126632-131.812071 131.812071-131.812071s131.812071 59.126632 131.812071 131.812071-59.126632 131.822304-131.812071 131.822304S124.415614 118.441944 124.415614 45.756505zM724.901924 75.053762c0-48.463782 39.417755-87.881536 87.881536-87.881536 48.453548 0 87.871303 39.417755 87.871303 87.881536 0 48.453548-39.417755 87.871303-87.871303 87.871303C764.319679 162.925065 724.901924 123.50731 724.901924 75.053762zM812.783461 221.509345c80.749092 0 146.455583-65.706491 146.455583-146.455583 0-80.759325-65.706491-146.465816-146.455583-146.465816-80.759325 0-146.465816 65.706491-146.465816 146.465816 0 56.107879 32.070416 104.366999 78.518285 128.957047l-59.894112 119.798457c-38.363749-27.40414-85.159542-43.715641-135.792733-43.715641-37.186947 0-72.245418 8.943696-103.507422 24.426319l-67.568908-112.62508c41.853224-34.95614 68.551282-87.472214 68.551282-146.138358 0-104.980983-85.415368-190.396351-190.396351-190.396351s-190.396351 85.415368-190.396351 190.396351 85.415368 190.406584 190.396351 190.406584c25.337061 0 49.487088-5.075599 71.621201-14.101159l68.858274 114.76379c-50.039673 43.019793-81.895195 106.60804-81.895195 177.615257 0 129.202641 105.124246 234.337119 234.337119 234.337119s234.337119-105.134479 234.337119-234.337119c0-56.639998-20.200064-108.634186-53.764508-149.187811l72.409147-144.818293C805.712415 220.700933 809.140491 221.509345 812.783461 221.509345z"  horiz-adv-x="1024" />

    
    <glyph glyph-name="gongyingshangguanli" unicode="&#59098;" d="M508.758678 398.734722c217.460754 0 393.677151 78.401628 393.677151 175.219697 0 96.820116-176.216397 175.22072-393.677151 175.22072-217.461777 0-393.677151-78.401628-393.677151-175.22072C115.080503 477.13635 291.296901 398.734722 508.758678 398.734722zM508.758678 350.66389c-217.461777 0-393.677151 78.401628-393.677151 175.219697 0-40.426735 0-67.413366 0-133.975341 0-96.820116 176.216397-175.22072 393.677151-175.22072 217.460754 0 393.677151 78.401628 393.677151 175.22072 0 35.555797 0 72.641437 0 133.975341C902.435829 429.064494 726.219431 350.66389 508.758678 350.66389zM508.758678 168.616694c-217.461777 0-393.677151 78.399581-393.677151 175.219697 0-40.426735 0-67.414389 0-133.974317 0-96.820116 176.216397-175.22072 393.677151-175.22072 217.460754 0 393.677151 78.400604 393.677151 175.22072 0 35.554774 0 72.640414 0 133.974317C902.435829 247.017298 726.219431 168.616694 508.758678 168.616694zM508.758678-13.430502c-217.461777 0-393.677151 78.399581-393.677151 175.219697 0-40.428781 0-67.414389 0-133.975341 0-96.819093 176.216397-175.22072 393.677151-175.22072 217.460754 0 393.677151 78.401628 393.677151 175.22072 0 35.555797 0 72.640414 0 133.975341C902.435829 64.969079 726.219431-13.430502 508.758678-13.430502z"  horiz-adv-x="1024" />

    
    <glyph glyph-name="xinzenggongyingshang" unicode="&#59102;" d="M781.959943 362.934355c0-16.070001-5.096065-31.529087-14.133905-46.240137 4.687766-0.237407 9.512654-0.407276 14.133905-0.916882C781.959943 332.628118 781.959943 349.072649 781.959943 362.934355zM423.180604 413.965611c198.212364 0 358.77934 74.915223 358.77934 167.43029S621.392968 748.826192 423.180604 748.826192c-198.143803 0-358.77934-74.915223-358.77934-167.43029S225.036801 413.965611 423.180604 413.965611zM423.180604 66.0589c25.074072 0 49.536206 1.221828 73.183789 3.498684 1.902326 50.045813 17.938558 96.52438 44.50768 135.357827-36.898375-6.013971-76.377528-9.411347-117.691469-9.411347-198.143803 0-358.77934 74.916247-358.77934 167.43029 0-30.679743 0-76.953649 0-129.446187C64.401264 140.974124 225.036801 66.0589 423.180604 66.0589zM423.180604 240.011744c60.747549 0 117.895107 7.100722 168.042227 19.535939 36.82879 29.966499 82.015945 49.842175 131.484613 55.821353 37.372166 26.433022 59.252499 58.029648 59.252499 92.072999 0 32.141024 0 90.781586 0 129.446187 0-92.515067-160.566976-167.43029-358.77934-167.43029-198.143803 0-358.77934 74.915223-358.77934 167.43029 0-30.679743 0-76.953649 0-129.446187C64.401264 314.926968 225.036801 240.011744 423.180604 240.011744zM423.180604 21.550197c-198.143803 0-358.77934 74.915223-358.77934 167.43029 0-30.679743 0-76.954673 0-129.446187 0-92.515067 160.635537-167.43029 358.77934-167.43029 44.440142 0 86.840834 3.941775 126.116349 10.837836-26.77276 34.893718-44.847417 76.717266-50.894134 122.346489C474.144322 22.875378 449.001689 21.550197 423.180604 21.550197zM753.692133 261.755977c-111.642706 0-202.220654-90.544179-202.220654-202.220654 0-111.711268 90.578971-202.220654 202.220654-202.220654 111.711268 0 202.220654 90.509387 202.220654 202.220654C955.91381 171.210775 865.4034 261.755977 753.692133 261.755977zM858.064248 24.744959l-69.581752 0 0-69.581752-69.580728 0 0 69.581752-69.581752 0 0 69.580728 69.581752 0 0 69.581752 69.580728 0 0-69.581752 69.581752 0L858.064248 24.744959z"  horiz-adv-x="1024" />

    
    <glyph glyph-name="xiangshang" unicode="&#58914;" d="M64.633043 109.818543 511.144516 556.330016 957.657013 109.818543Z"  horiz-adv-x="1024" />

    
    <glyph glyph-name="qianjin" unicode="&#58938;" d="M918.482293 351.674916 566.892703 634.528006c-37.785581 30.396287-68.471464 8.108678-68.471464-45.391816 0-16.223496 0-71.993684 0-143.086859l-6.376221 0c-220.503043 0-412.408771-254.78994-415.452083-481.392912 0-18.044982 14.663978-23.080671 28.64541 0 71.368444 127.175471 187.747012 193.09481 340.309686 193.09481l52.873208 0c0-76.455299 0-136.439462 0-150.937664 0-45.028543 33.270754-75.835176 71.097268-45.51359l348.911598 279.936667C956.244338 271.581764 956.267874 321.269419 918.482293 351.674916z"  horiz-adv-x="1024" />

    
    <glyph glyph-name="shanchu" unicode="&#59013;" d="M929.054069 522.437092l-83.409688 0 0-639.497812c0-15.332197-12.44852-27.805276-27.804253-27.805276L206.158848-144.865997c-15.357779 0-27.804253 12.472056-27.804253 27.805276L178.354596 522.437092l-83.409688 0c-15.360849 0-27.805276 12.443403-27.805276 27.802206 0 15.359826 12.444427 27.805276 27.805276 27.805276l194.624652 0L289.56956 717.061744c0 15.357779 12.444427 27.803229 27.801183 27.803229l389.255445 0c15.355733 0 27.801183-12.44545 27.801183-27.803229l0-139.018194 194.625676 0c15.359826 0 27.805276-12.44545 27.805276-27.805276C956.858322 534.880495 944.412872 522.437092 929.054069 522.437092zM678.819888 689.258515 345.176019 689.258515l0-111.214964 333.643869 0L678.819888 689.258515zM790.034852 522.437092l-83.408665 0L317.371766 522.437092l-83.408665 0 0-611.695606 556.071751 0L790.034852 522.437092zM400.783501 21.958496l-55.607482 0L345.176019 411.220081l55.607482 0L400.783501 21.958496zM539.802718 21.958496l-55.607482 0L484.195236 411.220081l55.607482 0L539.802718 21.958496zM678.819888 21.958496l-55.605436 0L623.214453 411.220081l55.605436 0L678.819888 21.958496z"  horiz-adv-x="1024" />

    
    <glyph glyph-name="iconfontcolor91" unicode="&#59086;" d="M512 812C229.248 812 0 582.752 0 300s229.248-512 512-512c282.784 0 512 229.248 512 512S794.784 812 512 812zM800.432 268 544 268l0-256.432C544-5.872 529.664-20 512-20c-17.68 0-32 14.128-32 31.568L480 268 223.568 268C206.128 268 192 282.336 192 300c0 17.68 14.16 32 31.568 32L480 332 480 588.464C480 605.872 494.32 620 512 620c17.664 0 32-14.128 32-31.536L544 332l256.432 0C817.904 332 832 317.68 832 300 832 282.336 817.904 268 800.432 268z"  horiz-adv-x="1024" />

    
    <glyph glyph-name="renwuqingdan" unicode="&#59129;" d="M512 676.571429 473.572571 702.429257 370.143086 598.999771 318.429257 650.7136 266.715429 598.999771 370.143086 495.572114ZM548.571429 603.428571l219.428571 0 0-36.571429-219.428571 0 0 36.571429ZM512 457.142857 473.572571 483.000686 370.143086 379.5712 318.429257 431.285029 266.715429 379.5712 370.143086 276.143543ZM548.571429 384l219.428571 0 0-36.571429-219.428571 0 0 36.571429ZM877.714286 859.428571 146.285714 859.428571c-20.214857 0-36.571429-16.374857-36.571429-36.571429l0-877.714286c0-20.214857 16.356571-36.571429 36.571429-36.571429l475.428571 0 292.571429 256L914.285714 822.857143C914.285714 843.053714 897.929143 859.428571 877.714286 859.428571zM658.285714 37.7856 658.285714 164.571429l144.928914 0L658.285714 37.7856zM841.142857 237.714286 621.714286 237.714286c-20.214857 0-36.571429-16.356571-36.571429-36.571429l0-219.428571L182.857143-18.285714 182.857143 786.285714l658.285714 0L841.142857 237.714286z"  horiz-adv-x="1024" />

    
    <glyph glyph-name="fenlei" unicode="&#59016;" d="M801.04665-133.698656M87.567893 451.058414M123.246487 707.324986c-30.840402 0-55.802934-24.974811-55.802934-55.80498 0-30.810726 24.962531-55.792701 55.802934-55.792701 30.807656 0 55.789631 24.981974 55.789631 55.792701C179.035094 682.349151 154.054143 707.324986 123.246487 707.324986L123.246487 707.324986zM301.797046 618.046636l624.982214 0c18.486026 0 33.472346 14.973016 33.472346 33.473369 0 18.511609-14.986319 33.485649-33.472346 33.485649L301.797046 685.005654c-18.517749 0-33.472346-14.97404-33.472346-33.485649C268.323677 633.019653 283.279297 618.046636 301.797046 618.046636L301.797046 618.046636zM123.246487 372.517617c-30.840402 0-55.802934-24.968671-55.802934-55.813167 0-30.830169 24.962531-55.79884 55.802934-55.79884 30.807656 0 55.789631 24.968671 55.789631 55.79884C179.035094 347.548946 154.054143 372.517617 123.246487 372.517617L123.246487 372.517617zM926.77926 350.186006 301.797046 350.186006c-18.517749 0-33.472346-14.97404-33.472346-33.480532 0-18.49319 14.954597-33.479509 33.472346-33.479509l624.982214 0c18.486026 0 33.472346 14.986319 33.472346 33.479509C960.251605 335.211966 945.265286 350.186006 926.77926 350.186006L926.77926 350.186006zM123.246487 15.39194c-30.840402 0-55.802934-24.981974-55.802934-55.81419 0-30.842449 24.962531-55.785537 55.802934-55.785537 30.807656 0 55.789631 24.943089 55.789631 55.785537C179.035094-9.590034 154.054143 15.39194 123.246487 15.39194L123.246487 15.39194zM926.77926-6.942741 301.797046-6.942741c-18.517749 0-33.472346-15.011902-33.472346-33.479509 0-18.466584 14.954597-33.466206 33.472346-33.466206l624.982214 0c18.486026 0 33.472346 14.999622 33.472346 33.466206C960.251605-21.954643 945.265286-6.942741 926.77926-6.942741L926.77926-6.942741zM926.523433-0.120358"  horiz-adv-x="1024" />

    
    <glyph glyph-name="fuxuankuang" unicode="&#58947;" d="M896-212 128-212C57.312256-212 0-154.700032 0-84L0 684C0 754.687744 57.312256 812 128 812l768 0c70.700032 0 128-57.312256 128-128l0-768C1024-154.700032 966.700032-212 896-212zM947.2 658.4c0 42.412032-34.374656 76.8-76.8 76.8L153.6 735.2c-42.412032 0-76.8-34.387968-76.8-76.8l0-716.8c0-42.425344 34.387968-76.8 76.8-76.8l716.8 0c42.425344 0 76.8 34.374656 76.8 76.8L947.2 658.4zM486.73792 125.524736c-1.762304-5.900288-4.450304-11.575296-9.124864-16.22528l-18.100224-18.1248c-14.999552-14.974976-39.312384-14.974976-54.299648 0L187.987968 308.41216c-14.999552 14.987264-14.999552 39.300096 0 54.299648l18.100224 18.100224c14.999552 14.999552 39.312384 14.999552 54.299648 0L428.8 212.399872l339.475456 339.475456c14.999552 14.999552 39.300096 14.999552 54.299648 0l18.100224-18.100224c14.999552-14.999552 14.999552-39.312384 0-54.31296L486.73792 125.524736z"  horiz-adv-x="1024" />

    
    <glyph glyph-name="guanbi" unicode="&#58913;" d="M512 812C229.262222 812 0 582.766222 0 300S229.262222-212 512-212s512 229.262222 512 512S794.766222 812 512 812zM731.221333 120.999111l-40.220444-40.220444L512 259.779556l-179.000889-179.000889-40.220444 40.220444L471.779556 300l-179.000889 179.000889 40.220444 40.220444L512 340.248889l178.972444 179.000889 40.220444-40.220444L552.220444 300 731.221333 120.999111z"  horiz-adv-x="1024" />

    
    <glyph glyph-name="jibenxinxi" unicode="&#58924;" d="M352 268c-88.224 0-160 71.744-160 159.936C192 516.192 263.776 588 352 588s160-71.808 160-160.032C512 339.776 440.224 268 352 268M352 524C299.072 524 256 480.896 256 427.968 256 375.04 299.072 332 352 332c52.928 0 96 43.04 96 95.936C448 480.896 404.928 524 352 524M512.448 6.816 484.064 179.712 405.952 205.568 426.048 266.336 540.928 228.32 575.552 17.216ZM191.584 6.816 128.416 17.216 163.072 228.32 277.952 266.336 298.048 205.568 219.936 179.712ZM640 524l128 0 0-64-128 0 0 64ZM640 396l256 0 0-64-256 0 0 64ZM640 268l256 0 0-64-256 0 0 64ZM640 140l256 0 0-64-256 0 0 64ZM352-52l320 0 0-64-320 0 0 64ZM1024-116 736-116 736-52 960-52 960 652 64 652 64-52 288-52 288-116 0-116 0 716 1024 716Z"  horiz-adv-x="1024" />

    
    <glyph glyph-name="queren" unicode="&#58889;" d="M512 760.8C257.4848 760.8 51.2 554.5152 51.2 300c0-254.4896 206.2848-460.8 460.8-460.8 254.4896 0 460.8 206.3104 460.8 460.8C972.8 554.5152 766.4896 760.8 512 760.8L512 760.8zM512-117.6128c-230.656 0-417.6128 186.9824-417.6128 417.6128C94.4128 530.656 281.344 717.5872 512 717.5872S929.6128 530.656 929.6128 300C929.6128 69.3696 742.656-117.6128 512-117.6128L512-117.6128zM801.0496 451.4752 457.3952 107.7952c-5.6832-5.6832-13.1072-8.4736-20.5312-8.4224-7.3984-0.0256-14.7968 2.7392-20.4544 8.4224l-193.4592 193.4592c-11.2384 11.2384-11.2384 29.4912 0 40.7552 11.2384 11.2384 29.4912 11.2384 40.7296 0l173.2096-173.2352 323.4048 323.4048c11.2384 11.2384 29.4912 11.2384 40.7552 0C812.288 480.9152 812.288 462.688 801.0496 451.4752L801.0496 451.4752zM801.0496 451.4752"  horiz-adv-x="1024" />

    
    <glyph glyph-name="yonghu1" unicode="&#58935;" d="M395.683343 125.185532c0 0-99.260701-53.211922-195.451484-67.538209-17.547655-4.704139-141.216255-33.769105-159.635767-137.123031-2.046612 0-1.023306-84.934414-1.023306-84.934414l621.146862-1.023306c0 0 13.302981-2.046612 23.536043-18.419512l37.862329 0c0 0-15.349593 38.543851-57.305147 50.142004l-588.401064 0 0 54.235229c0 0 19.442818 74.701352 136.099724 109.493763 50.358945 10.471492 165.775604 44.684712 208.754464 78.114079l0 117.337405-104.377232 130.983193c0 0-67.538209 69.584821-2.046612 102.33062 0 0-10.429537 32.9259-25.582655 55.258535-2.046612 16.372899 4.093225 88.004333 4.093225 88.004333s21.48943 91.074252 74.701352 101.307314l0 66.514903c0 0 118.703519 23.876804 223.080751-36.839023 2.046612 0 121.773438-32.063253 129.959887-105.741299 2.046612 0 1.023306-165.434843 1.023306-165.434843s56.964386-30.358425-21.48943-109.153002c-13.32447-11.530614-70.246901-53.276391-103.353926-128.254036l0-115.6336c0 0 12.279674-32.745798 188.288341-67.538209 27.795043-7.812943 150.766772-49.801243 164.069753-119.727849 1.723248-9.054213-0.340761-59.350736-0.340761-59.350736l-177.714518-0.341784-0.340761-25.240871 204.66124 0 0 96.190783c0 0-25.582655 84.251869-178.055279 132.0065-18.942421 3.964288-145.30948 29.67588-176.008666 56.281841 0 2.046612 0 98.237395 0 98.237395s24.558325 57.988716 89.709161 114.951055c4.010337 4.843308 91.075275 84.934414 37.180807 138.828882l0 159.635767c0 0 4.77577 80.500429-124.31226 120.623241-4.093225-0.605797-53.743018 23.2444-53.743018 23.2444s-15.007809 24.644283-229.220588 24.65247l0-82.563414c0 0-68.902276-35.472909-75.724659-116.656907-2.046612-10.233062-4.093225-94.14417-4.093225-94.14417s19.442818-31.722492 19.442818-44.002167c0 0-63.785745-29.67588 19.442818-127.913275 10.915607-10.913561 83.228563-107.104343 95.167476-118.703519C395.683343 213.189865 395.683343 125.185532 395.683343 125.185532z"  horiz-adv-x="1024" />

    
    <glyph glyph-name="guanbi1" unicode="&#58907;" d="M555.467456 384.81826l457.143281 456.95704c12.34618 12.389159 12.344133 32.445945-0.020466 44.942551-12.370739 12.407578-32.554416 12.323667-44.921062 0.063445L511.196194 430.28679 56.286788 885.321039c-12.425998 12.280688-32.424456 12.472047-44.876036 0.040932C-0.978407 872.828526-0.955894 852.833138 11.434288 840.381558l457.097233-457.199563L11.387216-73.775045c-12.34618-12.389159-12.344133-32.445945 0.020466-44.942551 12.370739-12.407578 32.554416-12.323667 44.921062-0.063445L512.802783 337.713464l454.909406-455.035272c12.425998-12.280688 32.424456-12.472047 44.876036-0.040932 12.389159 12.533445 12.366646 32.528833-0.022513 44.980413L555.467456 384.81826z"  horiz-adv-x="1024" />

    
    <glyph glyph-name="skin" unicode="&#59349;" d="M275.28 819.456c28.928 0 57.856 0 86.784 0 6.4-3.712 15.744-5.12 21.568-9.536 7.936-5.952 13.632-13.504 19.84-21.248 8.384-10.432 24.192-20.544 37.504-25.984 15.552-6.272 32.064-9.856 51.136-13.312 6.016-0.384 12.032-0.64 18.048-1.024 8.064-1.216 19.584 0.704 26.24 2.048 35.904 7.040 53.888 12.8 77.504 31.104 9.216 7.232 14.144 19.136 23.744 26.048 5.376 2.88 10.816 5.888 16.256 8.832 4.672 1.792 8 0.768 11.84 3.072 8.576 0 17.088 0 25.536 0 24.64 0 61.248 3.264 77.504-5.056 11.456-6.016 20.224-15.488 29.184-24 12.48-11.84 24.96-23.68 37.376-35.52 40.256-38.336 80.576-76.608 120.768-114.944 12.672-13.248 27.328-24.704 39.936-38.016 10.368-10.688 21.376-18.688 27.072-34.176 0.192-2.496 0.256-4.992 0.32-7.488 2.88-16.896-4.992-29.184-12.928-38.976-33.728-31.936-67.456-63.936-101.248-95.808-12.288-13.376-27.648-32-49.344-35.904-29.568-5.312-46.336 12.48-60.16 25.6-4.48 4.352-8.256 9.92-14.080 13.056-0.256-0.256-0.704-0.512-1.088-0.704 0-114.112 0-228.224 0-342.4-0.064-32.128-0.192-64.384-0.384-96.512-2.368-11.136-9.792-22.656-17.92-28.736-20.288-14.976-56.064-11.648-91.968-11.648-68.224 0-136.576 0-204.928 0-46.208 0-92.416 0-138.688 0-25.024 0-51.328-1.856-66.304 7.616-8.384 5.12-17.6 14.72-21.312 24.256-4.224 11.008-3.2 26.368-3.2 41.024 0 21.632 0 43.136 0 64.64 0 113.984 0 228.096 0 342.144-0.512 0-0.96 0-1.472 0-14.912-12.8-26.368-28.672-46.4-36.672-17.024-6.848-36.928 0.32-47.552 7.488-7.424 5.12-13.056 11.712-19.456 17.792-15.232 14.272-30.464 28.544-45.696 42.752-7.232 7.040-14.464 14.144-21.632 21.312-8.896 7.296-16.64 15.616-24.832 23.552-9.92 9.472-20.736 16.832-26.688 30.144-2.56 5.632-7.616 15.808-5.76 25.28 4.352 22.464 18.624 34.304 33.152 46.912 8.64 7.424 16.256 16.064 24.832 23.552 47.68 45.376 95.36 90.752 143.040 136.128 8.64 8.192 17.28 16.384 25.92 24.64 12.544 11.904 23.744 26.624 47.936 27.392-0 0.448-0 0.832-0 1.28z"  horiz-adv-x="1025" />

    
    <glyph glyph-name="yingyongguanli1" unicode="&#58916;" d="M343.962889 796.974659L168.576393 796.974659c-58.115606 0-105.317651-47.258327-105.317651-105.520265L63.258743 515.562385c0-58.260915 35.742039-107.24249 93.857645-107.24249l187.715289 0c58.177004 0 107.266026 49.006134 107.266026 107.266026L452.097702 689.892829C452.097702 748.153744 402.139893 796.974659 343.962889 796.974659zM411.872558 515.585921c0 0-15.702634-67.040882-67.040882-67.040882l-187.715289 0c-19.310811 0-53.632501 47.681976-53.632501 67.040882L103.483886 689.892829c0 43.281759 28.871561 67.040882 67.040882 67.040882l174.306908 0c44.085054 0 67.040882-25.409716 67.040882-67.040882L411.872558 515.585921zM343.962889 327.68746L168.576393 327.68746c-58.115606 0-105.317651-47.258327-105.317651-105.520265l0-175.892009c0-58.260915 35.742039-107.24249 93.857645-107.24249l187.715289 0c58.177004 0 107.266026 49.006134 107.266026 107.266026L452.097702 220.604606C452.097702 278.866544 402.139893 327.68746 343.962889 327.68746zM411.872558 46.29769799999997c0 0-15.702634-67.040882-67.040882-67.040882l-187.715289 0c-19.310811 0-53.632501 47.681976-53.632501 67.040882L103.483886 220.604606c0 43.281759 28.871561 67.040882 67.040882 67.040882l174.306908 0c44.085054 0 67.040882-25.409716 67.040882-67.040882L411.872558 46.29769799999997zM813.250088 327.68746L637.864616 327.68746c-58.115606 0-105.317651-47.258327-105.317651-105.520265l0-175.892009c0-58.260915 35.742039-107.24249 93.857645-107.24249l187.715289 0c58.177004 0 107.266026 49.006134 107.266026 107.266026L921.385924 220.604606C921.384901 278.866544 871.427092 327.68746 813.250088 327.68746zM881.160781 46.29769799999997c0 0-15.702634-67.040882-67.040882-67.040882l-187.715289 0c-19.310811 0-53.632501 47.681976-53.632501 67.040882L572.772109 220.604606c0 43.281759 28.871561 67.040882 67.040882 67.040882l174.306908 0c44.085054 0 67.040882-25.409716 67.040882-67.040882L881.160781 46.29769799999997zM926.06755 678.5883650000001L802.814412 801.84048c-41.198308 41.198308-111.044072 40.393989-152.182005-0.743944L526.615882 677.078988c-41.09393-41.09393-41.055045-107.888196 0.143263-149.084457l124.373659-124.374682c41.196261-41.196261 101.105722-50.558489 142.199653-9.463536l132.73407 132.733047C967.204459 568.028317 967.263811 637.391081 926.06755 678.5883650000001zM897.624754 555.334203L764.889661 422.600133c-13.653975-13.654998-71.63962-4.208858-85.328387 9.480932L556.307112 555.334203c-30.604018 30.604018-26.989701 67.819618 0 94.809319L679.561273 773.397684c31.172977 31.172977 65.372893 29.437449 94.809319 0l123.253138-123.253138C897.624754 650.143523 933.925518 591.635991 897.624754 555.334203z"  horiz-adv-x="1024" />

    
    <glyph glyph-name="sousuo" unicode="&#58954;" d="M734.421862 270.222222 688.910752 270.222222 671.844083 287.288889C728.732973 349.866667 762.866304 435.2 762.866304 526.222222 762.866304 731.022222 597.888529 896 393.088529 896 188.288529 896 23.310751 731.022222 23.310751 526.222222 23.310751 321.422222 188.288529 156.444442 393.088529 156.444442 484.110751 156.444442 569.444084 190.577779 632.021862 247.466669L649.088531 230.4 649.088531 184.88889 933.532973-99.555558 1018.866304-14.222221 734.421862 270.222222 734.421862 270.222222ZM393.088529 270.222222C250.866307 270.222222 137.088529 384 137.088529 526.222222 137.088529 668.444444 250.866307 782.222222 393.088529 782.222222 535.310751 782.222222 649.088531 668.444444 649.088531 526.222222 649.088531 384 535.310751 270.222222 393.088529 270.222222L393.088529 270.222222Z"  horiz-adv-x="1024" />

    
    <glyph glyph-name="yonghuguanli" unicode="&#58929;" d="M746.001655 61.051586l-201.445517 111.474759c74.822621 58.862345 95.161379 174.503724 95.161379 239.368828L639.717517 546.85131c0 89.370483-118.854621 188.980966-238.274207 188.980966-119.384276 0-241.381517-99.575172-241.381517-188.980966l0-134.956138c0-59.003586 24.964414-178.281931 100.634483-238.874483l-206.706759-112.004414c0 0-53.989517-24.046345-53.989517-53.989517l0-81.037241C0-103.777103 24.222897-128 53.989517-128l692.012138 0c29.801931 0 54.024828 24.222897 54.024828 53.989517l0 81.037241C800.026483 38.806069 746.001655 61.051586 746.001655 61.051586zM736.044138-64.052966 64.017655-64.052966 64.017655-6.885517c4.590345 3.354483 11.016828 7.20331 16.066207 9.533793 1.483034 0.706207 3.001379 1.412414 4.413793 2.224552l206.706759 112.004414c18.855724 10.20469 31.355586 29.166345 33.227034 50.493793 1.906759 21.327448-6.991448 42.195862-23.693241 55.578483-53.671724 43.008-76.658759 138.169379-76.658759 189.016276L224.079448 546.85131c0 45.938759 86.651586 124.998621 177.399172 124.998621 92.442483 0 174.256552-77.965241 174.256552-124.998621l0-134.956138c0-50.105379-15.501241-145.725793-70.761931-189.086897-16.913655-13.312-25.988414-34.215724-24.222897-55.613793 1.836138-21.398069 14.265379-40.465655 33.121103-50.776276l201.480828-111.474759c1.765517-0.953379 4.025379-2.048 5.896828-2.824828 4.731586-2.01269 10.557793-5.331862 14.795034-8.262621L736.044138-64.052966zM969.975172 220.230621l-204.446897 111.474759c74.857931 58.827034 98.198069 174.503724 98.198069 239.333517L863.726345 706.065655C863.726345 795.436138 741.870345 896 622.415448 896c-77.576828 0-156.919172-42.125241-203.105103-96.150069 26.341517-1.624276 55.366621-1.659586 80.472276-9.604414 33.75669 26.200276 76.376276 41.842759 122.632828 41.842759 92.477793 0 177.293241-78.989241 177.293241-125.98731l0-134.991448c0-50.070069-18.537931-145.690483-73.798621-189.086897-16.913655-13.312-25.988414-34.180414-24.222897-55.578483s14.230069-40.500966 33.121103-50.776276l204.482207-111.474759c1.800828-0.953379 4.025379-2.048 5.932138-2.860138 4.696276-2.01269 10.487172-5.331862 14.759724-8.262621l0-56.814345-129.165241 0c19.49131-14.724414 25.388138-35.769379 32.979862-63.982345l106.178207 0c29.837241 0 54.024828 24.222897 54.024828 54.024828l0 80.013241C1024 197.985103 969.975172 220.230621 969.975172 220.230621z"  horiz-adv-x="1025" />

    
    <glyph glyph-name="liebiaoxingshi" unicode="&#59203;" d="M896.021502 640.043004 607.897867 640.043004c-17.717453 0-31.994625 14.277171-31.994625 31.994625 0 17.717453 14.277171 31.994625 31.994625 31.994625l287.951621 0c17.717453 0 31.994625-14.277171 31.994625-31.994625C928.016126 654.320175 913.738955 640.043004 896.021502 640.043004zM896.021502 480.069881 607.897867 480.069881c-17.717453 0-31.994625 14.277171-31.994625 31.994625s14.277171 31.994625 31.994625 31.994625l287.951621 0c17.717453 0 31.994625-14.277171 31.994625-31.994625S913.738955 480.069881 896.021502 480.069881zM896.021502 223.94087 607.897867 223.94087c-17.717453 0-31.994625 14.277171-31.994625 31.994625s14.277171 31.994625 31.994625 31.994625l287.951621 0c17.717453 0 31.994625-14.277171 31.994625-31.994625S913.738955 223.94087 896.021502 223.94087zM896.021502 63.967747 607.897867 63.967747c-17.717453 0-31.994625 14.277171-31.994625 31.994625s14.277171 31.994625 31.994625 31.994625l287.951621 0c17.717453 0 31.994625-14.277171 31.994625-31.994625S913.738955 63.967747 896.021502 63.967747zM383.935495 416.080632 191.967747 416.080632c-52.980346 0-95.983874 43.003528-95.983874 95.983874L95.983874 704.032253c0 52.980346 43.003528 95.983874 95.983874 95.983874l191.967747 0c52.980346 0 95.983874-43.003528 95.983874-95.983874l0-191.967747C479.919368 459.084159 436.915841 416.080632 383.935495 416.080632zM191.967747 736.026877c-17.545439 0-31.994625-14.449185-31.994625-31.994625l0-191.967747c0-17.545439 14.449185-31.994625 31.994625-31.994625l191.967747 0c17.545439 0 31.994625 14.449185 31.994625 31.994625L415.930119 704.032253c0 17.545439-14.449185 31.994625-31.994625 31.994625L191.967747 736.026877 191.967747 736.026877zM383.935495-32.016126 191.967747-32.016126c-52.980346 0-95.983874 43.003528-95.983874 95.983874L95.983874 256.107509c0 52.980346 43.003528 95.983874 95.983874 95.983874l191.967747 0c52.980346 0 95.983874-43.003528 95.983874-95.983874l0-191.967747C479.919368 11.159415 436.915841-32.016126 383.935495-32.016126zM191.967747 288.102133c-17.545439 0-31.994625-14.277171-31.994625-31.994625l0-191.967747c0-17.717453 14.449185-31.994625 31.994625-31.994625l191.967747 0c17.545439 0 31.994625 14.277171 31.994625 31.994625L415.930119 256.107509c0 17.717453-14.449185 31.994625-31.994625 31.994625L191.967747 288.102133 191.967747 288.102133z"  horiz-adv-x="1024" />

    
    <glyph glyph-name="saoma" unicode="&#59209;" d="M928.016126 352.091382 95.983874 352.091382c-17.717453 0-31.994625 14.277171-31.994625 31.994625S78.26642 416.080632 95.983874 416.080632l832.032253 0c17.717453 0 31.994625-14.277171 31.994625-31.994625S945.73358 352.091382 928.016126 352.091382zM832.032253-32.016126 639.892491-32.016126c-17.717453 0-31.994625 14.277171-31.994625 31.994625s14.277171 31.994625 31.994625 31.994625l191.967747 0c17.717453 0 31.994625 14.277171 31.994625 31.994625l0 159.973123c0 17.717453 14.277171 31.994625 31.994625 31.994625s31.994625-14.277171 31.994625-31.994625l0-159.973123C928.016126 11.159415 884.840585-32.016126 832.032253-32.016126zM351.94087-32.016126l-159.973123 0c-52.980346 0-95.983874 43.003528-95.983874 95.983874l0 159.973123c0 17.717453 14.277171 31.994625 31.994625 31.994625S159.973123 241.658324 159.973123 223.94087l0-159.973123c0-17.717453 14.449185-31.994625 31.994625-31.994625l159.973123 0c17.717453 0 31.994625-14.277171 31.994625-31.994625C383.935495-17.738955 369.658324-32.016126 351.94087-32.016126zM127.978498 512.064505c-17.717453 0-31.994625 14.277171-31.994625 31.994625l0 159.973123c0 52.980346 43.003528 95.983874 95.983874 95.983874l159.973123 0c17.717453 0 31.994625-14.277171 31.994625-31.994625S369.658324 736.026877 351.94087 736.026877l-159.973123 0c-17.545439 0-31.994625-14.449185-31.994625-31.994625l0-159.973123C159.973123 526.341676 145.695952 512.064505 127.978498 512.064505zM896.021502 512.064505c-17.717453 0-31.994625 14.277171-31.994625 31.994625l0 159.973123c0 17.545439-14.277171 31.994625-31.994625 31.994625L639.892491 736.026877c-17.717453 0-31.994625 14.277171-31.994625 31.994625s14.277171 31.994625 31.994625 31.994625l191.967747 0c52.980346 0 95.983874-43.003528 95.983874-95.983874l0-159.973123C928.016126 526.341676 913.738955 512.064505 896.021502 512.064505z"  horiz-adv-x="1024" />

    
    <glyph glyph-name="xiangzuo" unicode="&#58961;" d="M747.172137-63.467241l-447.668833 447.665763L747.172137 831.867354 747.172137-63.467241zM747.172137-63.467241"  horiz-adv-x="1024" />

    
    <glyph glyph-name="weibiaoti38" unicode="&#58973;" d="M512-128C229.6-128 0 101.6 0 384S229.6 896 512 896s512-229.6 512-512S794.4-128 512-128zM512 800c-229.6 0-416-186.4-416-416 0-229.6 186.4-416 416-416s416 186.4 416 416C928 613.6 741.6 800 512 800z"  horiz-adv-x="1024" />

    
    <glyph glyph-name="zhanneixin" unicode="&#58927;" d="M1005.540864 896c-6.087868 0-13.52651-1.731343-22.143166-5.349262L27.306913 484.954335c-34.421557-14.615641-36.597316-42.754037-4.841001-62.558701l270.165905-168.284557c31.761322-19.77587 73.742952-62.173123 93.32353-94.188576L547.926699-105.245919c9.296424-15.189 20.514477-22.754081 31.311899-22.754081 11.956659 0 23.331196 9.168733 31.086562 27.272098l408.834854 955.194443C1030.250374 880.361577 1023.937168 896 1005.540864 896L1005.540864 896zM326.026836 311.217862 107.041339 447.648458 841.745531 759.345318 368.844719 278.433758C354.389318 291.221661 339.743631 302.665051 326.026836 311.217862L326.026836 311.217862zM573.5651-20.636691 442.939448 193.218622c-7.726573 12.626412-17.883035 26.089076-29.227527 39.454094l475.076571 483.092327L573.5651-20.636691 573.5651-20.636691zM573.5651-20.636691"  horiz-adv-x="1025" />

    
    <glyph glyph-name="crm5" unicode="&#58953;" d="M887.248 681.559h-212.297v71.345c0 28.904-23.516 52.42-52.421 52.42h-221.040c-28.91 0-52.431-23.515-52.431-52.42v-71.345h-212.307c-39.020 0-70.645-31.958-70.645-71.377v-557.711c0-39.408 31.625-71.376 70.645-71.376h750.497c39.063 0 70.645 31.968 70.645 71.376v557.711c0 39.419-31.582 71.377-70.645 71.377zM385.897 752.904c0 8.592 6.994 15.581 15.592 15.581h221.041c8.592 0 15.582-6.989 15.582-15.581v-69.436h-252.214l0 69.436zM941.629 308.638h-320.164v-14.276c0-9.663-7.815-17.457-17.468-17.457h-180.526c-9.664 0-17.458 7.792-17.458 17.457v14.276h-332.083v32.68h332.084v14.198c0 9.663 7.793 17.457 17.458 17.457h180.526c9.654 0 17.468-7.793 17.468-17.457v-14.198l320.163-0v-32.68z"  horiz-adv-x="1024" />

    
    <glyph glyph-name="zuire" unicode="&#58981;" d="M621.480051-127.776049c-29.241603 31.225169-63.026213 73.231981-77.519043 113.767113-35.192302 98.250508 0 194.997344 0 194.997344s-113.73512-13.756991-167.323398-177.145249c-15.612585-47.605586 4.223076-96.810823 27.002093-131.843159-159.229169 47.5416-275.555722 196.852938-275.555722 373.998188 0 97.866592 69.360827 159.037211 127.972006 227.502234 33.78461 39.447371 63.986003 194.997344 63.986003 194.997344s49.621145-68.1131 63.986003-162.492455c19.323773-127.172181 0-162.492455 0-162.492455s94.411348 74.159778 95.979005 227.470241c1.759615 172.794201-95.979005 325.016903-95.979005 325.016903s223.439123-127.524104 279.842784-291.712188c67.089324-195.349267 40.087231-390.794514 40.087231-390.794514s65.617646 43.478489 95.979005 97.482676c33.46468 59.506983 31.993002 129.987565 31.993002 129.987565s62.482332-105.09701 63.986003-194.997344C898.827382 69.172868 781.02915-79.978505 621.480051-127.776049z"  horiz-adv-x="1024" />

    
    <glyph glyph-name="shouyeguanggaotupianguanli" unicode="&#59068;" d="M910.336 525.76l-142.272 322.752L0 510.208l184.96-419.712 0-171.072 839.36 0L1024.32 525.76 910.336 525.76 910.336 525.76 910.336 525.76 910.336 525.76zM184.96 463.232 158.976 452.16 184.96 390.848l0-156.16L79.104 484.544l659.84 279.808 101.12-238.528-66.112 0-67.264 158.656L332.608 525.76 184.96 525.76 184.96 463.232 184.96 463.232 184.96 463.232 184.96 463.232zM962.752-19.712 246.016-19.712 246.016 464.192l716.736 0L962.752-19.712 962.752-19.712 962.752-19.712 962.752-19.712zM901.888 403.264 306.88 403.264l0-362.112 594.944 0L901.824 403.264 901.888 403.264 901.888 403.264 901.888 403.264zM901.888 403.264"  horiz-adv-x="1025" />

    
    <glyph glyph-name="anniuguanli" unicode="&#59072;" d="M165.842 480.774c-53.349 0-96.605-43.256-96.605-96.603 0-53.351 43.256-96.604 96.605-96.604 53.349 0 96.603 43.254 96.603 96.604-0 53.348-43.254 96.603-96.603 96.603zM511.996 154.736c-53.348 0-96.603-43.255-96.603-96.603s43.255-96.603 96.603-96.603c53.351 0 96.604 43.255 96.604 96.603s-43.253 96.603-96.604 96.603zM165.842 806.813c-53.349 0-96.605-43.256-96.605-96.604 0-53.349 43.256-96.603 96.605-96.603 53.349 0 96.603 43.254 96.603 96.603-0 53.348-43.254 96.604-96.603 96.604zM165.842 154.736c-53.349 0-96.605-43.255-96.605-96.603s43.256-96.603 96.605-96.603c53.349 0 96.603 43.255 96.603 96.603s-43.254 96.603-96.603 96.603zM858.151 613.604c53.35 0 96.604 43.254 96.604 96.603 0 53.349-43.255 96.604-96.604 96.604-53.348 0-96.603-43.256-96.603-96.604 0-53.349 43.256-96.603 96.603-96.603zM858.151 480.774c-53.348 0-96.603-43.256-96.603-96.603 0-53.351 43.256-96.604 96.603-96.604 53.35 0 96.604 43.254 96.604 96.604 0.001 53.348-43.254 96.603-96.604 96.603zM511.996 480.774c-53.348 0-96.603-43.256-96.603-96.603 0-53.351 43.255-96.604 96.603-96.604 53.351 0 96.604 43.254 96.604 96.604 0 53.348-43.253 96.603-96.604 96.603zM858.151 154.736c-53.348 0-96.603-43.255-96.603-96.603s43.256-96.603 96.603-96.603c53.35 0 96.604 43.255 96.604 96.603s-43.254 96.603-96.604 96.603zM511.996 806.813c-53.348 0-96.603-43.256-96.603-96.604 0-53.349 43.255-96.603 96.603-96.603 53.351 0 96.604 43.254 96.604 96.603 0 53.348-43.253 96.604-96.604 96.604z"  horiz-adv-x="1024" />

    
    <glyph glyph-name="iconfontgengduo" unicode="&#58964;" d="M511.999488 832.354448c-246.99951 0-447.230857-200.231347-447.230857-447.230857 0-246.998487 200.23237-447.231881 447.230857-447.231881 246.99951 0 447.229834 200.233394 447.229834 447.231881C959.229323 632.123101 758.998999 832.354448 511.999488 832.354448zM309.68776 316.10568c-38.145785 0-69.070098 30.924313-69.070098 69.070098s30.92329 69.070098 69.070098 69.070098 69.070098-30.92329 69.070098-69.070098S347.834568 316.10568 309.68776 316.10568zM515.868609 316.10568c-38.145785 0-69.070098 30.924313-69.070098 69.070098s30.92329 69.070098 69.070098 69.070098 69.070098-30.92329 69.070098-69.070098S554.014394 316.10568 515.868609 316.10568zM720.007963 316.10568c-38.145785 0-69.070098 30.924313-69.070098 69.070098s30.924313 69.070098 69.070098 69.070098 69.070098-30.92329 69.070098-69.070098S758.154771 316.10568 720.007963 316.10568z"  horiz-adv-x="1024" />

    
    <glyph glyph-name="icon" unicode="&#58898;" d="M513.139963 134.771729c-20.386306 0-38.498826 8.242731-49.999764 21.011546-0.048095 0.048095-0.099261 0.092098-0.147356 0.140193L80.051197 538.869207c-20.046568 20.043499-20.046568 52.540633 0 72.583109 20.043499 20.043499 52.53654 20.043499 72.580039 0l350.214267-350.214267c5.664-5.664 14.84715-5.664 20.511149 0l350.214267 350.214267c20.043499 20.043499 52.53654 20.043499 72.583109 0 20.043499-20.042475 20.043499-52.540633 0-72.583109L563.758828 156.474007C552.294728 143.310196 533.893636 134.771729 513.139963 134.771729z"  horiz-adv-x="1024" />

    
    <glyph glyph-name="reset" unicode="&#59006;" d="M902.916175 575.224781C855.39789 671.339677 773.894471 745.824997 673.408314 784.966762 573.579315 823.853184 463.770085 824.645808 364.208221 787.185043L344.247764 779.684379 299.919093 896.003192 155.472914 645.305456 408.937597 609.929982 364.453987 726.653086 384.510614 734.169709C470.523302 766.385329 565.479728 765.746974 651.877094 732.371678 739.412459 698.565492 810.412064 633.852314 851.791545 550.169372 896.152272 460.422058 902.942888 359.34928 870.886479 265.559056 838.840754 171.763515 771.559697 95.783381 681.433101 51.609258 591.290479 7.424491 489.778518 0.668574 395.591445 32.596935 308.579666 62.06763 235.998613 122.264449 190.681537 202.399208L139.492794 177.306561C192.209559 82.670519 278.168819 12.036603 382.106383-21.886615 489.880031-57.054623 605.117478-49.037956 706.602726 0.705812 919.809902 105.215068 1007.879542 362.940023 902.916175 575.224781"  horiz-adv-x="1024" />

    
    <glyph glyph-name="quanpingzuidahua" unicode="&#59270;" d="M64 730.368 64 480C64 462.336 78.336 448 96 448S128 462.336 128 480L128 660.672l203.456-203.52c11.968-11.968 31.36-11.968 43.392 0 11.968 12.032 11.968 31.424 0 43.392L171.328 704 352 704C369.664 704 384 718.336 384 736S369.664 768 352 768L101.632 768C78.272 768 64 755.968 64 730.368zM860.352 768 609.984 768c-17.664 0-32-14.336-32-32S592.32 704 609.984 704l180.672 0-203.52-203.456c-11.968-11.968-11.968-31.36 0-43.392 12.032-11.968 31.424-11.968 43.392 0l203.456 203.52L833.984 480c0-17.664 14.336-32 32-32s32 14.336 32 32L897.984 730.368C897.984 755.968 883.776 768 860.352 768zM101.632-64 352-64C369.664-64 384-49.664 384-32S369.664 0 352 0L171.328 0l203.52 203.456c11.968 11.968 11.968 31.36 0 43.392-12.032 11.968-31.424 11.968-43.392 0L128 43.328 128 224C128 241.664 113.664 256 96 256S64 241.664 64 224l0-250.368C64-51.968 78.272-64 101.632-64zM897.984-26.368 897.984 224c0 17.664-14.336 32-32 32s-32-14.336-32-32l0-180.672-203.456 203.52c-11.968 11.968-31.36 11.968-43.392 0-11.968-12.032-11.968-31.424 0-43.392L790.656 0 609.984 0c-17.664 0-32-14.336-32-32s14.336-32 32-32l250.368 0C883.776-64 897.984-51.968 897.984-26.368z"  horiz-adv-x="1024" />

    
    <glyph glyph-name="jiaoseguanli" unicode="&#60002;" d="M792.703177 361.547226c-49.288352-33.217439-108.257215-52.515189-171.718341-52.515189-63.271312 0-122.050361 19.171208-171.1489 52.135561-132.996298-65.042909-224.866244-203.290726-224.866244-363.303875 0-169.314031 793.232441-166.972993 793.232441 0C1018.138862 158.2565 926.079103 296.694131 792.703177 361.547226L792.703177 361.547226 792.703177 361.547226zM354.359526 625.00897c0 149.636653 119.329695 270.99103 266.62531 270.99103 147.295615 0 266.62531-121.291105 266.62531-270.99103 0-149.636653-119.329695-270.864488-266.62531-270.864488C473.68922 354.144482 354.359526 475.372316 354.359526 625.00897L354.359526 625.00897 354.359526 625.00897 354.359526 625.00897zM177.959107-16.182508c0-6.200589 0.94907-12.084821 2.783938-17.905781C80.584558-17.827562 5.797867 14.250993 5.797867 62.590276c0 138.500902 79.468768 258.146954 194.622556 314.458422 40.177283-27.01685 88.010395-43.340849 139.576515-45.049174C241.040605 249.303918 177.959107 124.02672 177.959107-16.182508L177.959107-16.182508 177.959107-16.182508zM310.006336 625.00897c0 68.775916 21.638789 132.426856 58.399421 184.309332C361.952083 809.887744 355.561681 810.140829 349.108007 810.140829c-121.227834 0-219.488182-99.842131-219.488182-223.031376s98.197077-223.031376 219.424911-223.031376c27.269936 0 53.400988 5.061705 77.444086 14.362588C355.498409 436.333917 310.006336 525.23011 310.006336 625.00897L310.006336 625.00897zM310.006336 625.00897"  horiz-adv-x="1024" />

    
    <glyph glyph-name="yuanjiao-rect" unicode="&#58974;" d="M962 114c0-99.405-80.595-180-180-180h-540c-99.405 0-180 80.595-180 180v540c0 99.405 80.595 180 180 180h540c99.405 0 180-80.595 180-180v-540z"  horiz-adv-x="1024" />

    
    <glyph glyph-name="jichushuju" unicode="&#58937;" d="M447.851493 655.446295l-1.007957 0c-0.667196-7.42818-2.333138-14.170744-4.996804-20.22667l-25.007557-75.823919 64.025199 0-28.005844 76.833923C450.850803 642.960936 449.173604 649.370927 447.851493 655.446295zM566.047452 737.09999 322.572208 737.09999c-25.987884 0-47.054689-21.067828-47.054689-47.064922l0-231.531214c0-25.986861 21.067828-47.054689 47.054689-47.054689l243.476267 0c25.987884 0 47.053666 21.068851 47.053666 47.054689L613.102141 690.036092C613.102141 716.033186 592.036359 737.09999 566.047452 737.09999zM505.872954 472.448448l-16.011672 48.535413-84.025719 0-16.002462-48.535413-54.032614 0 82.037435 222.418672 60.029188 0 83.025948-222.418672L505.872954 472.448448zM499.551992 333.370903c0 25.987884-21.067828 47.054689-47.055712 47.054689l-243.475244 0c-25.987884 0-47.054689-21.067828-47.054689-47.054689L161.966347 101.829456c0-25.995047 21.067828-47.063899 47.054689-47.063899l243.475244 0c25.987884 0 47.055712 21.068851 47.055712 47.063899L499.551992 333.370903zM338.377172 101.054813 230.333434 101.054813 230.333434 323.466322l103.036701 0c49.347918-1.363044 75.364455-18.883069 78.040401-52.574403 0-26.28055-14.355963-43.820018-43.019793-52.570309 30.661324-6.742565 48.016597-23.931039 52.013631-51.564399C420.405397 122.946402 393.055492 101.054813 338.377172 101.054813zM330.370825 196.08619l-50.01409 0 0-59.654658 49.015344 0c24.664749 0 37.34249 10.112312 38.019918 30.325679C365.393479 185.62186 353.036034 195.401598 330.370825 196.08619zM358.385878 261.79882c-0.675382 16.168238-11.680017 24.26259-33.012881 24.26259l-45.016263 0 0-52.570309 45.016263 0C346.705861 234.144994 357.710496 243.59318 358.385878 261.79882zM820.763714 380.426615 577.296657 380.426615c-25.997094 0-47.055712-21.067828-47.055712-47.054689L530.240945 101.829456c0-25.995047 21.058618-47.063899 47.055712-47.063899l243.467057 0c25.997094 0 47.063899 21.068851 47.063899 47.063899L867.827613 333.370903C867.827613 359.358787 846.761831 380.426615 820.763714 380.426615zM706.576045 96.99945c-68.035536 3.390213-103.713107 41.781592-107.043968 115.254977 3.331885 72.111364 39.008432 110.199845 107.043968 114.236787 48.01455-1.349741 79.351256-23.927969 94.030583-67.730591l-48.01455-11.110035c-6.682189 22.88829-22.00927 35.020608-46.016033 36.392862-34.022884-2.038426-52.023864-25.967418-54.032614-71.789023 1.333368-46.50415 19.343557-71.119781 54.032614-73.804936 27.338648 0.664126 43.329854 17.187451 48.01455 49.542346l48.015573-15.166421C791.257703 122.281253 759.255849 96.99945 706.576045 96.99945z"  horiz-adv-x="1024" />

    
    <glyph glyph-name="iconxiangzuo" unicode="&#58926;" d="M669.120992 33.321152c-11.112082 0-22.226211 4.297886-30.714536 12.930497L320.101947 370.355235c-16.940834 17.244756-16.940834 45.235251 0 62.500473l318.30451 324.139401c16.975627 17.265222 44.419675 17.265222 61.395302 0 16.939811-17.245779 16.939811-45.237297 0-62.500473L412.194388 401.618263 699.801758 108.787938c16.939811-17.273409 16.939811-45.237297 0-62.509682C691.350273 37.619038 680.235121 33.321152 669.120992 33.321152L669.120992 33.321152zM669.120992 33.321152"  horiz-adv-x="1024" />

    
    <glyph glyph-name="fasong" unicode="&#59153;" d="M826.584243 527.477763 653.739322 527.477763c-15.91892 0-29.565579-14.020333-29.565579-30.378395 0-16.357055 13.645652-30.378395 29.565579-30.378395l172.844921 0c47.758774 0 86.422461-39.726291 86.422461-88.799471l0-358.362532c0-49.07318-38.663687-88.798464-86.422461-88.798464L197.415757-69.239495c-47.759781 0-86.422461 39.725284-86.422461 88.798464L110.993296 380.25923c0 49.072173 38.66268 88.798464 86.422461 88.798464l204.684775 0c15.91892 0 29.565579 14.02134 29.565579 30.379403 0 16.358062-13.645652 30.378395-29.565579 30.378395l-204.684775 0c-79.598628 0-145.553618-67.76595-145.553618-149.555255l0-358.362532c0-81.789305 65.953983-149.555255 145.553618-149.555255l629.168487 0c79.598628 0 145.553618 67.76595 145.553618 149.555255L972.137862 380.25923C969.861572 462.048535 906.182871 527.477763 826.584243 527.477763zM523.99786 879.52208c9.24919 0 17.039942-3.295584 23.366214-9.884738l208.177772-171.174971c6.326272-6.589154 9.490919-14.70322 9.490919-24.337163 0-9.809197-3.122344-17.966573-9.367033-24.470114-6.244689-6.504548-14.075729-9.755815-23.491108-9.755815-9.254226 0-17.042964 3.295584-23.370243 9.884738L556.881181 762.649712l0-604.777942c0-9.445595-3.211986-17.516351-9.635957-24.212269-6.429008-6.690882-14.177457-10.035819-23.247364-10.035819-9.072928 0-16.822385 3.345944-23.247364 10.035819-6.429008 6.695918-9.642001 14.766674-9.642001 24.212269l0 604.777942L339.190331 649.785024c-6.672752-6.589154-14.463504-9.884738-23.370243-9.884738-9.073935 0-16.823392 3.345944-23.248371 10.03884-6.429008 6.690882-9.640993 14.761638-9.640993 24.211262 0 9.277391 3.16364 17.389443 9.490919 24.340184L500.600422 869.664537c6.326272 6.589154 14.117025 9.884738 23.370243 9.884738L523.99786 879.52208z"  horiz-adv-x="1024" />

    
    <glyph glyph-name="jieshou" unicode="&#59154;" d="M826.584243 527.47877 653.739322 527.47877c-15.91892 0-29.565579-14.020333-29.565579-30.378395 0-16.357055 13.645652-30.379403 29.565579-30.379403l172.844921 0c47.758774 0 86.422461-39.726291 86.422461-88.799471l0-358.362532c0-49.07318-38.663687-88.798464-86.422461-88.798464L197.415757-69.239495c-47.759781 0-86.422461 39.725284-86.422461 88.798464L110.993296 380.260237c0 49.072173 38.66268 88.798464 86.422461 88.798464l204.684775 0c15.91892 0 29.565579 14.020333 29.565579 30.378395 0 16.358062-13.645652 30.379403-29.565579 30.379403l-204.684775 0c-79.598628 0-145.553618-67.767964-145.553618-149.555255l0-358.363539c0-81.788298 65.953983-149.555255 145.553618-149.555255l629.168487 0c79.598628 0 145.553618 67.766957 145.553618 149.555255L972.137862 380.260237C969.861572 462.047528 906.182871 527.47877 826.584243 527.47877zM523.99786 112.695477c9.24919 0 17.039942 3.294577 23.366214 9.88373l208.177772 171.176985c6.326272 6.589154 9.490919 14.702213 9.490919 24.336156 0 9.810204-3.122344 17.966573-9.367033 24.469107-6.244689 6.505555-14.075729 9.756822-23.491108 9.756822-9.254226 0-17.042964-3.294577-23.370243-9.88373L556.881181 229.567845 556.881181 845.302194c0 9.445595-3.211986 17.515344-9.635957 24.210255-6.429008 6.691889-14.177457 10.036826-23.247364 10.036826-9.072928 0-16.822385-3.345944-23.247364-10.036826-6.429008-6.69491-9.642001-14.76466-9.642001-24.210255l0-615.734349L339.190331 342.43354c-6.672752 6.589154-14.463504 9.88373-23.370243 9.88373-9.073935 0-16.823392-3.345944-23.248371-10.036826-6.429008-6.691889-9.640993-14.762645-9.640993-24.212269 0-9.275377 3.16364-17.389443 9.490919-24.339177l208.177772-171.175978c6.326272-6.591168 14.117025-9.88373 23.370243-9.88373L523.99786 112.695477z"  horiz-adv-x="1024" />

    
    <glyph glyph-name="icontupianguanli" unicode="&#58942;" d="M873.483938 776.470673 146.249899 776.470673c-46.367027 0-83.95511-37.589107-83.95511-83.956134l0-615.340623c0-46.369074 37.588083-83.956134 83.95511-83.956134l727.234039 0c46.367027 0 83.949994 37.588083 83.949994 83.956134L957.433932 692.514539C957.433932 738.881566 919.850965 776.470673 873.483938 776.470673L873.483938 776.470673 873.483938 776.470673zM146.226363 720.5255l727.283158 0c15.454994 0 27.984355-12.535501 27.984355-27.985378L901.493875 363.069295c-45.083801 36.989449-123.234719 86.863347-216.990033 86.863347-86.440721 0-171.671894-66.985624-254.077719-131.763976-63.146179-49.627281-128.450511-100.95632-174.263929-100.95632-64.269769 0-119.278617 47.240931-137.921209 65.269539L118.240985 692.540122C118.240985 707.989999 130.769322 720.5255 146.226363 720.5255L146.226363 720.5255 146.226363 720.5255zM873.509521 49.162956 146.226363 49.162956c-15.45704 0-27.985378 12.535501-27.985378 27.985378L118.240985 209.946872c33.542954-23.769356 82.048691-48.705282 137.921209-48.705282 65.176418 0 134.965901 54.848189 208.842469 112.920816 74.940806 58.897412 152.416342 119.798457 219.49918 119.798457 120.235408 0 215.598336-105.84363 216.543871-106.910938l0.445138 0.391926 0-210.2884C901.493875 61.698456 888.964514 49.162956 873.509521 49.162956L873.509521 49.162956 873.509521 49.162956zM341.740268 384.540306c61.881372 0 112.043842 50.167586 112.043842 112.043842 0 61.882396-50.16247 112.044866-112.043842 112.044866-61.878303 0-112.044866-50.16247-112.044866-112.044866C229.695403 434.706869 279.862989 384.540306 341.740268 384.540306L341.740268 384.540306 341.740268 384.540306zM342.157777 552.682817c30.807656 0 55.783491-24.970718 55.783491-55.785537 0-30.812773-24.975834-55.784514-55.783491-55.784514-30.813796 0-55.788607 24.971741-55.788607 55.784514C286.37224 527.705959 311.348074 552.682817 342.157777 552.682817L342.157777 552.682817 342.157777 552.682817zM342.157777 552.682817"  horiz-adv-x="1024" />

    
    <glyph glyph-name="iuchengrenwu" unicode="&#58921;" d="M578.212 814.449h-132.444c-54.845 0-99.328-44.483-99.328-99.348 0-54.845 44.483-99.328 99.328-99.328h132.444c54.845 0 99.328 44.483 99.328 99.328 0 54.866-44.483 99.348-99.328 99.348v0zM578.212 682.004h-132.444c-18.207 0-33.116 14.909-33.116 33.096 0 18.227 14.909 33.116 33.116 33.116h132.444c18.248 0 33.116-14.909 33.116-33.116 0.020-18.207-14.868-33.096-33.116-33.096v0zM578.212 483.348h-132.444c-54.845 0-99.328-44.483-99.328-99.348 0-54.845 44.483-99.328 99.328-99.328h132.444c54.845 0 99.328 44.483 99.328 99.328 0 54.866-44.483 99.348-99.328 99.348v0zM578.212 350.904h-132.444c-18.207 0-33.116 14.889-33.116 33.096s14.909 33.096 33.116 33.096h132.444c18.248 0 33.116-14.889 33.116-33.096s-14.868-33.096-33.116-33.096v0zM578.212 152.248h-132.444c-54.845 0-99.328-44.483-99.328-99.328 0-54.886 44.483-99.369 99.328-99.369h132.444c54.845 0 99.328 44.483 99.328 99.369 0 54.845-44.483 99.328-99.328 99.328v0zM578.212 19.784h-132.444c-18.207 0-33.116 14.889-33.116 33.137 0 18.186 14.909 33.096 33.116 33.096h132.444c18.248 0 33.116-14.93 33.116-33.096 0.020-18.268-14.868-33.137-33.116-33.137v0zM214.016 86.016c-35.43 0-68.669 13.783-93.696 38.728-24.945 25.068-38.748 58.286-38.748 93.696s13.804 68.69 38.748 93.737c25.047 25.047 58.266 38.728 93.696 38.728h66.212v66.191l-66.212 0c-109.711 0-198.676-88.945-198.676-198.656v0c0-109.711 88.965-198.656 198.676-198.656v-66.212l99.328 99.369-99.328 99.328v-66.253zM810.004 748.216h-66.191v-66.212h66.191c35.41 0 68.669-13.804 93.696-38.748 25.047-25.068 38.769-58.286 38.769-93.696 0-35.43-13.804-68.669-38.769-93.696-25.047-24.945-58.286-38.769-93.696-38.769v66.232l-99.348-99.328 99.348-99.328v66.212c109.711 0 198.656 88.945 198.656 198.656v0c0 109.711-88.945 198.676-198.656 198.676v0zM810.004 748.216z"  horiz-adv-x="1024" />

    
    <glyph glyph-name="iconfontyonghuming" unicode="&#58934;" d="M599.996658-65.992761 419.590845-65.992761c-169.645748 0-303.644625 0-303.644625 86.172615l0 17.742083c0 164.895561 136.216381 299.032584 303.644625 299.032584l180.405813 0c167.416987 0 303.622112-134.137023 303.622112-299.032584l0-17.742083C903.61877-65.992761 762.907005-65.992761 599.996658-65.992761zM419.590845 288.893922c-140.933823 0-255.584026-112.574938-255.584026-250.973008l0-17.742083c0-38.109969 141.719722-38.109969 255.584026-38.109969l180.405813 0c95.583962 0 255.56049 0 255.56049 38.109969l0 17.742083c0 138.39807-114.6369 250.973008-255.56049 250.973008L419.590845 288.893922zM500.776889 359.893976c-132.614343 0-240.495376 106.295931-240.495376 236.951667l0 0 0 0c-0.011256 63.362096 25.051559 122.911354 70.567195 167.67486 45.409213 44.670385 105.755626 69.264527 169.928181 69.264527 132.614343 0 240.49333-106.295931 240.49333-236.939387C741.270219 466.190931 633.391233 359.893976 500.776889 359.893976zM284.312836 596.845643l24.030299 0c0-104.148012 86.325088-188.889021 192.433754-188.889021 106.096387 0 192.432731 84.74101 192.432731 188.889021 0 104.149035-86.336344 188.878788-192.432731 188.878788-51.487651 0-99.866499-19.700691-136.217405-55.466266-36.256762-35.658128-56.216349-83.039251-56.216349-133.412522L284.312836 596.845643z"  horiz-adv-x="1024" />

    
    <glyph glyph-name="xiangxia" unicode="&#58931;" d="M907.508 581.683 511.979 186.242 116.49 581.683 907.508 581.683 907.508 581.683z"  horiz-adv-x="1024" />

    
    <glyph glyph-name="wsmp-setting" unicode="&#58910;" d="M399.616 118.249h-111.35v-62.849h174.077l-60.32 60.316zM379.988 266.322h-199.472v399.021h610.38v-148.423l43.127 30.801 46.563-46.56v250.257h-789.76v-580.266h289.162zM933.174 217.81v92.977l-71.001 11.822c-2.887 8.768-6.409 17.251-10.49 25.399l41.834 58.539-65.738 65.735-58.468-41.757c-8.178 4.144-16.719 7.679-25.55 10.582l-11.822 70.875h-92.985l-11.792-70.844c-8.831-2.903-17.342-6.47-25.521-10.582l-58.466 41.757-65.723-65.721 41.818-58.553c-4.081-8.148-7.606-16.629-10.49-25.399l-71.033-11.885v-92.978l71.182-11.853c2.889-8.708 6.38-17.1 10.477-25.173l-41.955-58.781 65.723-65.721 58.871 42.044c8.014-4.038 16.404-7.53 25.053-10.372l11.885-71.344h92.983l11.897 71.344c8.633 2.842 16.994 6.305 25.039 10.372l58.871-42.060 65.738 65.735-41.972 58.765c4.101 8.089 7.591 16.48 10.479 25.173l71.151 11.9zM685.461 190.287c-40.881 0-73.997 33.114-73.997 73.995 0 40.883 33.115 73.996 73.997 73.996 40.883 0 73.999-33.113 73.999-73.996 0-40.881-33.116-73.995-73.999-73.995z"  horiz-adv-x="1024" />

    
    <glyph glyph-name="bangzhu" unicode="&#58930;" d="M512-93.867c263.919 0 477.867 213.948 477.867 477.867s-213.948 477.867-477.867 477.867c-263.919 0-477.867-213.948-477.867-477.867 0-263.919 213.948-477.867 477.867-477.867zM541.401 161.841l0-78.4-68.601 0 0 78.4 68.601 0zM394.4 481.974l-71.867 0c0 137.201 66.421 204.711 199.267 202.533 115.423-4.355 175.311-60.977 179.666-169.867 0-39.2-27.222-82.755-81.666-130.667-52.267-47.911-78.4-89.289-78.4-124.133l0-29.401-68.601 0 0 42.467c0 41.378 27.222 88.199 81.667 140.466 41.378 41.378 64.244 75.133 68.601 101.267-2.178 58.8-33.756 91.467-94.734 98-91.467 4.355-136.111-39.2-133.934-130.667z"  horiz-adv-x="1024" />

    
    <glyph glyph-name="class" unicode="&#59051;" d="M870.544 55.38h-597.566c-33 0-59.757 26.706-59.757 59.725v657.3c0 33.018 26.757 59.755 59.757 59.755h597.566c32.995 0 59.747-26.736 59.747-59.755v-657.301c0-33.018-26.75-59.724-59.747-59.724zM870.544 742.528c0 16.504-13.374 29.877-29.878 29.877h-537.809c-16.505 0-29.878-13.374-29.878-29.877v-597.546c0-16.484 13.374-29.877 29.878-29.877h537.81c16.505 0 29.878 13.393 29.878 29.877l-0 597.546zM780.899 234.603h-418.287c-16.505 0-29.878 13.393-29.878 29.917 0 16.484 13.374 29.877 29.878 29.877h418.287c16.505 0 29.878-13.393 29.878-29.877 0-16.524-13.374-29.917-29.878-29.917zM780.899 413.897h-418.287c-16.505 0-29.878 13.391-29.878 29.877 0 16.484 13.374 29.877 29.878 29.877h418.287c16.505 0 29.878-13.393 29.878-29.877 0-16.485-13.374-29.877-29.878-29.877zM601.64 593.162h-239.026c-16.505 0-29.878 13.363-29.878 29.857 0 16.524 13.374 29.888 29.878 29.888h239.027c16.505 0 29.868-13.363 29.868-29.888-0.001-16.495-13.364-29.857-29.869-29.857zM810.788-64.16h-657.323c-33 0-59.757 26.756-59.757 59.785l0 657.282c0 33.009 26.757 59.725 59.757 59.725v-717.006h717.080c-0.001-33.029-26.755-59.786-59.757-59.786z"  horiz-adv-x="1024" />

    
    <glyph glyph-name="xitongshezhi1" unicode="&#58894;" d="M663.091672 216.497055l-69.965491 28.180829c1.944282 15.547091 0.972141 31.095205-0.970094 45.671179l69.964468 30.124088c15.547091 6.800893 22.350031 24.293289 15.547091 39.841404l-27.208689 62.191434c-5.829775 15.548114-24.293289 22.350031-38.868239 15.548114l-69.965491-29.151947c-9.717316 11.660574-20.405749 22.350031-33.029254 32.066323l28.170596 69.965491c5.829775 15.548114-0.971118 33.039487-16.520255 38.869263l-63.152319 25.26543c-15.548114 5.829775-33.039487-0.972141-39.841404-16.520255l-27.208689-69.965491c-15.548114 0.972141-31.095205 0.972141-46.64332-0.972141l-29.151947 68.993351c-6.801916 15.547091-24.294312 22.350031-39.841404 16.519232l-63.162552-27.208689c-14.575973-6.800893-22.350031-24.293289-15.547091-39.84038l30.123065-68.993351c-11.660574-9.717316-22.349007-20.405749-32.066323-33.038464l-69.965491 28.180829c-15.547091 5.830799-33.038464-1.943258-39.841404-16.520255l-25.26543-64.133669c-5.830799-15.548114 1.943258-33.038464 17.491373-38.869263l69.965491-28.180829c-1.943258-15.547091-1.943258-31.095205 0-45.671179L77.145519 208.724021c-15.548114-6.801916-22.350031-24.293289-15.548114-38.869263l26.236548-63.163575c6.801916-15.547091 24.293289-22.349007 39.841404-15.547091l68.993351 29.151947c9.717316-11.660574 21.37789-22.350031 33.039487-32.067346l-27.208689-69.964468c-6.801916-15.548114 0.972141-33.039487 16.519232-38.869263l63.162552-25.26543c15.548114-5.829775 33.039487 0.972141 38.869263 16.520255l28.180829 69.965491c15.547091-0.972141 31.095205-0.972141 46.64332 0.971118l29.151947-68.992327c6.801916-15.548114 24.293289-22.351054 39.841404-16.520255l62.181201 27.208689c15.547091 6.800893 22.351054 24.293289 16.520255 39.841404l-30.114878 68.993351c11.651364 9.716292 22.340821 21.37789 32.058137 33.038464l69.964468-28.179806c15.548114-5.830799 33.038464 1.942235 38.869263 17.491373l25.264407 63.162552C686.41282 193.175907 678.639786 210.666256 663.091672 216.497055zM322.022693 145.560446c-66.077951 26.236548-98.145297 101.060697-71.90875 166.166507 26.236548 66.077951 101.059674 98.145297 167.138648 71.90875 66.077951-26.237571 98.141204-101.060697 71.90875-166.166507C461.952652 151.391245 388.100644 119.323898 322.022693 145.560446zM958.498682 42.557514l-32.066323 13.603833c0.971118 6.800893 0.971118 13.604856 0 21.378913l32.066323 13.603833c6.80294 2.915399 9.718339 10.688433 6.80294 17.492396l-12.632715 29.150924c-2.915399 6.800893-10.689457 10.688433-17.492396 6.800893l-32.066323-13.603833c-4.858658 5.829775-9.718339 10.689457-15.548114 15.548114l12.632715 32.067346c2.916423 6.800893 0 14.575973-7.774057 17.491373l-29.151947 11.660574c-6.800893 2.915399-14.57495 0-17.491373-7.774057l-12.632715-32.067346c-7.774057 0.972141-14.575973 0.972141-21.378913 0l-13.603833 32.067346c-2.916423 6.801916-11.660574 9.718339-18.463514 6.801916l-29.150924-12.632715c-6.801916-2.916423-9.718339-10.689457-6.801916-17.491373l13.603833-32.06837c-5.829775-4.857635-10.688433-9.716292-14.57495-15.547091l-32.06837 12.633738c-7.774057 2.914376-15.547091 0-18.46249-6.801916l-11.661597-29.151947c-2.915399-7.774057 0.972141-15.548114 7.77508-18.463514l32.067346-12.632715c0-7.774057 0-14.575973 0-21.37789l-31.096229-13.604856c-7.774057-2.915399-10.689457-11.661597-7.774057-18.46249l12.631692-29.151947c2.916423-6.801916 10.689457-9.717316 18.464537-6.801916l31.095205 13.604856c4.857635-4.858658 9.717316-10.688433 15.547091-14.575973l-12.632715-32.067346c-2.915399-7.774057 0-15.547091 7.774057-18.46249l29.151947-11.661597c6.801916-2.916423 14.575973 0.971118 17.491373 7.774057l13.603833 32.066323c6.80294 0 13.604856 0 20.406772 0.972141l13.604856-32.067346c3.886517-6.801916 11.660574-10.688433 18.46249-7.774057l29.150924 12.632715c6.80294 2.915399 9.718339 11.661597 6.80294 18.46249l-13.604856 32.06837c5.830799 3.886517 10.688433 8.745175 14.57495 14.57495l33.039487-12.631692c6.801916-2.916423 14.575973 0.970094 17.491373 7.774057l11.661597 29.150924C969.189162 31.868057 965.301622 39.641091 958.498682 42.557514zM802.050514 10.490168c-31.096229 11.660574-45.672202 46.64332-33.039487 76.766384 11.661597 30.124088 45.671179 44.701085 76.767408 33.039487 30.124088-12.632715 44.700061-46.64332 33.039487-76.767408C866.184183 13.405567 832.174602-2.143571 802.050514 10.490168zM892.421754 645.033132l-40.812521 15.547091c0.971118 9.717316 0.971118 18.46249 0 27.208689l39.841404 16.519232c8.745175 3.886517 12.631692 14.576997 8.745175 23.322172l-15.547091 35.954887c-3.88754 8.745175-13.603833 12.632715-22.350031 8.745175l-39.842427-16.519232c-5.828752 5.829775-11.660574 12.631692-19.433608 18.46249l16.519232 39.841404c2.915399 8.745175-0.971118 19.434631-9.716292 22.349007l-36.926004 14.576997c-8.746198 3.886517-18.463514-0.972141-22.350031-9.717316l-15.548114-39.841404c-8.745175 0.972141-18.46249 0-27.208689-0.971118l-16.520255 39.841404c-3.886517 8.745175-13.603833 13.603833-22.349007 9.717316l-36.927027-15.547091c-8.745175-3.886517-12.631692-14.575973-8.745175-23.322172l17.491373-39.841404c-6.800893-4.858658-13.603833-11.660574-18.46249-18.46249l-40.813544 15.547091c-8.745175 3.886517-18.46249 0-22.350031-9.717316l-14.575973-35.953863c-2.915399-8.746198 0.972141-18.463514 9.717316-22.350031l40.813544-16.519232c-0.972141-8.745175-0.972141-17.491373 0-26.236548l-39.842427-17.491373c-8.745175-2.915399-12.632715-13.603833-8.745175-22.349007l14.575973-35.954887c3.88754-8.746198 14.575973-12.632715 23.322172-8.746198l39.84038 16.520255c5.830799-6.801916 11.661597-12.632715 18.463514-18.46249l-15.547091-39.841404c-3.88754-8.745175 0.971118-19.434631 9.716292-22.349007l35.954887-14.576997c8.746198-3.886517 19.434631 0.972141 22.350031 9.717316l16.520255 39.841404c8.746198-0.972141 17.491373-0.972141 26.236548 0.971118l17.492396-40.812521c3.886517-8.745175 13.603833-12.632715 22.350031-8.745175l35.954887 15.547091c8.744151 3.886517 12.631692 13.604856 9.716292 22.350031l-17.491373 39.84038c6.801916 5.830799 12.632715 12.632715 18.463514 19.434631l39.841404-16.519232c9.716292-2.915399 19.434631 0.972141 23.321148 9.717316l14.575973 36.926004C905.053446 631.428276 901.167952 641.145591 892.421754 645.033132zM696.131159 604.219587c-37.897122 14.575973-56.361659 58.303894-41.784662 96.202039 15.547091 36.926004 58.304917 55.389518 96.202039 40.812521 37.897122-15.547091 56.359612-58.303894 40.812521-96.201016C776.785084 607.134986 734.029304 588.671473 696.131159 604.219587z"  horiz-adv-x="1024" />

    
    <glyph glyph-name="jinyong" unicode="&#59390;" d="M512.005116 895.989767c-282.770232 0-512-229.230791-512-511.994884 0-282.770232 229.230791-511.994884 512-511.994884 282.765115 0 511.989767 229.225675 511.989767 511.994884C1023.994884 666.759999 794.769209 895.989767 512.005116 895.989767zM921.600614 383.994884c0-78.892419-22.310744-152.57221-60.958277-215.083838L232.101114 683.028228C305.330658 751.601813 403.761734 793.591404 512.005116 793.591404 738.215162 793.591404 921.600614 610.210046 921.600614 383.994884zM102.408596 383.994884c0 81.277703 23.67274 157.026581 64.499876 220.726247l629.824426-515.162983C723.029571 18.26978 622.640946-25.600614 512.005116-25.600614 285.784838-25.600614 102.408596 157.779721 102.408596 383.994884z"  horiz-adv-x="1024" />

    
    <glyph glyph-name="yuan" unicode="&#58975;" d="M0 384C0 666.769792 229.805588 896 512 896 794.769792 896 1024 666.194412 1024 384 1024 101.230208 794.194412-128 512-128 229.230208-128 0 101.805588 0 384Z"  horiz-adv-x="1024" />

    
    <glyph glyph-name="icon_location" unicode="&#58966;" d="M672 576c0-88.128-71.872-160-160-160-88.128 0-160 71.872-160 160 0 88.128 71.872 160 160 160 88.128 0 160-71.872 160-160M512 896c-176.864 0-320-143.136-320-320 0-38.112 4.384-77.504 20.64-111.872l228.096-483.744c12.512-27.52 41.28-44.384 71.264-44.384 30.016 0 58.752 16.864 71.872 44.384l227.488 483.744c16.256 34.368 20.64 73.76 20.64 111.872 0 176.864-143.136 320-320 320z"  horiz-adv-x="1024" />

    
    <glyph glyph-name="gengduo" unicode="&#58928;" d="M223.962372 288.102133c-52.980346 0-95.983874 43.003528-95.983874 95.983874s43.003528 95.983874 95.983874 95.983874 95.983874-43.003528 95.983874-95.983874S276.942718 288.102133 223.962372 288.102133zM511.913993 288.102133c-52.980346 0-95.983874 43.003528-95.983874 95.983874s43.003528 95.983874 95.983874 95.983874 95.983874-43.003528 95.983874-95.983874S564.894339 288.102133 511.913993 288.102133zM800.037628 288.102133c-52.980346 0-95.983874 43.003528-95.983874 95.983874s43.003528 95.983874 95.983874 95.983874 95.983874-43.003528 95.983874-95.983874S852.84596 288.102133 800.037628 288.102133z"  horiz-adv-x="1024" />

    
    <glyph glyph-name="xiangyou1" unicode="&#58968;" d="M767.180332 384.818645c-0.019443 14.794961-5.702885 29.571503-16.987906 40.876989L362.237603 814.325839c-22.447245 22.48613-59.144028 22.61302-81.699744 0.017396-22.713304-22.75219-22.547529-59.237149 0.017396-81.841983l347.131045-347.735819L280.556279 37.030637c-22.447245-22.48613-22.573111-59.246359-0.017396-81.841983 22.713304-22.75219 59.133795-22.587438 81.699744 0.017396l387.953799 388.630205c11.226692 11.246135 16.870226 26.062586 16.884552 40.892339L767.180332 384.818645z"  horiz-adv-x="1024" />

    
    <glyph glyph-name="shuaxin" unicode="&#59228;" d="M946.179275 217.358249l-193.707605-34.996303c-27.01469-4.911762-38.680124-37.247527-20.874988-58.224843l36.735885-43.387229c-167.409214-141.417808-417.704407-120.54282-559.224543 46.661737-57.406216 67.843709-87.797742 149.194764-92.811832 231.466773l-0.511642 0c0 2.148896 0 4.40012-0.306985 6.549016-3.581493 24.149495-26.093734 40.624363-50.24323 36.940542-24.047167-3.683821-40.624363-26.093734-37.04287-50.24323 0.102328-0.511642 0.306985-0.920955 0.306985-1.330269 6.651344-99.667833 43.694214-198.210053 113.175177-280.379734 173.139602-204.452084 479.101429-229.931848 683.655841-56.996902l33.461377-39.498751c17.805136-20.977316 51.573499-14.837614 60.88538 11.051464l66.513441 185.21435C995.501549 196.073948 973.296293 222.270011 946.179275 217.358249zM76.081143 552.483661l193.707605 34.996303c27.01469 4.911762 38.680124 37.247527 20.874988 58.224843l-54.438693 64.364545 19.44239-23.023883C422.974318 828.667932 673.474168 807.895273 815.096632 640.588388c58.224843-68.764665 88.616369-151.650645 92.91416-235.150595l0.511642 0c0.102328-1.330269 0-2.762866 0.204657-4.093135 3.683821-24.047167 26.196063-40.624363 50.24323-36.940542 21.898271 3.274508 37.349855 22.307585 37.247527 43.796542l0 0c0 0.409313-0.102328 0.920955-0.102328 1.330269-0.102328 1.739582 0 3.376836-0.306985 5.116419-0.102328 0.409313-0.204657 0.716299-0.306985 1.125612-6.446687 100.179474-43.284901 199.335665-113.175177 281.812331C709.289098 902.139702 403.122614 927.517138 198.670531 754.479864L163.469571 795.922854c-17.805136 20.977316-51.573499 14.837614-60.88538-11.051464l-66.513441-185.21435C26.758869 573.870291 48.964125 547.5719 76.081143 552.483661z"  horiz-adv-x="1024" />

    
    <glyph glyph-name="caidanguanli" unicode="&#59047;" d="M1003.1616 34.781867l-52.053333 35.6864c0 6.690133 2.269867 13.380267 2.269867 22.306133s0 15.598933-2.269867 22.306133l47.530667 37.905067c4.522667 4.471467 4.522667 8.9088 2.2528 13.380267l-45.2608 78.0288c-2.2528 2.235733-6.775467 4.471467-13.568 2.235733l-56.576-22.306133c-11.3152 8.9088-24.900267 15.616-38.485333 22.306133l-9.045333 57.975467C840.209067 311.278933 833.4336 315.733333 828.893867 315.733333l-90.538667 0c-4.522667 0-11.3152-4.4544-11.3152-8.9088l-9.045333-60.194133c-13.585067-4.4544-24.900267-13.380267-38.468267-22.306133l-54.340267 22.306133c-6.775467 2.235733-11.298133 0-15.837867-4.4544l-45.2608-78.045867c-2.269867-2.235733 0-8.9088 4.539733-13.380267l47.5136-35.669333c0-6.7072-2.2528-13.380267-2.2528-22.306133s0-15.616 2.2528-22.306133l-47.5136-37.922133c-4.539733-4.4544-4.539733-8.9088-2.269867-13.3632l45.2608-78.045867c2.269867-2.235733 6.775467-4.4544 13.568-2.235733l56.576 22.306133c11.3152-8.9088 24.900267-15.598933 38.485333-22.306133l9.045333-57.9584c0-4.471467 4.539733-8.9088 11.3152-8.9088l90.538667 0c4.522667 0 11.3152 4.4544 11.3152 8.9088l9.045333 57.9584c13.585067 6.7072 27.153067 13.380267 38.468267 22.306133l56.576-22.306133c4.539733-2.218667 11.3152 0 13.585067 4.471467l45.2608 78.0288C1007.701333 25.873067 1007.701333 32.546133 1003.1616 34.781867zM783.633067 14.711467c-43.008 0-79.223467 35.6864-79.223467 78.045867s36.215467 78.0288 79.223467 78.0288 79.223467-35.669333 79.223467-78.0288S826.641067 14.711467 783.633067 14.711467zM494.933333 93.866667c0 150.818133 122.248533 273.066667 273.066667 273.066667 11.588267 0 22.9376-0.955733 34.133333-2.3552L802.133333 810.666667c0 28.279467-22.920533 51.2-51.2 51.2L68.266667 861.866667C39.9872 861.866667 17.066667 838.946133 17.066667 810.666667l0-853.333333c0-28.279467 22.920533-51.2 51.2-51.2l501.777067 0C523.605333-44.919467 494.933333 21.060267 494.933333 93.866667zM102.4 759.466667l614.4 0 0-51.2L102.4 708.266667 102.4 759.466667zM102.4 537.6l580.266667 0 0-51.2L102.4 486.4 102.4 537.6zM102.4 332.8l443.733333 0 0-51.2L102.4 281.6 102.4 332.8zM477.866667 76.8 102.4 76.8l0 51.2 375.466667 0L477.866667 76.8z"  horiz-adv-x="1024" />

    
    <glyph glyph-name="yemiannenggoushezhijingtaihuo" unicode="&#58945;" d="M924.681615-128 99.318385-128c-9.117256 0-16.506582 7.391032-16.506582 16.506582 0 9.11555 7.391032 16.506582 16.506582 16.506582l825.364936 0c9.11555 0 16.506582-7.391032 16.506582-16.506582C941.189903-120.608968 933.798871-128 924.681615-128zM924.681615 20.564358 99.318385 20.564358C44.705256 20.564358 0.273774 64.995841 0.273774 119.608969L0.273774 796.9588C0.273774 851.571929 44.705256 896.001706 99.318385 896.001706l825.364936 0C979.294744 896.001706 1023.726226 851.571929 1023.726226 796.9588L1023.726226 119.608969C1023.726226 64.995841 979.294744 20.564358 924.681615 20.564358zM99.318385 862.986835c-36.409321 0-66.029741-29.62042-66.029741-66.029741L33.288644 119.608969c0-36.407615 29.62042-66.029741 66.029741-66.029741l825.364936 0c36.407615 0 66.029741 29.622125 66.029741 66.029741L990.713062 796.9588c0 36.409321-29.62042 66.029741-66.029741 66.029741L99.318385 862.988541zM542.950908 185.63871l-61.901816 0c-9.11555 0-16.506582 7.392738-16.506582 16.506582l0 31.95048c-25.287804 5.567581-49.58286 15.640059-71.45745 29.625537L370.473583 241.109833c-3.095944-3.095944-7.293804-4.835813-11.672475-4.835813s-8.574826 1.739869-11.672475 4.835813l-43.773061 43.773061c-6.446045 6.446045-6.446045 16.898906 0 23.346656l22.611476 22.611476c-13.987184 21.87459-24.057956 46.169646-29.625537 71.45745l-31.952186 0c-9.117256 0-16.506582 7.392738-16.506582 16.506582l0 61.901816c0 9.11555 7.391032 16.506582 16.506582 16.506582l31.95048 0c5.567581 25.287804 15.640059 49.58286 29.625537 71.45745l-22.611476 22.611476c-6.446045 6.446045-6.446045 16.898906 0 23.346656l43.773061 43.773061c6.44775 6.444339 16.8972 6.444339 23.346656 0l22.611476-22.611476c21.876296 13.987184 46.169646 24.057956 71.45745 29.623831L464.54251 697.364936c0 9.117256 7.392738 16.506582 16.506582 16.506582l61.901816 0c9.11555 0 16.506582-7.391032 16.506582-16.506582l0-31.952186c25.287804-5.565876 49.581154-15.638353 71.45745-29.623831l22.611476 22.611476c6.44775 6.444339 16.8972 6.444339 23.346656 0l43.773061-43.773061c3.095944-3.095944 4.835813-7.293804 4.835813-11.672475 0-4.376965-1.739869-8.574826-4.835813-11.672475l-22.611476-22.611476c13.987184-21.87459 24.057956-46.169646 29.625537-71.45745l31.95048 0c9.11555 0 16.506582-7.392738 16.506582-16.506582l0-61.901816c0-9.11555-7.392738-16.506582-16.506582-16.506582l-31.95048 0c-5.567581-25.287804-15.640059-49.58286-29.625537-71.45745l22.611476-22.611476c6.446045-6.446045 6.446045-16.898906 0-23.346656l-43.773061-43.773061c-6.44775-6.444339-16.8972-6.444339-23.346656 0l-22.611476 22.611476c-21.87459-13.987184-46.169646-24.057956-71.45745-29.625537l0-31.952186C559.459196 193.029742 552.066458 185.63871 542.950908 185.63871zM497.555674 218.65358l28.886945 0 0 29.154749c0 8.158622 5.959905 15.094218 14.026416 16.320655 29.734705 4.520248 58.311204 16.36671 82.643786 34.260071 6.568859 4.834107 15.682703 4.139865 21.451563-1.625584l20.634507-20.634507 20.426405 20.426405-20.634507 20.634507c-5.765449 5.767155-6.457985 14.882704-1.625584 21.451563 17.89336 24.334288 29.741528 52.910786 34.261777 82.643786 1.226437 8.066511 8.160328 14.026416 16.320655 14.026416l29.154749 0 0 28.886945-29.154749 0c-8.158622 0-15.094218 5.959905-16.320655 14.026416-4.520248 29.734705-16.36671 58.311204-34.261777 82.643786-4.832401 6.568859-4.139865 15.684409 1.625584 21.451563l20.634507 20.634507-20.426405 20.426405-20.634507-20.634507c-5.76886-5.763743-14.886116-6.454573-21.451563-1.625584-24.332582 17.89336-52.912492 29.741528-82.643786 34.260071-8.064805 1.226437-14.026416 8.162033-14.026416 16.320655l0 29.156455-28.886945 0 0-29.156455c0-8.158622-5.961611-15.094218-14.026416-16.320655-29.733-4.518543-58.311204-16.365005-82.643786-34.260071-6.568859-4.832401-15.684409-4.139865-21.451563 1.625584l-20.634507 20.634507-20.426405-20.426405 20.634507-20.634507c5.765449-5.767155 6.457985-14.882704 1.625584-21.451563-17.89336-24.332582-29.741528-52.910786-34.260071-82.643786-1.226437-8.066511-8.162033-14.026416-16.320655-14.026416l-29.154749 0 0-28.886945 29.154749 0c8.158622 0 15.094218-5.959905 16.320655-14.026416 4.520248-29.734705 16.36671-58.311204 34.260071-82.643786 4.832401-6.568859 4.139865-15.684409-1.625584-21.451563l-20.634507-20.634507 20.426405-20.426405 20.634507 20.634507c5.767155 5.765449 14.88441 6.457985 21.451563 1.625584 24.332582-17.89336 52.910786-29.741528 82.643786-34.260071 8.066511-1.226437 14.026416-8.160328 14.026416-16.320655L497.555674 218.65358zM512 340.39325c-60.301819 0-109.361012 49.059193-109.361012 109.361012s49.059193 109.361012 109.361012 109.361012 109.361012-49.059193 109.361012-109.361012S572.301819 340.39325 512 340.39325zM512 526.100403c-42.096305 0-76.346141-34.249836-76.346141-76.346141 0-42.096305 34.249836-76.346141 76.346141-76.346141s76.346141 34.249836 76.346141 76.346141C588.346141 491.852272 554.096305 526.100403 512 526.100403z"  horiz-adv-x="1024" />

    
    <glyph glyph-name="dangan" unicode="&#58991;" d="M35.61984-20.24448c0 156.26752 0 312.53504 0 468.83328 4.26496 7.93088 10.2144 15.40096 12.544 23.8592 24.64256 89.50784 48.67584 179.18464 72.94976 268.8 11.70432 43.19232 36.28032 62.18752 81.10592 62.62272 26.12736 0.256 52.25984-0.02048 78.38208 0.31744 23.93088 0.3072 47.85152 1.11616 71.77728 1.70496 163.05664 0 326.0928 0 489.11872 0 39.56224-7.37792 56.41728-35.15392 65.60768-71.08608 11.26912-44.00128 22.89664-87.97184 36.2752-131.36384 15.68256-50.83136 22.79424-104.36608 47.62624-152.32 0-158.83264 0-317.63456 0-476.4416-4.31104-12.60544-9.89696-24.25344-22.80448-30.40768-298.17344 0-596.39296 0-894.5664 0C56.92416-48.22528 42.58816-38.17984 35.61984-20.24448zM930.15552 437.45792c-0.29696 3.64032-0.19968 6.15424-0.72704 8.51968-20.57728 92.4416-41.13408 184.88832-61.8496 277.29408-8.84736 39.424-14.25408 43.38176-54.70208 43.2128-99.61984-0.41984-199.23968-0.75776-298.88-0.98816-103.44448-0.23552-206.86848-0.19456-310.2976-0.512-27.9552-0.08704-38.30272-8.89856-44.09344-35.2256-18.2528-83.0464-36.6336-166.0672-54.88128-249.10848-3.10272-14.1056-5.81632-28.29824-8.86272-43.19232C375.10656 437.45792 652.27264 437.45792 930.15552 437.45792zM274.84672 150.02112c159.27808 0 317.78304 0 476.86656 0 0 38.00576 0 75.29984 0 113.17248-159.22176 0-317.71648 0-476.86656 0C274.84672 225.49504 274.84672 188.51328 274.84672 150.02112zM513.55136 635.34592c-96.22528 0-192.43008-0.00512-288.64 0.02048-4.6336 0-9.37472-0.27648-13.8752 0.58368-9.86624 1.88928-15.5904 8.064-15.85152 18.31424-0.27648 10.91072 5.79584 17.15712 15.9744 19.66592 2.40128 0.59392 5.03808 0.32256 7.57248 0.32256 196.20352 0.01024 392.44288 0.01024 588.65152 0 2.52928 0 5.14048 0.23552 7.57248-0.2816 10.31168-2.18112 16.5376-8.33024 16.44544-19.21536-0.1024-10.7776-6.02624-17.25952-16.60416-18.93376-4.54144-0.7168-9.25184-0.46592-13.89056-0.46592C705.13152 635.3408 609.35168 635.34592 513.55136 635.34592zM514.69824 574.76608c89.07264 0 178.13504 0.01024 267.20256-0.03584 4.61312 0 9.3696 0.11776 13.81888-0.87552 10.34752-2.31424 16.04608-8.9344 15.70816-19.83488-0.34816-11.0336-7.08608-16.64-17.152-18.83136-2.83136-0.6144-5.87776-0.29696-8.832-0.29696-181.504-0.01024-363.04384-0.01536-544.54784 0-15.81056 0-24.2688 5.51936-25.53344 16.8448-1.24928 11.18208 3.36896 19.03616 14.5408 21.7856 4.82304 1.18784 10.01472 1.18784 15.03744 1.19296C334.85312 574.78144 424.76032 574.76608 514.69824 574.76608z"  horiz-adv-x="1024" />

    
    <glyph glyph-name="dongzuo" unicode="&#58922;" d="M126.085606 551.01217C176.12491 714.837429 328.496008 834 508.699016 834 659.23344 834 790.346012 750.845178 858.608024 627.964246 859.302094 627.988018 859.999156 628 860.699016 628 893.836102 628 920.699016 601.137084 920.699016 568 920.699016 534.862916 893.836102 508 860.699016 508 827.561932 508 800.699016 534.862916 800.699016 568 800.699016 578.142194 803.215466 587.69664 807.658054 596.073022 750.081252 702.054758 637.79199 774 508.699016 774 355.0581 774 225.2192 672.091444 183.089892 532.181902L182.980651 532.217396C179.553076 519.421826 167.876831 510 154 510 137.431458 510 124 523.431458 124 540 124 543.887784 124.739535 547.60284 126.085604 551.012168ZM278.819156 310.223536C275.717236 303.899308 274 296.934198 274 289.61884L274 22.277792 274 2C274-36.668432 305.33502-68 343.988724-68L684.011276-68C722.644772-68 754-36.659932 754 2L754 22.277792 754 289.61884C754 318.561418 727.137084 342 694 342 660.85563 342 634 318.548156 634 289.61884L634 161.80942 634 289.61884C634 318.561418 607.137084 342 574 342 540.85563 342 514 318.548156 514 289.61884L514 161.80942 514 289.61884C514 318.561418 487.137084 342 454 342 434.330306 342 416.875438 333.740522 405.934044 320.978358L476.85015 585.64087C485.83297 619.165208 467.159948 653.266876 435.151982 661.843386 403.136978 670.42178 369.917754 650.208134 360.93905 616.699154L278.819156 310.223536ZM394 276.4399 394 161.80942 394 276.4399 394 276.4399Z"  horiz-adv-x="1024" />

    
    <glyph glyph-name="renwuguanli" unicode="&#58900;" d="M694.464 605.472c2.976-18.912 3.264-34.176 3.264-38.656l23.2 0 0-40.64L303.072 526.176l0 40.64 23.232 0c0 4.48 0.256 19.744 3.264 38.656-54.592-9.696-96.096-55.488-96.096-110.432l0-283.008 0 0c0-61.984 52.736-112.416 117.6-112.416l321.92 0c64.864 0 117.6 50.432 117.6 112.416L790.592 495.04C790.56 549.984 749.056 595.776 694.464 605.472zM491.552 172.352l-180.352 135.296 30.208 30.816 144.64-108.48 217.056 227.936 35.68-26.016L491.552 172.352zM512 896C229.248 896 0 666.784 0 384c0-282.752 229.248-512 512-512 282.784 0 512 229.248 512 512C1024 666.784 794.784 896 512 896zM836.992 212.032c0-84.384-73.6-153.024-164.032-153.024L351.04 59.008c-90.464 0-164.032 68.64-164.032 153.024L187.008 495.04c0 81.088 68 147.456 153.568 152.512 12.352 32.128 35.36 61.44 78.592 61.44l185.728 0c43.232 0 66.24-29.312 78.592-61.44 85.568-5.088 153.568-71.424 153.568-152.512L837.056 212.032zM604.864 668.384l-185.728 0c-34.912 0-46.368-68.416-46.432-101.568l278.56 0C651.2 599.968 639.776 668.384 604.864 668.384z"  horiz-adv-x="1024" />

    
    <glyph glyph-name="zhongzhimima" unicode="&#59193;" d="M636.167631 448.087905c37.40066 0 67.698714-33.049514 67.698714-73.841508l0-172.254194c0-40.760001-30.298054-73.809515-67.698714-73.809515l-248.207288 0c-37.368666 0-67.698714 33.049514-67.698714 73.809515l0 172.254194c0 40.760001 30.298054 73.841508 67.698714 73.841508L448.012557 448.087905l0 0 127.974884 0 0 0L636.167631 448.087905zM511.520094 383.780526c-35.321068 0-63.987443-27.386626-63.987443-61.203988 0-22.587567 17.532559-39.864176 36.600817-50.486092l0-79.536391 54.805244 0 0 79.536391c19.068257 10.621915 36.600817 27.898525 36.600817 50.486092C575.507537 356.393901 546.841162 383.780526 511.520094 383.780526zM512 575.902821c-60.148195 0-63.827474-50.582073-63.987443-63.987443l0-63.79548-64.403361 0 0 57.620691c0 0 0.031994 134.373628 128.134853 134.373628 128.134853 0 128.134853-134.373628 128.134853-134.373628l0-57.620691L575.987443 448.119899l0 63.79548C575.859468 525.096792 572.148195 575.902821 512 575.902821zM512-127.959042c-282.728513 0-511.899536 229.171024-511.899536 511.899536s229.171024 511.899536 511.899536 511.899536c91.118117 0 176.60534-23.963297 250.702798-65.715103l47.606657 65.875072L895.540727 671.947972l-223.444147 32.793564 52.757646 73.009672C661.506659 812.08047 589.104868 831.820595 512 831.820595c-247.375451 0-447.912095-200.536644-447.912095-447.912095s200.536644-447.912095 447.912095-447.912095 447.912095 200.536644 447.912095 447.912095c0 60.404145-12.12562 117.928856-33.78537 170.526533l59.15639 24.347222C1010.046255 518.698048 1023.899536 452.950951 1023.899536 383.908501 1023.899536 101.211983 794.728513-127.959042 512-127.959042z"  horiz-adv-x="1024" />

    
    <glyph glyph-name="jiamigouguanli" unicode="&#59015;" d="M955.508 809.63l0-521.839c0-31.3-7.44-62.42-22.26-93.36-14.87-31.035-34.285-61-58.33-90.115-24.04-29.075-51.51-56.635-82.36-82.585-30.9-26.005-62.2-49.155-93.94-69.46-31.79-20.345-62.645-37.26-92.61-50.71-29.96-13.44-56.23-22.66-78.8-27.69l-10.69-1.87-9.79 1.87c-23.15 5.03-50 14.25-80.585 27.69-30.585 13.45-62.335 30.365-95.275 50.71-32.95 20.305-65.27 43.455-97.06 69.46-31.745 25.95-60.105 53.51-85.04 82.585-24.93 29.115-45.1 59.08-60.5 90.115-15.495 30.94-23.2 62.06-23.2 93.36L65.068 809.63l36.51 5.65L511.179 896l417.614-80.72L955.508 809.63 955.508 809.63zM511.314 820.45l-4.945 1.02-351.539-63 0-329.234 356.484 0L511.314 820.45 511.314 820.45zM865.748 429.236 511.314 429.236l0-468.634c22.795 5.52 47.595 13.93 74.395 25.29 26.76 11.35 53.2 24.75 79.29 40.245 26.14 15.495 51.25 32.675 75.42 51.6 24.18 18.925 45.505 39.265 64.16 60.95 18.61 21.635 33.435 44.165 44.52 67.585 11.13 23.37 16.65 47.15 16.65 71.235L865.749 429.236 865.748 429.236z"  horiz-adv-x="1024" />

    
    <glyph glyph-name="yonghu" unicode="&#59559;" d="M623.843 639.633c-29.038 81.478-103.342 139.631-190.097 139.631-111.935 0-201.758-96.808-201.758-214.15 0-73.339 34.548-137.878 87.059-176.014-118.844-49.871-201.758-171.613-201.758-313.892h56.658c0 140.811 100.879 258.154 229.397 274.289 1.383 0 35.931 2.933 64.949 0h2.763c28.088-4.351 53.366-12.813 76.496-24.84-40.252 36.608-48.551 64.011-51.362 93.184-19.026-9.048-40.156-14.072-62.445-14.072-84.297 0-152.010 71.872-152.010 161.347 0 89.473 67.714 161.347 152.010 161.347 68.369 0 125.83-47.281 145.104-112.884 13.781 10.597 28.879 19.395 44.993 26.058zM777.541 300.969c52.513 38.137 87.060 102.676 87.060 176.014 0 118.809-91.207 215.618-203.14 215.618-111.935 0-201.759-96.807-201.759-214.15 0-73.339 34.548-137.877 87.060-176.014-118.844-49.871-201.758-171.613-201.758-313.892h56.658c0 140.812 100.879 258.154 229.397 274.289 1.383 0 35.931 2.933 64.949 0h2.763c125.753-19.068 222.487-133.478 222.487-272.821h58.042c-1.383 140.812-84.297 262.554-201.759 310.957zM661.462 317.104c-84.297 0-152.010 71.873-152.010 161.348 0 89.472 67.714 161.346 152.010 161.346 84.297 0 152.009-71.873 152.009-161.347s-67.713-161.347-152.009-161.347z"  horiz-adv-x="1118" />

    
    <glyph glyph-name="users-fill" unicode="&#58911;" d="M535.76 320.816c56.864 41.728 93.904 110.768 93.904 188.784 0 97.12-57.616 180.592-139.168 214.912-25.808 11.312-53.872 17.168-83.424 17.168-122.704 0-222.576-104.144-222.576-232.080 0-78 37.408-147.056 93.904-188.784-148.16-55.392-254.4-202.448-254.4-376.016h766.128c0 60.464-12.72 117.408-36.288 168.896-42.64 95.952-121.568 170.848-218.080 207.12zM773.68 448.352c50.496 37.44 83.424 98.688 83.424 168.112 0 114.288-88.656 206.72-198.272 206.72-50.128 0-96.144-19.504-130.928-51.872 93.52-46.816 157.872-146.656 157.872-261.728 0-62.416-19.456-122.48-54.24-171.632 83.792-51.872 148.144-131.44 183.296-224.272l185.168-0c0 154.48-94.64 285.536-226.32 334.672z"  horiz-adv-x="1024" />

    
    <glyph glyph-name="duigou1" unicode="&#59136;" d="M775.774 563.949c-1.11 1.068-2.621 1.726-4.285 1.726-1.462 0-2.805-0.507-3.864-1.356l-333.839-278.117c-2.279-1.899-6.161-2.004-8.572-0.154l-137.155 105.12c-0.898 0.696-2.040 1.116-3.28 1.116-1.792 0-3.379-0.876-4.356-2.223l-23.067-31.385c-0.771-1.079-1.232-2.424-1.232-3.877 0-1.758 0.676-3.359 1.781-4.556l167.833-173.696c0.995-1.025 2.386-1.662 3.925-1.662 1.49 0 2.841 0.596 3.827 1.563l364.042 358.273c1.005 0.983 1.629 2.352 1.629 3.868 0 1.521-0.628 2.895-1.639 3.877l-21.748 21.483z"  horiz-adv-x="1024" />

    
    <glyph glyph-name="bianji3" unicode="&#58969;" d="M471.14752 148.1216l336.2048 441.80992c16.4352 21.59616 12.19072 52.50048-9.4464 68.89984l-120.90368 91.58144c-21.64224 16.39424-52.62336 12.16512-69.04832-9.43104l-336.22528-441.78944 199.41888-151.07072z m-271.94368 169.28256c0.82944 1.52064 1.78176 2.9952 2.86208 4.40832l350.75584 460.93312c39.51104 51.92192 114.00704 62.09536 166.03648 22.67136l120.91392-91.58144c52.03968-39.424 62.2336-113.7408 22.71744-165.65248l-352.31232-462.97088c-0.82432-1.0752-1.69984-2.0992-2.62144-3.06176a34.62144 34.62144 0 0 0-16.49664-14.30016l-305.7408-126.66368a34.68288 34.68288 0 0 0-34.69824 4.77184 34.48832 34.48832 0 0 0-12.74368 32.55808l51.2 319.49312a34.42688 34.42688 0 0 0 10.12736 19.39456z m49.09568-87.168l-32.29696-201.55392L408.8832 108.5952l-160.58368 121.64096z"  horiz-adv-x="1024" />

    
    <glyph glyph-name="109fangxiang_xiangyou2" unicode="&#58932;" d="M47.104 442.368q0 43.008 20.992 57.856t66.048 14.848q20.48 0 64.512-0.512t93.696-0.512 96.768-0.512 74.752-0.512q38.912-1.024 61.44 6.656t22.528 35.328q0 20.48 1.536 48.64t1.536 48.64q1.024 35.84 20.48 45.568t49.152-14.848q30.72-24.576 71.68-58.368t84.992-69.12 86.016-69.632 74.752-59.904q29.696-24.576 30.208-46.592t-28.16-45.568q-29.696-24.576-70.144-56.32t-83.968-65.536-85.504-67.072-74.752-58.88q-35.84-28.672-58.88-21.504t-22.016 44.032V162.816q0 15.36-0.512 30.208t-0.512 27.136q0 25.6-15.36 32.256t-41.984 6.656q-29.696 0-77.824 0.512t-100.352 0.512-101.376 0.512-79.872 0.512q-13.312 0-27.648 2.56t-26.112 9.728T54.272 294.4t-7.168 37.376q0 27.648-0.512 53.248t0.512 57.344z"  horiz-adv-x="1024" />

    
    <glyph glyph-name="111fangxiang_xiangzuo2" unicode="&#58936;" d="M966.656 328.704q0-43.008-20.48-58.368t-65.536-15.36h-64.512q-44.032 0-93.696-0.512t-96.768-0.512h-74.752q-38.912 0-61.952-7.68t-22.016-35.328q0-20.48-1.024-48.64t-1.024-49.664q0-35.84-19.456-45.568t-50.176 13.824q-30.72 24.576-72.704 57.856t-85.504 68.096-86.016 68.608-75.264 59.392q-30.72 24.576-31.232 46.592t28.16 45.568q28.672 24.576 68.608 56.832t82.944 66.56 84.48 68.096 74.24 60.416q35.84 28.672 58.88 22.016t23.04-43.52v-25.6q0-14.336 0.512-29.696t1.024-30.208 0.512-26.112q1.024-25.6 16.384-32.256t41.984-6.656q29.696 0 77.824 0.512t100.352 0.512 101.376 0.512 79.872 0.512q13.312 0 27.648-2.048t26.112-9.728 19.456-21.504 7.68-36.352q0-27.648 0.512-53.248t0.512-57.344z"  horiz-adv-x="1024" />

    
    <glyph glyph-name="rizhiguanli" unicode="&#58908;" d="M467.168 652.992h89.664v-44.832h-89.664zM512 896C229.216 896 0 666.784 0 384s229.216-512 512-512 512 229.216 512 512S794.784 896 512 896z m-179.328-556.832V384h358.624v-44.832H332.672z m358.656-44.832v-44.832H332.672v44.832h358.656z m-358.656 134.496v44.832H512v-44.832h-179.328z m44.832 179.328h44.832V697.792h179.328v-89.664h44.832v-44.832h-268.992V608.16z m448.288-436.032a101.92 101.92 0 0 0-101.92-101.92H300.128a101.92 101.92 0 0 0-101.92 101.92V551.04a101.92 101.92 0 0 0 101.92 101.92h32.576v-44.384h-20.416a69.248 69.248 0 0 1-69.248-69.248v-353.248c0-38.24 31.008-69.248 69.248-69.248h399.456a69.248 69.248 0 0 1 69.248 69.248v353.28a69.248 69.248 0 0 1-69.248 69.248h-20.416V652.992h32.576a101.92 101.92 0 0 0 101.92-101.92v-378.944z"  horiz-adv-x="1024" />

    
    <glyph glyph-name="chexiao" unicode="&#59229;" d="M499.5072 60.6208c-13.7216 0-28.0576 5.3248-41.1648 15.9744L143.9744 328.9088c-6.3488 4.9152-10.6496 10.4448-14.1312 14.9504-4.3008 5.3248-7.3728 10.0352-9.8304 14.9504-1.4336 2.6624-2.6624 5.7344-3.8912 8.8064-2.048 4.9152-3.2768 8.192-4.096 11.6736l-1.024 7.3728-0.6144 5.5296c-0.2048 4.096-0.2048 7.168 0 10.24l0.6144 5.7344c0.2048 2.8672 0.6144 5.7344 1.4336 8.6016l2.048 6.144c1.8432 5.3248 3.8912 10.24 6.7584 15.1552 1.8432 3.2768 3.8912 6.5536 6.5536 9.8304 2.6624 3.4816 5.7344 6.7584 8.8064 9.8304 2.048 2.6624 4.3008 5.12 7.3728 7.5776L460.5952 720.0768c11.6736 9.4208 23.7568 15.1552 35.84 16.7936 4.096 0.6144 7.7824 0.4096 10.0352 0.2048h1.024c1.6384 0 4.096 0 6.9632-0.6144 21.504-4.3008 45.2608-26.2144 45.2608-74.752v-106.7008c7.7824-0.4096 15.36-1.2288 22.9376-2.4576 201.3184-28.4672 354.7136-262.9632 357.1712-453.4272 0-23.7568-15.1552-35.6352-29.4912-36.6592-7.3728-1.2288-24.3712 0.6144-39.1168 24.576-14.5408 25.8048-31.3344 48.9472-50.3808 69.0176-10.24 10.8544-18.6368 17.8176-27.0336 24.7808l-7.3728 6.3488c-7.5776 5.9392-15.7696 10.8544-23.9616 15.9744l-5.7344 3.6864c-1.8432 1.2288-3.4816 2.2528-5.3248 3.2768-7.5776 4.096-15.36 7.5776-23.3472 11.0592l-6.144 2.8672c-2.8672 1.2288-5.5296 2.6624-8.3968 3.6864-5.9392 2.2528-11.8784 3.8912-17.8176 5.7344l-12.0832 3.6864c-3.4816 1.024-6.9632 2.2528-10.4448 3.072-5.5296 1.2288-11.0592 2.048-16.5888 3.072l-15.1552 2.6624c-3.8912 0.6144-7.5776 1.4336-11.4688 1.8432-14.7456 1.6384-30.1056 2.4576-45.6704 2.4576h-24.9856v-114.8928c0-31.744-14.336-58.368-37.2736-69.4272-7.168-3.6864-14.7456-5.3248-22.528-5.3248zM163.84 373.76l1.024-1.2288c3.072-3.8912 5.12-6.5536 7.3728-8.192l314.5728-252.3136c3.6864-3.072 10.6496-7.5776 15.7696-5.3248 5.7344 2.6624 11.4688 13.5168 11.4688 28.4672v160.3584h70.4512c17.408 0 34.2016-1.024 50.5856-2.8672 5.12-0.6144 10.0352-1.4336 14.9504-2.2528l13.9264-2.4576c6.5536-1.024 13.312-2.048 19.6608-3.6864 4.7104-1.024 9.216-2.4576 13.9264-3.8912l11.264-3.4816c7.168-2.048 14.336-4.3008 21.2992-6.9632 3.8912-1.4336 7.5776-3.2768 11.4688-4.9152l5.3248-2.4576c9.216-4.096 18.432-8.192 27.0336-12.9024 2.8672-1.6384 5.5296-3.2768 8.192-5.12l4.3008-2.6624c9.8304-5.9392 19.2512-11.8784 28.0576-18.6368 2.048-1.4336 4.096-3.2768 6.144-5.12 12.0832-10.0352 21.7088-18.2272 30.72-27.4432l3.072-3.4816c13.5168-14.1312 26.0096-29.696 37.4784-46.4896-22.1184 176.5376-163.4304 345.4976-315.1872 366.7968-11.264 1.6384-22.528 2.4576-33.9968 2.4576h-28.0576v151.552c0 20.0704-5.9392 29.696-9.216 30.3104-4.5056-0.4096-9.216-1.6384-15.9744-7.168L168.3456 425.1648c-1.4336-1.4336-3.2768-3.072-4.5056-4.9152-1.2288-1.4336-2.2528-3.072-3.2768-4.9152-1.2288-2.2528-2.2528-4.5056-3.072-6.7584l-1.4336-4.9152-0.4096-4.7104 0.2048-5.3248 0.4096-5.12 2.048-5.12c2.6624-5.3248 4.096-7.7824 5.5296-9.6256z"  horiz-adv-x="1024" />

    
    </font>
</defs>
</svg>
