<?xml version="1.0" standalone="no"?>
<!DOCTYPE svg PUBLIC "-//W3C//DTD SVG 1.1//EN" "http://www.w3.org/Graphics/SVG/1.1/DTD/svg11.dtd" >
<svg xmlns="http://www.w3.org/2000/svg">
<metadata>
<json>
<![CDATA[
{
	"fontFamily": "mobox_sysfont",
	"majorVersion": 1,
	"minorVersion": 0,
	"version": "Version 1.0",
	"fontId": "mobox_sysfont",
	"psName": "mobox_sysfont",
	"subFamily": "Regular",
	"fullName": "mobox_sysfont",
	"description": "Font generated by IcoMoon."
}
]]>
</json>
</metadata>
<defs>
<font id="mobox_sysfont" horiz-adv-x="1024">
<font-face units-per-em="1024" ascent="960" descent="-64" />
<missing-glyph horiz-adv-x="1024" />
<glyph unicode="&#x20;" horiz-adv-x="512" d="" />
<glyph unicode="&#xe900;" glyph-name="smallwindow" data-tags="smallwindow" d="M419.274 866.078v-177.391h-405.48v-645.997h810.959v240.518h177.402v582.871h-582.882zM751.276 122.264h-664.014v485.731h664.003v-485.731zM926.127 359.225h-101.373v329.461h-329.461v101.361h430.834v-430.823z" />
<glyph unicode="&#xe901;" glyph-name="ArrowDown" data-tags="ArrowDown" horiz-adv-x="1048" d="M565.514 207.814c0.393 0.394 0.491 0.935 0.861 1.326l431.062 392.233c23.201 23.692 23.471 61.882 0.566 85.254-22.906 23.374-60.284 23.126-83.511-0.589l-390.168-355.025-390.933 355.739c-23.224 23.691-60.826 23.716-84.025 0.049-23.174-23.692-23.151-62.079 0.049-85.795l432.096-393.168c23.199-23.692 60.827-23.714 84.001-0.024z" />
<glyph unicode="&#xe902;" glyph-name="alarm" data-tags="alarm" d="M639.28 828.464c117.211-32.229 216.427-113.542 270.783-219.633 31.552 32.387 49.174 75.826 49.14 121.038 0 95.796-78.434 173.372-175.788 173.372-60.959 0-111.984-29.452-144.134-74.776zM205.026 413.039c0 174.275 139.958 314.21 314.244 314.21 174.264 0 314.244-139.935 314.244-314.21 0.519-173.045-139.337-313.759-312.382-314.278-0.621 0-1.242 0-1.874 0-173.045-0.508-313.736 139.371-314.244 312.415 0.011 0.61 0.011 1.219 0.011 1.863v0zM144.112 40.105c22.566-21.528 60.022-22.431 82.724 0l60 59.413c66.152-48.654 145.071-76.165 233.439-76.165 86.957 0 163.483 26.63 229.658 73.388l57.177-56.636c22.69-22.419 60.474-21.923 82.69 0 22.6 22.498 22.702 59.051 0.214 81.651-0.079 0.068-0.147 0.135-0.214 0.203l-56.703 56.015c49.151 65.452 77.023 143.48 77.023 230.877 0 212.601-174.851 385.499-389.845 385.499-215.953 0-389.856-172.898-389.856-385.499 0-85.986 26.935-163.088 74.189-227.073l-60.485-59.83c-22.69-22.431-22.815-59.909 0-81.855l-0.011 0.011zM352.445 246.192c22.713-18.954 56.24-16.899 75.872 5.701l123.679 142.283c3.014 3.477 5.452 9.991 5.43 15.466l-0.35 151.675c-0.045 29.181-23.955 52.809-53.294 52.809h30.988c-29.396 0-53.192-23.097-53.192-53.52v-126.919c0-4.47-2.574-10.927-6.367-15.138l-105.922-116.895c-19.8-21.866-18.13-54.355 5.261-73.873l-22.103 18.412zM128.488 608.842c56.715 106.543 152.161 187.404 270.76 219.633-32.139 45.313-83.164 74.743-144.123 74.743-97.828 0-175.799-77.554-175.799-173.35 0-47.209 18.909-89.249 49.151-121.038h0.011z" />
<glyph unicode="&#xe903;" glyph-name="copy_file" data-tags="copy_file" d="M672 128h-448c-52.928 0-96 43.072-96 96v576c0 52.928 43.072 96 96 96h448c52.928 0 96-43.072 96-96v-576c0-52.928-43.072-96-96-96zM224 832c-17.632 0-32-14.368-32-32v-576c0-17.664 14.368-32 32-32h448c17.664 0 32 14.336 32 32v576c0 17.632-14.336 32-32 32h-448zM800 0h-480c-17.664 0-32 14.304-32 32s14.336 32 32 32h480c17.664 0 32 14.336 32 32v608c0 17.664 14.304 32 32 32s32-14.336 32-32v-608c0-52.928-43.072-96-96-96zM544 640h-256c-17.664 0-32 14.336-32 32s14.336 32 32 32h256c17.696 0 32-14.336 32-32s-14.304-32-32-32zM608 480h-319.968c-17.664 0-32 14.336-32 32s14.336 32 32 32h319.968c17.696 0 32-14.336 32-32s-14.304-32-32-32zM608 320h-320c-17.664 0-32 14.304-32 32s14.336 32 32 32h320c17.696 0 32-14.304 32-32s-14.304-32-32-32z" />
<glyph unicode="&#xe904;" glyph-name="favor_fill_light" data-tags="favor_fill_light" d="M915.2 546.133c-4.267 14.933-19.2 25.6-34.133 29.867l-228.267 34.133-100.267 215.467c-6.4 14.933-21.333 25.6-38.4 25.6s-32-8.533-38.4-23.467l-106.667-215.467-226.133-36.267c-14.933-2.133-27.733-12.8-34.133-27.733-4.267-14.933-2.133-32 10.667-42.667l166.4-172.8-38.4-238.933c-2.133-17.067 4.267-32 17.067-42.667 12.8-8.533 32-10.667 44.8-2.133l202.667 110.933 202.667-113.067c6.4-4.267 12.8-6.4 21.333-6.4s17.067 2.133 23.467 8.533c12.8 8.533 19.2 25.6 17.067 40.533l-38.4 241.067 166.4 170.667c10.667 12.8 14.933 29.867 10.667 44.8z" />
<glyph unicode="&#xe905;" glyph-name="friend" data-tags="friend" d="M668.8 576c0 140.8-115.2 256-256 256s-256-115.2-256-256c0-92.8 51.2-172.8 124.8-217.6-105.6-44.8-192-137.6-217.6-256-3.2-16 6.4-35.2 22.4-38.4h6.4c16 0 28.8 9.6 32 25.6 32 134.4 153.6 233.6 288 233.6h3.2c140.8 0 252.8 115.2 252.8 252.8zM220.8 576c0 105.6 86.4 192 192 192s192-86.4 192-192-86.4-192-192-192-192 86.4-192 192zM732.8 416c-19.2 0-32-16-28.8-35.2 0-16 16-28.8 32-28.8h3.2c105.6 6.4 188.8 96 188.8 201.6s-83.2 192-185.6 201.6c-19.2 0-32-12.8-35.2-28.8 0-19.2 12.8-32 28.8-35.2 70.4-6.4 128-67.2 128-137.6 0-73.6-57.6-134.4-131.2-137.6zM960 201.6c-9.6 41.6-41.6 92.8-80 118.4-16 9.6-35.2 3.2-44.8-9.6-9.6-16-3.2-35.2 9.6-44.8 22.4-12.8 44.8-51.2 51.2-76.8 3.2-16 16-25.6 32-25.6h6.4c19.2 3.2 28.8 19.2 25.6 38.4zM620.8 320l-19.2 12.8c-16 9.6-35.2 6.4-44.8-9.6s-6.4-35.2 9.6-44.8l19.2-12.8c57.6-41.6 102.4-105.6 118.4-176 3.2-16 16-25.6 32-25.6h6.4c16 3.2 28.8 22.4 22.4 38.4-22.4 89.6-73.6 166.4-144 217.6z" />
<glyph unicode="&#xe906;" glyph-name="group_light" data-tags="group_light" d="M608 341.333c70.4 34.133 117.333 106.667 117.333 189.867 0 117.333-96 213.333-213.333 213.333s-213.333-96-213.333-213.333c0-83.2 49.067-155.733 117.333-189.867-89.6-32-162.133-110.933-181.333-209.067-2.133-10.667 4.267-23.467 17.067-25.6h4.267c10.667 0 19.2 6.4 21.333 17.067 23.467 110.933 121.6 192 234.667 192s211.2-81.067 234.667-192c2.133-10.667 12.8-19.2 25.6-17.067 10.667 2.133 19.2 12.8 17.067 25.6-19.2 98.133-89.6 174.933-181.333 209.067zM343.467 531.2c0 93.867 76.8 170.667 170.667 170.667s170.667-76.8 170.667-170.667-76.8-170.667-170.667-170.667c-96 0-170.667 76.8-170.667 170.667zM258.133 467.2c0 10.667-6.4 19.2-17.067 21.333-61.867 14.933-72.533 78.933-72.533 115.2 0 68.267 46.933 119.467 108.8 119.467 12.8 0 21.333 8.533 21.333 21.333s-8.533 21.333-21.333 21.333c-87.467 0-151.467-70.4-151.467-162.133 0-61.867 21.333-106.667 57.6-134.4-59.733-25.6-104.533-76.8-117.333-147.2-2.133-10.667 4.267-23.467 17.067-25.6h4.267c10.667 0 19.2 6.4 21.333 17.067 14.933 70.4 61.867 117.333 132.267 128 10.667 2.133 19.2 12.8 17.067 25.6zM962.133 322.133c-14.933 70.4-57.6 121.6-117.333 147.2 36.267 27.733 57.6 74.667 57.6 134.4 0 91.733-66.133 162.133-151.467 162.133-12.8 0-21.333-8.533-21.333-21.333s8.533-21.333 21.333-21.333c64 0 108.8-51.2 108.8-119.467 0-36.267-8.533-100.267-72.533-115.2-10.667-2.133-14.933-10.667-14.933-21.333v-2.133c-2.133-10.667 6.4-23.467 17.067-23.467 70.4-10.667 117.333-57.6 132.267-128 2.133-10.667 10.667-17.067 21.333-17.067h4.267c8.533 2.133 17.067 14.933 14.933 25.6z" />
<glyph unicode="&#xe907;" glyph-name="hot_fill" data-tags="hot_fill" d="M757.408 759.776c-9.792 8.8-23.936 10.72-35.68 4.832-11.776-5.888-18.752-18.336-17.6-31.456 3.488-39.552 2.56-80.864-1.536-112.096-81.44 132.672-259.040 262.464-267.808 268.832-10.24 7.424-23.872 8.128-34.848 1.76-10.944-6.368-17.12-18.56-15.744-31.136 0.288-2.528 23.072-219.68-24.384-358.528-13.696 26.624-31.968 53.92-54.080 68.64-45.888 30.56-133.92 36.704-143.808 37.312-13.024 0.928-25.216-6.656-30.784-18.624-5.536-11.936-3.072-26.208 6.016-35.744 0.576-0.544 54.848-59.424 54.848-217.568 0-2.4 0.256-4.704 0.768-6.976 7.68-115.232 72.544-233.92 173.184-293.088 5.024-2.944 10.624-4.416 16.224-4.416 0.192 0 0.384 0.032 0.64 0 17.664 0 32 14.304 32 32 0 5.312-1.312 10.336-3.584 14.752-4.288 15.68-6.432 44.64-6.432 60.896 0 1.312-0.064 2.592-0.224 3.872-1.024 30.272-5.28 55.648-11.040 76.672 21.376-13.344 44.48-35.872 64.064-51.264 6.976-5.504 15.872-7.808 24.672-6.464 8.768 1.376 16.576 6.272 21.536 13.632 34.144 50.176 29.376 154.72 20.448 223.808 88.288-59.456 211.104-154.176 208.64-250.688 0-5.536-0.32-10.944-0.768-16.384-1.184-13.248 5.984-25.856 17.952-31.616 12-5.856 26.272-3.52 35.968 5.6 70.88 67.264 109.952 148.352 109.952 244.864 6.976 274.208-132.64 403.232-138.592 408.576z" />
<glyph unicode="&#xe908;" glyph-name="message" data-tags="message" d="M640 544h-256c-17.664 0-32 14.336-32 32s14.336 32 32 32h256c17.696 0 32-14.336 32-32s-14.304-32-32-32zM579.264 416h-195.264c-17.664 0-32 14.336-32 32s14.336 32 32 32h195.264c17.696 0 32-14.336 32-32s-14.336-32-32-32zM962.24 512c0 211.744-200.96 384-448 384s-448-172.256-448-384c0-116.512 63.040-226.048 172.928-300.672 14.624-9.984 34.528-6.144 44.448 8.512 9.92 14.624 6.112 34.528-8.512 44.448-92.064 62.496-144.864 152.768-144.864 247.712 0 176.448 172.256 320 384 320s384-143.552 384-320c0-176.448-172.256-320-384-320-1.984 0-3.68-0.768-5.568-1.12-15.136 2.72-30.464-5.216-35.776-20.192-6.144-17.376-46.368-46.656-94.144-73.792 17.44 58.208 9.088 70.688 3.488 78.976-6.72 9.984-17.92 15.936-29.92 15.936-17.664 0-32-14.304-32-32 0-5.824 1.536-11.264 4.256-15.968-3.232-18.208-17.216-60.832-33.056-99.84-4.928-12.096-1.984-25.984 7.392-35.072 6.080-5.888 14.112-8.992 22.272-8.992 4.384 0 8.8 0.896 12.992 2.752 36.48 16.256 147.648 69.12 187.616 125.632 243.552 3.52 440.448 174.112 440.448 383.68z" />
<glyph unicode="&#xe909;" glyph-name="ArrowLeft" data-tags="ArrowLeft" d="M277.382 406.978c-23.136 22.633-23.113 59.378 0.024 82.035l383.961 421.98c23.16 22.657 60.65 22.68 83.786 0.048 23.112-22.657 23.088-59.378-0.048-82.058l-347.407-381.779 346.713-381.035c23.16-22.681 23.401-59.186 0.576-81.555s-60.122-22.104-83.258 0.553l-383.052 420.97c-0.382 0.361-0.91 0.457-1.294 0.84z" />
<glyph unicode="&#xe90a;" glyph-name="my_solid" data-tags="my_solid" d="M512 344.695c-158.124 0-286.767 128.643-286.767 286.767s128.643 286.767 286.767 286.767 286.767-128.644 286.767-286.768c0-158.123-128.643-286.765-286.767-286.765zM512 809.487c-98.162 0-178.025-79.862-178.025-178.026 0-98.162 79.861-178.025 178.025-178.025s178.025 79.861 178.025 178.025c0 98.165-79.862 178.026-178.025 178.026zM878.613-22.227c-30.027 0-54.371 24.342-54.371 54.371 0 172.172-140.070 312.242-312.242 312.242s-312.242-140.070-312.242-312.242c0-30.027-24.342-54.371-54.371-54.371s-54.371 24.342-54.371 54.371c0 112.451 43.79 218.165 123.303 297.68 79.515 79.513 185.231 123.303 297.68 123.303s218.165-43.789 297.68-123.303c79.514-79.515 123.303-185.231 123.303-297.68 0-30.027-24.342-54.371-54.371-54.371z" />
<glyph unicode="&#xe90b;" glyph-name="my_tasklist" data-tags="my_tasklist" d="M771.2 576c0 160-128 288-288 288s-288-128-288-288c0-108.8 57.6-201.6 147.2-249.6-121.6-48-214.4-153.6-240-288-3.2-16 6.4-35.2 25.6-38.4h6.4c16 0 28.8 9.6 32 25.6 28.8 150.4 160 259.2 313.6 262.4h6.4c153.6 0 284.8 131.2 284.8 288zM259.2 576c0 124.8 99.2 224 224 224s224-99.2 224-224c0-121.6-99.2-220.8-220.8-224h-9.6c-121.6 6.4-217.6 105.6-217.6 224zM704 288c0-19.2 12.8-32 32-32h160c19.2 0 32 12.8 32 32s-12.8 32-32 32h-160c-16 0-32-12.8-32-32zM896 195.2h-256c-19.2 0-32-12.8-32-32s12.8-32 32-32h256c19.2 0 32 12.8 32 32s-12.8 32-32 32zM896 67.2h-252.8c-19.2 0-32-12.8-32-32s12.8-32 32-32h252.8c19.2 0 32 12.8 32 32s-16 32-32 32z" />
<glyph unicode="&#xe90c;" glyph-name="new" data-tags="new" d="M963.072 513.664c0 211.744-200.96 384-448 384s-448-172.256-448-384c0-116.48 63.008-226.048 172.896-300.672 14.656-9.984 34.528-6.144 44.448 8.512 9.952 14.624 6.112 34.528-8.512 44.448-92.032 62.496-144.832 152.768-144.832 247.712 0 176.448 172.256 320 384 320s384-143.552 384-320c0-176.448-172.256-320-384-320-1.984 0-3.68-0.768-5.568-1.12-15.104 2.688-30.464-5.216-35.776-20.192-6.144-17.376-46.368-46.656-94.144-73.792 17.472 58.208 9.088 70.688 3.52 78.976-6.72 9.984-17.92 15.936-29.92 15.936-17.664 0-32-14.304-32-32 0-5.824 1.536-11.264 4.256-15.936-3.232-18.24-17.216-60.864-33.088-99.872-4.928-12.096-1.984-25.984 7.36-35.072 6.112-5.888 14.112-8.992 22.272-8.992 4.384 0 8.8 0.896 12.992 2.752 36.48 16.256 147.68 69.12 187.616 125.664 243.552 3.488 440.48 174.080 440.48 383.648zM342.624 355.456c4.672-2.4 9.664-3.52 14.592-3.52 11.616 0 22.816 6.336 28.512 17.408l71.584 139.488 91.584-142.208c5.824-9.024 15.744-14.528 26.464-14.688 0.16 0 0.32 0 0.448 0 10.56 0 20.48 5.216 26.432 13.984l128.8 188.864c9.984 14.624 6.176 34.528-8.416 44.48-14.624 9.952-34.528 6.208-44.48-8.416l-101.632-148.992-95.456 148.288c-6.176 9.6-17.152 14.752-28.48 14.656-11.424-0.576-21.696-7.2-26.912-17.344l-96.896-188.896c-8.096-15.744-1.888-35.040 13.856-43.104z" />
<glyph unicode="&#xe90d;" glyph-name="new2" data-tags="new2" d="M511.656 878.481c-245.792 0-428.544-201.249-428.544-436.47 0-20.753 4.565-82.371 11.87-99.738l5.695-21.765c1.76-10.998 10.971-19.589 22.57-19.589 10.216 0 20.557 8.248 21.962 17.54l0.564 5.092-2.762 15.899c-3.854 16.929-12.226 80.751-12.226 102.559 0 209.075 162.734 392.477 380.87 389.153 210.619-3.199 381.412-169.519 381.412-378.594 0-209.056-170.794-378.574-381.412-378.574-75.057 0-144.88 21.828-203.899 59.006-0.106-0.075-0.241-0.164-0.351-0.241-10.188 5.068-23.517 3.59-33.249-4.642-25.317-23.529-50.387-37.867-71.119-46.621 5.741 39.596 7.029 89.066 5.087 109.451 0 3.743-0.713 7.6-2.471 11.322-5.739 12.326-19.262 18.232-30.192 13.212-5.275-2.405-8.918-6.92-10.719-12.293l-1.214-7.652c0-1.892 0.168-3.785 0.608-5.708 1.781-21.035 6.762-77.193-17.188-126.656-1.697-3.984-2.463-8.205-2.424-12.371-0.025-0.131-0.065-0.258-0.087-0.392-2.22-13.026 7.118-25.447 20.872-27.747 0.952-0.158 1.893-0.243 2.827-0.289 3.38-0.304 6.741 0.151 9.893 1.31 27.869 5.812 91.071 33.579 124.254 57.371 61.93-34.543 133.278-54.387 209.375-54.387 236.998 0 429.087 190.687 429.085 425.903-0.002 235.231-192.090 425.909-429.087 425.909zM226.169 533.776v-168.852h36.719v99.638c0 6.086 0.927 11.837 2.902 17.32 1.913 5.418 4.618 10.169 8.043 14.179 3.43 4.010 7.652 7.225 12.597 9.495 4.944 2.277 10.548 3.414 16.745 3.414 10.945 0 18.989-3.011 24.129-8.965 5.14-6.015 7.911-15.647 8.376-28.889v-106.193h36.719v115.959c0 19.19-5.207 33.565-15.755 43.133-10.547 9.561-24.924 14.377-43.184 14.377-10.945 0-20.901-2.673-29.935-8.026s-16.287-12.704-21.891-22.066l-0.66 0.669v24.805h-34.807zM559.649 476.331c-3.098 11.904-8.107 22.403-14.97 31.567-6.856 9.162-15.494 16.515-25.91 22.066-10.415 5.617-22.153 8.363-35.27 8.363-12.46 0-23.601-2.342-33.492-7.159-9.894-4.745-18.328-11.234-25.254-19.393-6.989-8.158-12.33-17.654-16.088-28.419-3.758-10.837-5.604-22.204-5.604-34.174 0-13.040 1.714-25.010 5.278-35.914 3.49-10.896 8.767-20.194 15.753-28.086 6.994-7.889 15.499-13.972 25.585-18.321 10.084-4.348 21.689-6.556 34.811-6.556 8.965 0 17.667 1.27 25.912 3.745 8.24 2.539 15.755 6.219 22.414 11.168 6.595 4.882 12.329 10.901 17.012 18.123 4.748 7.157 8.107 15.316 10.020 24.48h-34.808c-3.235-9.363-8.115-16.388-14.638-21.068-6.529-4.683-15.165-7.020-25.912-7.020-7.715 0-14.374 1.337-19.979 4.077s-10.151 6.418-13.843 10.97c-3.692 4.547-6.399 9.897-8.245 15.98-1.768 6.042-2.667 12.286-2.679 18.791h122.346c1.449 12.643 0.66 24.944-2.44 36.781zM439.723 464.23c0.195 6.287 1.449 12.169 3.69 17.654 2.24 5.418 5.273 10.169 9.035 14.179 3.758 4.010 8.304 7.225 13.51 9.495 5.213 2.277 11.076 3.414 17.54 3.414 6.197 0 11.867-1.27 16.947-3.745 5.011-2.541 9.297-5.822 12.851-9.831 3.562-4.016 6.333-8.761 8.376-14.18 2.043-5.484 3.295-11.101 3.692-16.985h-85.64zM695.731 490.312h0.66l30.921-125.455h37.716l52.154 168.919h-37.385l-33.823-126.121h-0.659l-29.934 126.121h-37.052l-31.253-126.121h-0.66l-32.505 126.121h-38.964l51.56-168.919h38.632z" />
<glyph unicode="&#xe90e;" glyph-name="news_hot" data-tags="news_hot" d="M768 828.8h-508.8c-54.4 0-96-41.6-96-96v-636.8c0-54.4 41.6-96 96-96 6.4 0 12.8 3.2 16 3.2l236.8 147.2 240-147.2c6.4-3.2 9.6-3.2 16-3.2 54.4 0 96 41.6 96 96v636.8c0 54.4-41.6 96-96 96zM800 96c0-16-9.6-28.8-25.6-32l-246.4 150.4c-6.4 3.2-9.6 3.2-16 3.2s-12.8 0-16-3.2l-243.2-150.4c-12.8 3.2-25.6 16-25.6 32v636.8c0 19.2 12.8 32 32 32h508.8c19.2 0 32-12.8 32-32v-636.8zM672 640h-320c-19.2 0-32-12.8-32-32s12.8-32 32-32h320c19.2 0 32 12.8 32 32s-12.8 32-32 32zM672 512h-320c-19.2 0-32-12.8-32-32s12.8-32 32-32h320c19.2 0 32 12.8 32 32s-12.8 32-32 32zM672 384h-320c-19.2 0-32-12.8-32-32s12.8-32 32-32h320c19.2 0 32 12.8 32 32s-12.8 32-32 32z" />
<glyph unicode="&#xe90f;" glyph-name="news_hot_fill" data-tags="news_hot_fill" d="M768 828.8h-508.8c-54.4 0-96-41.6-96-96v-636.8c0-54.4 41.6-96 96-96 6.4 0 12.8 3.2 16 3.2l236.8 147.2 240-147.2c6.4-3.2 9.6-3.2 16-3.2 54.4 0 96 41.6 96 96v636.8c0 54.4-41.6 96-96 96zM672 320h-320c-19.2 0-32 12.8-32 32s12.8 32 32 32h320c19.2 0 32-12.8 32-32s-12.8-32-32-32zM672 448h-320c-19.2 0-32 12.8-32 32s12.8 32 32 32h320c19.2 0 32-12.8 32-32s-12.8-32-32-32zM672 576h-320c-19.2 0-32 12.8-32 32s12.8 32 32 32h320c19.2 0 32-12.8 32-32s-12.8-32-32-32z" />
<glyph unicode="&#xe910;" glyph-name="upload_file" data-tags="upload_file" d="M913.54 717.123l-190.328 190.339c-27.172 27.195-45.324 31.721-77.057 31.721h-489.434c-31.721 0-58.916-27.195-58.916-58.916v-856.509c0-31.744 27.195-58.927 58.916-58.927h725.12c31.71 0 58.893 27.183 58.893 58.927v634.437c-0.011 22.656-9.076 36.259-27.195 58.927v0 0zM863.711 694.455h-167.694v167.694l167.694-167.694zM890.872 23.747c0-4.538-4.527-9.087-9.042-9.087h-725.108c-4.527 0-13.592 4.538-13.592 9.087v856.521c0 4.538 9.054 13.603 13.592 13.603h489.434v-222.072c0-13.603 9.076-27.183 22.679-27.183h222.049v-620.868h-0.011zM644.202 376.904c-4.719 0-14.122 0-18.807 4.696l-122.2 126.885-122.2-122.2c-9.404-9.381-23.503-9.381-32.895 0-9.404 9.415-9.404 23.503 0 32.895l141.007 141.019c9.404 9.404 23.492 9.404 32.907 0l140.996-140.996c9.404-9.392 9.404-23.503 0-32.907-4.707-9.392-14.111-9.392-18.807-9.392zM503.195 118.381c-14.088 0-23.492 9.404-23.492 23.503v376.005c0 14.1 9.404 23.503 23.492 23.503 14.111 0 23.514-9.404 23.514-23.503v-376.005c0-14.1-9.404-23.503-23.514-23.503z" />
<glyph unicode="&#xe911;" glyph-name="CheckPad" data-tags="CheckPad" d="M484.736 356.448l-103.072 206.144-32.592-65.184-226.512 2.608 0.368 32 206.464-2.384 52.272 104.528 99.824-199.648 99.744 249.456 98.704-151.984 209.84-2.352-0.352-32-226.992 2.544-74.416 114.592zM485.952 327.184l-104.304 208.576-25.216-50.432-246.016 2.832 0.656 56 210.96-2.432 59.632 119.28 98.608-197.216 98.416 246.144 107.808-166.016 215.424-2.416-0.64-56-245.408 2.768-65.312 100.56-104.608-261.648zM381.664 589.424l101.856-203.696 101.952 255.008 83.536-128.624 208.56-2.336 0.080 8-204.272 2.304-89.6 137.952-101.072-252.768-101.040 202.064-44.88-89.792-202 2.336-0.096-8 207.008-2.384 39.968 79.936zM874.208 327.2c0-10.957-8.883-19.84-19.84-19.84v0h-149.632c-10.962 0-19.848 8.886-19.848 19.848s8.886 19.848 19.848 19.848v0h149.632c10.944 0 19.84-8.88 19.84-19.856zM779.552 421.856c10.96 0 19.84-8.896 19.84-19.84v-149.632c0-10.962-8.886-19.848-19.848-19.848s-19.848 8.886-19.848 19.848v0 149.632c0 10.957 8.883 19.84 19.84 19.84 0.006 0 0.011 0 0.017 0h-0.001zM285.168 701.872c-0.009-7.251-5.885-13.127-13.135-13.136h-99.041c-7.255 0-13.136 5.881-13.136 13.136s5.881 13.136 13.136 13.136h99.040c0.005 0 0.010 0 0.016 0 7.246 0 13.12-5.874 13.12-13.12 0-0.006 0-0.011 0-0.017v0.001zM222.512 764.528c7.248 0 13.136-5.888 13.136-13.136v-99.040c-0.254-7.064-6.042-12.693-13.144-12.693s-12.89 5.63-13.143 12.67l-0.001 0.023v99.040c0 7.264 5.888 13.136 13.152 13.136zM803.744 114.256h-583.488c-119.248 0-216.272 97.008-216.272 216.272v401.792c0 119.248 97.008 216.272 216.272 216.272h583.504c119.248 0 216.272-97.008 216.272-216.272v-401.792c-0.016-119.264-97.024-216.272-216.288-216.272zM220.256 884.576c-83.968 0-152.272-68.304-152.272-152.272v-401.792c0-83.952 68.304-152.272 152.272-152.272h583.504c83.952 0 152.272 68.32 152.272 152.272v401.808c0 83.968-68.32 152.272-152.272 152.272h-583.504zM988.672-52.576h-953.344c-17.673 0-32 14.327-32 32s14.327 32 32 32v0h953.344c17.673 0 32-14.327 32-32s-14.327-32-32-32v0z" />
<glyph unicode="&#xe912;" glyph-name="CircleMyAdd" data-tags="CircleMyAdd" d="M511.999 893.138c-245.88 0-445.138-199.312-445.138-445.138s199.258-445.138 445.138-445.138 445.138 199.31 445.138 445.138c0 245.826-199.258 445.138-445.138 445.138zM511.999 58.505c-214.799 0-389.496 174.751-389.496 389.496s174.697 389.496 389.496 389.496c214.798 0 389.496-174.751 389.496-389.496s-174.698-389.496-389.496-389.496zM776.463 326.228h-54.772v54.772c0 15.377-12.388 27.822-27.822 27.822-15.324 0-27.822-12.443-27.822-27.822v-54.772h-54.771c-15.324 0-27.822-12.443-27.822-27.822s12.498-27.822 27.822-27.822h54.772v-54.772c0-15.377 12.498-27.822 27.822-27.822 15.432 0 27.822 12.443 27.822 27.822v54.773h54.772c15.432 0 27.822 12.443 27.822 27.822s-12.39 27.821-27.823 27.821zM674.417 434.851c-23.202 17.823-49.122 32.277-77.487 41.948 49.557 29.234 83.192 82.648 83.192 144.214 0 92.756-75.421 168.231-168.122 168.231-92.756 0-168.176-75.476-168.176-168.231 0-61.565 33.689-114.98 83.191-144.214-105.144-35.753-181.544-134.324-181.544-251.367 0-15.434 12.389-27.822 27.822-27.822 15.324 0 27.822 12.387 27.822 27.822 0 116.283 94.548 210.832 210.886 210.832 47.981 0 91.777-16.737 127.315-43.796 3.641 26.189 20.757 37.71 35.102 42.383zM511.999 508.533c-62 0-112.535 50.48-112.535 112.48 0 62.054 50.535 112.588 112.535 112.588s112.48-50.534 112.48-112.588c0-62-50.48-112.48-112.48-112.48z" />
<glyph unicode="&#xe913;" glyph-name="ArrowRight" data-tags="ArrowRight" d="M730.564 409.54c-0.36-0.359-0.856-0.449-1.214-0.788l-359.113-394.661c-21.692-21.242-56.657-21.489-78.054-0.518s-21.173 55.193 0.54 76.459l325.045 357.221-325.698 357.92c-21.69 21.263-21.713 55.689-0.045 76.929 21.691 21.218 56.837 21.196 78.55-0.045l359.966-395.608c21.691-21.241 21.713-55.689 0.022-76.908z" />
<glyph unicode="&#xe914;" glyph-name="ArrowUp" data-tags="ArrowUp" horiz-adv-x="1048" d="M565.514 686.779c0.393-0.394 0.491-0.935 0.861-1.326l431.062-392.233c23.201-23.692 23.471-61.883 0.566-85.254-22.906-23.374-60.284-23.126-83.511 0.589l-390.168 355.025-390.933-355.739c-23.224-23.691-60.826-23.716-84.025-0.049-23.174 23.692-23.151 62.079 0.049 85.795l432.096 393.168c23.199 23.692 60.827 23.716 84.001 0.024z" />
<glyph unicode="&#xe915;" glyph-name="ask" data-tags="ask" d="M665.6 585.6c-12.8 57.6-57.6 105.6-118.4 118.4-67.2 16-131.2-9.6-169.6-64-28.8-41.6 0-60.8 16-73.6 6.4-3.2 12.8-9.6 22.4-19.2 12.8-12.8 32-9.6 44.8 3.2s9.6 32-3.2 44.8c-9.6 6.4-16 12.8-22.4 19.2 22.4 25.6 60.8 38.4 96 28.8s60.8-35.2 70.4-70.4c9.6-48-12.8-92.8-54.4-112s-70.4-57.6-70.4-102.4v-22.4c0-19.2 12.8-32 32-32 0 0 0 0 0 0 16 0 32 12.8 32 32v22.4c0 19.2 12.8 38.4 32 44.8 70.4 28.8 108.8 105.6 92.8 182.4zM480 230.4c-9.6-9.6-12.8-22.4-12.8-35.2s6.4-25.6 12.8-35.2c9.6-9.6 22.4-12.8 35.2-12.8s25.6 6.4 35.2 12.8c9.6 9.6 12.8 22.4 12.8 35.2s-6.4 25.6-12.8 35.2c-19.2 19.2-51.2 19.2-70.4 0zM512 892.8c-80 0-160-22.4-227.2-64-38.4 44.8-96 67.2-160 67.2-9.6 0-22.4-6.4-28.8-16s-6.4-22.4 0-32c0 0 32-54.4 41.6-137.6 3.2-16 16-28.8 32-28.8 0 0 3.2 0 3.2 0 19.2 3.2 32 16 32 35.2-6.4 41.6-16 80-25.6 105.6 25.6-6.4 51.2-22.4 70.4-51.2 0 0 0 0 0 0s0 0 0 0c3.2-3.2 3.2-3.2 3.2-6.4 0 0 3.2-3.2 3.2-3.2 3.2 0 3.2-3.2 6.4-3.2s3.2-3.2 6.4-3.2c3.2 0 3.2 0 6.4 0s3.2 0 6.4 0 3.2 0 6.4 3.2c3.2 0 3.2 0 6.4 3.2 0 0 0 0 0 0s0 0 0 0c64 44.8 140.8 67.2 217.6 67.2 211.2 0 384-172.8 384-384s-172.8-384-384-384-384 172.8-384 384c0 54.4 9.6 105.6 32 156.8 6.4 16 0 35.2-16 41.6s-35.2 0-41.6-16c-25.6-57.6-38.4-118.4-38.4-182.4 0-246.4 201.6-448 448-448s448 201.6 448 448c0 246.4-201.6 448-448 448z" />
<glyph unicode="&#xe916;" glyph-name="CheckBoxEmpty" data-tags="CheckBoxEmpty" d="M818.655-11.545h-613.312c-84.303 0-152.886 66.343-152.886 147.89v623.306c0 81.549 68.585 147.89 152.886 147.89h613.312c84.303 0 152.886-66.342 152.886-147.89v-623.306c0-81.548-68.585-147.89-152.886-147.89zM205.345 836.845c-45.318 0-82.19-34.628-82.19-77.191v-623.306c0-42.564 36.869-77.191 82.19-77.191h613.312c45.318 0 82.19 34.627 82.19 77.191v623.306c0 42.563-36.869 77.191-82.19 77.191h-613.312z" />
<glyph unicode="&#xe917;" glyph-name="CheckBoxEmpty2" data-tags="CheckBoxEmpty2" d="M512-8.704c-61.639 0-121.453 12.080-177.78 35.904-54.388 23.005-103.226 55.93-145.158 97.861s-74.858 90.77-97.861 145.158c-23.824 56.326-35.904 116.141-35.904 177.78s12.080 121.453 35.904 177.78c23.005 54.388 55.93 103.226 97.861 145.158s90.77 74.858 145.158 97.861c56.326 23.824 116.141 35.904 177.78 35.904s121.453-12.080 177.78-35.904c54.388-23.005 103.226-55.93 145.158-97.861s74.858-90.77 97.861-145.158c23.824-56.326 35.904-116.141 35.904-177.78s-12.080-121.453-35.904-177.78c-23.005-54.388-55.93-103.226-97.861-145.158s-90.77-74.858-145.158-97.861c-56.326-23.824-116.141-35.904-177.78-35.904zM512 836.437c-214.186 0-388.437-174.252-388.437-388.437s174.252-388.437 388.437-388.437 388.437 174.252 388.437 388.437-174.252 388.437-388.437 388.437z" />
<glyph unicode="&#xe918;" glyph-name="CheckBoxOK" data-tags="CheckBoxOK" d="M839.099 900.474h-654.199c-69.243 0-125.375-53.746-125.375-120.044v-664.86c0-66.299 56.132-120.044 125.375-120.044h654.199c69.243 0 125.375 53.746 125.375 120.044v664.86c0 66.299-56.132 120.044-125.375 120.044zM840.094 571.246l-331.814-331.814c-11.779-11.78-27.219-17.67-42.66-17.67s-30.879 5.89-42.66 17.67l-239.057 239.057c-23.558 23.558-23.558 61.758 0 85.319s61.758 23.558 85.319 0l196.397-196.397 289.155 289.155c23.558 23.558 61.758 23.558 85.319 0s23.558-61.758 0-85.319z" />
<glyph unicode="&#xe919;" glyph-name="CheckBoxOk2" data-tags="CheckBoxOk2" d="M508.827 960.002c-278.207 0-503.742-225.537-503.742-503.74 0-278.211 225.535-503.744 503.742-503.744s503.742 225.535 503.742 503.744c0 278.203-225.533 503.74-503.742 503.74zM782.265 538.783l-288.743-306.462c-8.961-9.502-21.635-15.418-35.691-15.418s-26.73 5.916-35.669 15.394l-0.023 0.024-177.075 187.96c-74.551 75.92 37.693 153.678 83.265 93.893l129.503-138.187 230.88 246.396c51.128 59.761 148.495-19.35 93.552-83.6z" />
<glyph unicode="&#xe91a;" glyph-name="CirclDel" data-tags="CirclDel" d="M512 890.732c-244.512 0-442.732-198.22-442.732-442.732s198.22-442.732 442.732-442.732 442.732 198.22 442.732 442.732-198.22 442.732-442.732 442.732zM735.075 401.396h-446.15c-25.788 0-46.604 20.816-46.604 46.604s20.816 46.604 46.604 46.604h446.15c25.788 0 46.604-20.816 46.604-46.604s-20.972-46.604-46.604-46.604z" />
<glyph unicode="&#xe91b;" glyph-name="CirclPlus" data-tags="CirclPlus" d="M512 889.717c-244.514 0-442.732-197.763-442.732-441.717s198.218-441.717 442.732-441.717 442.732 197.763 442.732 441.717-198.218 441.717-442.732 441.717zM735.045 401.396h-176.442v-176.442c0-25.738-20.866-46.604-46.604-46.604s-46.604 20.866-46.604 46.604v176.442h-176.442c-25.738 0-46.604 20.866-46.604 46.604s20.866 46.604 46.604 46.604h176.442v176.442c0 25.738 20.866 46.604 46.604 46.604s46.604-20.866 46.604-46.604v-176.442h176.442c25.738 0 46.604-20.866 46.604-46.604s-20.866-46.604-46.604-46.604z" />
<glyph unicode="&#xe91c;" glyph-name="DownLoad" data-tags="DownLoad" horiz-adv-x="1032" d="M563.2 917.333v-640c0-23.467-19.2-42.667-42.667-42.667s-42.667 19.2-42.667 42.667v640c0 23.467 19.2 42.667 42.667 42.667s42.667-19.2 42.667-42.667zM806.195 502.724l-255.616-255.625c-7.733-7.692-18.394-12.446-30.165-12.446s-22.432 4.755-30.167 12.448l0.002-0.002c-16.597 16.606-16.597 43.776 0 60.331l255.616 255.625c7.733 7.692 18.394 12.446 30.165 12.446s22.432-4.755 30.167-12.448l-0.002 0.002c7.692-7.733 12.446-18.394 12.446-30.165s-4.755-22.432-12.448-30.167l0.002 0.002zM490.351 247.117l-255.616 255.607c-7.692 7.733-12.446 18.394-12.446 30.165s4.755 22.432 12.448 30.167l-0.002-0.002c16.597 16.606 43.776 16.606 60.331 0l255.616-255.616c7.692-7.733 12.446-18.394 12.446-30.165s-4.755-22.432-12.448-30.167l0.002 0.002c-7.733-7.692-18.394-12.446-30.165-12.446s-22.432 4.755-30.167 12.448l0.002-0.002zM904.533-64h-768c-70.571 0-128 57.429-128 128v256c0 23.595 19.072 42.667 42.667 42.667s42.667-19.072 42.667-42.667v-256c0-23.552 19.115-42.667 42.667-42.667h768c23.552 0 42.667 19.115 42.667 42.667v256c0 23.595 19.072 42.667 42.667 42.667s42.667-19.072 42.667-42.667v-256c0-70.571-57.429-128-128-128z" />
<glyph unicode="&#xe91d;" glyph-name="filter" data-tags="filter" d="M42.641 960c-33.621-0.085-53.973-37.248-35.883-65.621l334.592-503.381v-412.203c0-24.491 20.053-42.795 42.709-42.795 4.949 0 10.027 0.896 15.019 2.773l255.829 93.909c16.36 6.239 27.772 21.797 27.776 40.021v0 318.293l334.037 502.571c18.97 28.373-1.365 66.432-35.456 66.432h-938.624zM121.66 874.667h778.709l-288.128-435.499-14.891-21.76v-315.179l-170.667-62.037v376.235l-13.952 21.291-291.072 436.949z" />
<glyph unicode="&#xe91e;" glyph-name="folder" data-tags="folder" d="M85.335 832v-767.959l853.289-0.041 0.046 597.335h-523.991l-30.295 122.281c-4.905 36.393-9.472 45.184-11.776 47.232-0.041 0-2.258 1.152-9.047 1.152h-278.226zM938.624-21.33h-853.248c-47.063 0-85.376 38.272-85.376 85.371v767.959c0 47.058 38.272 85.335 85.335 85.335h278.231c87.209 0 99.2-76.713 105.047-119.936l12.713-50.729h457.385c47.058 0 85.289-38.272 85.289-85.294v-597.335c0-47.099-38.272-85.371-85.376-85.371v0z" />
<glyph unicode="&#xe91f;" glyph-name="HomePage" data-tags="HomePage" d="M853.333-7.111h-284.444v227.556h-113.778v-227.556h-284.444v551.822h56.889v-494.933h170.667v227.556h227.556v-227.556h170.667v494.933h56.889zM944.356 385.422l-432.356 438.044-432.356-438.044-45.511 39.822 477.867 477.867 477.867-477.867z" />
<glyph unicode="&#xe920;" glyph-name="cloude" data-tags="cloude" horiz-adv-x="1445" d="M1055.021 682.135c192.312-0.205 348.161-156.033 348.401-348.317v-0.023c0-178.959-136.132-327.68-311.778-346.172l-758.603-2.349c-160.585 0.206-290.705 130.347-290.876 290.92v0.016c0.189 154.363 120.44 280.579 272.377 290.291l0.851 0.044c9.83 195.914 170.959 351.068 368.377 351.292h0.022c156.007-0.625 289.217-97.556 343.31-234.396l0.874-2.51c9.336 0.783 18.191 1.205 27.046 1.205zM683.791 803.75c-140.638-0.171-254.598-114.152-254.735-254.782v-95.968h-95.955c-97.583-0.137-176.653-79.207-176.791-176.777v-0.013c0.103-97.609 79.186-176.714 176.777-176.851h721.993c129.368 0.206 234.178 105.058 234.315 234.422v0.013c-0.205 129.314-104.997 234.084-234.299 234.255h-0.017c-129.34-0.171-234.144-104.975-234.315-234.299v-18.087h-114.206v18.071c0.144 141.955 85.163 264.017 207.038 318.186l2.219 0.881c-40.802 89.402-129.218 150.519-231.962 151.010h-0.064z" />
<glyph unicode="&#xe921;" glyph-name="InfoPad" data-tags="InfoPad" d="M374.981 874.667h260.818c20.198 0 36.571 16.374 36.571 36.571s-16.374 36.571-36.571 36.571h-260.818c-20.198 0-36.571-16.374-36.571-36.571s16.374-36.571 36.571-36.571zM805.92 853.62c31.457 0 57.887-28.058 57.887-63.684v-702.053c0-35.632-26.435-63.684-57.887-63.684h-613.938c-31.457 0-57.887 28.058-57.887 63.684v702.053c0 35.632 26.435 63.684 57.887 63.684 20.198 0 36.571 16.374 36.571 36.571s-16.374 36.571-36.571 36.571c-72.851 0-131.030-61.739-131.030-136.827v-702.053c0-75.078 58.168-136.827 131.030-136.827h613.938c72.851 0 131.030 61.739 131.030 136.827v702.053c0 75.078-58.168 136.827-131.030 136.827-20.198 0-36.571-16.374-36.571-36.571s16.374-36.571 36.571-36.571zM280.527 654.077h448.809c20.198 0 36.571 16.374 36.571 36.571s-16.374 36.571-36.571 36.571h-448.809c-20.198 0-36.571-16.374-36.571-36.571s16.374-36.571 36.571-36.571zM280.527 428.844h448.809c20.198 0 36.571 16.374 36.571 36.571s-16.374 36.571-36.571 36.571h-448.809c-20.198 0-36.571-16.374-36.571-36.571s16.374-36.571 36.571-36.571zM280.527 208.254h448.809c20.198 0 36.571 16.374 36.571 36.571s-16.374 36.571-36.571 36.571h-448.809c-20.198 0-36.571-16.374-36.571-36.571s16.374-36.571 36.571-36.571z" />
<glyph unicode="&#xe922;" glyph-name="link" data-tags="link" d="M771.78 363.418c-10.923 0-21.845 4.181-30.165 12.501-7.731 7.715-12.513 18.382-12.513 30.165s4.783 22.45 12.513 30.165l147.201 147.201c66.56 66.517 66.56 174.805 0 241.365-66.56 66.517-174.805 66.56-241.365 0l-147.2-147.2c-7.715-7.731-18.382-12.513-30.165-12.513s-22.45 4.783-30.165 12.513l-0.001 0.001c-7.712 7.724-12.482 18.387-12.482 30.165s4.769 22.442 12.482 30.166l147.199 147.199c99.797 99.84 262.229 99.755 362.027 0.043 99.797-99.883 99.797-262.272 0-362.069l-147.2-147.2c-7.703-7.723-18.356-12.501-30.125-12.501-0.014 0-0.028 0-0.043 0h0.002zM255.881-64c-65.579 0-131.115 24.96-181.035 74.88-99.797 99.84-99.797 262.187 0 362.027l149.931 149.888c7.715 7.731 18.382 12.513 30.165 12.513s22.45-4.783 30.165-12.513l0.001-0.001c7.731-7.715 12.513-18.382 12.513-30.165s-4.783-22.45-12.513-30.165l-149.932-149.889c-66.517-66.517-66.517-174.805 0-241.365 66.56-66.517 174.805-66.517 241.408 0l149.888 149.931c7.724 7.712 18.387 12.482 30.165 12.482s22.442-4.769 30.166-12.482l-0.001 0.001c7.712-7.724 12.482-18.387 12.482-30.165s-4.769-22.442-12.482-30.166l-149.887-149.93c-49.92-49.92-115.499-74.88-181.035-74.88zM384 277.333c-10.923 0-21.845 4.181-30.165 12.501-7.731 7.715-12.513 18.382-12.513 30.165s4.783 22.45 12.513 30.165l256.001 256.001c7.715 7.731 18.382 12.513 30.165 12.513s22.45-4.783 30.165-12.513l0.001-0.001c7.731-7.715 12.513-18.382 12.513-30.165s-4.783-22.45-12.513-30.165l-256.001-256.001c-7.703-7.723-18.356-12.501-30.125-12.501-0.014 0-0.028 0-0.043 0h0.002z" />
<glyph unicode="&#xe923;" glyph-name="List2" data-tags="List2" d="M380.199 491.046h-218.453c-48.182 0-87.381 39.199-87.381 87.381v218.453c0 48.182 39.199 87.381 87.381 87.381h218.453c48.182 0 87.381-39.199 87.381-87.381v-218.453c0-48.182-39.199-87.381-87.381-87.381zM161.746 811.445c-8.031 0-14.563-6.533-14.563-14.563v-218.453c0-8.031 6.533-14.563 14.563-14.563h218.453c8.031 0 14.563 6.533 14.563 14.563v218.453c0 8.031-6.533 14.563-14.563 14.563h-218.453zM380.199 11.738h-218.453c-48.182 0-87.381 39.199-87.381 87.381v218.453c0 48.182 39.199 87.381 87.381 87.381h218.453c48.182 0 87.381-39.199 87.381-87.381v-218.453c0-48.182-39.199-87.381-87.381-87.381zM161.746 332.135c-8.031 0-14.563-6.533-14.563-14.563v-218.453c0-8.031 6.533-14.563 14.563-14.563h218.453c8.031 0 14.563 6.533 14.563 14.563v218.453c0 8.031-6.533 14.563-14.563 14.563h-218.453zM911.77 725.52h-320.398c-20.108 0-36.409 16.301-36.409 36.409s16.301 36.409 36.409 36.409h320.398c20.108 0 36.409-16.301 36.409-36.409s-16.301-36.409-36.409-36.409zM911.77 576.972h-320.398c-20.108 0-36.409 16.301-36.409 36.409s16.301 36.409 36.409 36.409h320.398c20.108 0 36.409-16.301 36.409-36.409s-16.301-36.409-36.409-36.409zM911.77 246.21h-320.398c-20.108 0-36.409 16.301-36.409 36.409s16.301 36.409 36.409 36.409h320.398c20.108 0 36.409-16.301 36.409-36.409s-16.301-36.409-36.409-36.409zM911.77 97.662h-320.398c-20.108 0-36.409 16.301-36.409 36.409s16.301 36.409 36.409 36.409h320.398c20.108 0 36.409-16.301 36.409-36.409s-16.301-36.409-36.409-36.409z" />
<glyph unicode="&#xe924;" glyph-name="goback" data-tags="goback" d="M512-64c-282.752 0-512 229.248-512 512s229.248 512 512 512c282.752 0 512-229.248 512-512s-229.248-512-512-512zM512 874.688c-235.648 0-426.688-191.040-426.688-426.688s191.040-426.688 426.688-426.688c235.648 0 426.688 191.040 426.688 426.688s-191.040 426.688-426.688 426.688zM593.92 163.776l-280.832 284.224 280.832 284.288 60.224-60.992-220.672-223.296 220.672-223.36-60.224-60.864z" />
<glyph unicode="&#xe925;" glyph-name="attachment" data-tags="attachment" d="M448 960c105.872 0 192-86.128 192-192v-480c0-70.56-57.44-128-128-128s-128 57.44-128 128v384c0 17.688 14.312 32 32 32s32-14.312 32-32v-384c0-35.312 28.688-64 64-64s64 28.688 64 64v480c0 70.56-57.44 128-128 128s-128-57.44-128-128v-576c0-105.872 86.128-192 192-192s192 86.128 192 192v480c0 17.688 14.312 32 32 32s32-14.312 32-32v-480c0-141.184-114.816-256-256-256s-256 114.816-256 256v576c0 105.872 86.128 192 192 192z" />
<glyph unicode="&#xe926;" glyph-name="msg_pop" data-tags="msg_pop" d="M512.020 112.51c-29.594 0.074-58.535 2.64-86.69 7.497l-192.938-119.334v197.989c-102.177 71.734-167.76 181.739-167.76 305.303 0 216.193 200.302 391.434 447.399 391.434s447.389-175.272 447.389-391.434-200.353-391.455-447.399-391.455zM512.020 839.485c-216.204 0-391.475-150.221-391.475-335.531 0-113.699 66.136-214.045 167.075-274.675l-1.781-129.694 131.689 79.091c28.373-6.405 60.99-10.127 94.458-10.233 216.279 0 391.551 150.211 391.551 335.521s-175.302 335.521-391.516 335.521zM735.705 448.041c-30.886 0-55.924 25.038-55.924 55.924s25.038 55.924 55.924 55.924c30.886 0 55.924-25.038 55.924-55.924-0.006-30.883-25.040-55.918-55.923-55.924zM512.020 448.041c-30.881 0.006-55.913 25.041-55.913 55.924 0 30.886 25.038 55.924 55.924 55.924s55.924-25.038 55.924-55.924c0-0.003 0-0.007 0-0.010 0-30.88-25.033-55.913-55.913-55.913-0.004 0-0.007 0-0.011 0zM288.306 448.041c-30.886 0-55.924 25.038-55.924 55.924s25.038 55.924 55.924 55.924c30.886 0 55.924-25.038 55.924-55.924-0.006-30.883-25.040-55.918-55.923-55.924z" />
<glyph unicode="&#xe927;" glyph-name="multiline_txt" data-tags="multiline_txt" d="M704 768h-384v64h128v64h-320v-64h128v-64h-256v-768h960v768h-256zM64 64v640h192v-448h-128v-64h320v64h-128v448h320v-640h-576zM896 64h-192v192h192v-192zM896 320h-192v128h192v-128zM704 512v192h192v-192h-192zM768 640h64v-64h-64v64zM768 192h64v-64h-64v64z" />
<glyph unicode="&#xe928;" glyph-name="news" data-tags="news" d="M867.2 800h-707.2c-54.4 0-96-44.8-96-96v-512c0-54.4 41.6-96 96-96h707.2c54.4 0 96 41.6 96 96v512c0 51.2-41.6 96-96 96zM899.2 192c0-19.2-12.8-32-32-32h-707.2c-19.2 0-32 12.8-32 32v512c0 19.2 12.8 32 32 32h707.2c19.2 0 32-12.8 32-32v-512zM227.2 416h188.8c19.2 0 32 12.8 32 32v188.8c0 19.2-12.8 32-32 32h-188.8c-19.2 0-32-12.8-32-32v-188.8c0-19.2 12.8-32 32-32zM259.2 604.8h124.8v-124.8h-124.8v124.8zM800 672h-256c-19.2 0-32-12.8-32-32s12.8-32 32-32h256c19.2 0 32 12.8 32 32s-12.8 32-32 32zM672 480c19.2 0 32 12.8 32 32s-12.8 32-32 32h-128c-19.2 0-32-12.8-32-32s12.8-32 32-32h128zM800 288h-576c-19.2 0-32-12.8-32-32s12.8-32 32-32h576c19.2 0 32 12.8 32 32s-12.8 32-32 32z" />
<glyph unicode="&#xe929;" glyph-name="birthday" data-tags="birthday" d="M204.8 260.011c57.856 0 108.757 25.429 139.605 64.128 37.035-38.699 98.176-64.128 167.595-64.128s130.517 25.429 167.552 64.128c30.891-38.699 81.835-64.128 139.648-64.128 94.208 0 170.667 67.157 170.667 150.016 0 73.813-60.8 134.827-140.672 147.328-9.771 1.707-19.755 2.688-29.995 2.688h-238.933v133.291h-136.533v-133.333h-238.933c-10.24 0-20.267-0.939-29.995-2.688-79.915-12.459-140.672-73.472-140.672-147.328 0-82.816 76.373-149.973 170.667-149.973zM512 726.656c37.675 0 68.309 29.867 68.309 66.688s-68.309 166.656-68.309 166.656-68.267-129.835-68.267-166.656c0-36.821 30.592-66.688 68.267-66.688zM678.101 263.125c-37.163-42.112-97.493-69.803-166.101-69.803s-128.939 27.648-166.101 69.803c-33.323-41.813-91.52-69.803-158.208-69.803-63.616 0-119.595 25.429-153.557 64.085v-154.752c0-92.032 76.373-166.656 170.667-166.656h614.4c94.208 0 170.667 74.624 170.667 166.656v154.837c-33.963-38.699-89.984-64.171-153.643-64.171-66.645 0-124.843 27.989-158.123 69.803z" />
<glyph unicode="&#xe92a;" glyph-name="Search" data-tags="Search" d="M424.024 193.902c-91.619 0-177.754 35.679-242.538 100.464-133.735 133.737-133.735 351.344 0 485.078 64.784 64.784 150.919 100.462 242.538 100.462s177.754-35.677 242.539-100.462c133.733-133.735 133.735-351.34 0-485.078-64.785-64.783-150.922-100.464-242.539-100.464zM424.024 763.915c-60.637 0-117.643-23.613-160.523-66.489-88.512-88.51-88.51-232.53 0-321.040 42.876-42.876 99.885-66.491 160.523-66.491s117.643 23.614 160.523 66.491c88.51 88.51 88.51 232.53 0 321.040-42.876 42.876-99.885 66.489-160.523 66.489zM886.838 16.096c-14.842 0-29.684 5.663-41.010 16.986l-261.286 261.285c-22.647 22.649-22.647 59.369 0 82.018 22.647 22.647 59.37 22.647 82.018 0l261.286-261.286c22.647-22.649 22.647-59.369 0-82.018-11.325-11.322-26.167-16.985-41.010-16.985z" />
<glyph unicode="&#xe92b;" glyph-name="calendar" data-tags="calendar" d="M426.667 618.667h128v-128h-128v128zM597.333 618.667h128v-128h-128v128zM768 618.667h128v-128h-128v128zM256 277.333h128v-128h-128v128zM426.667 277.333h128v-128h-128v128zM597.333 277.333h128v-128h-128v128zM426.667 448h128v-128h-128v128zM597.333 448h128v-128h-128v128zM768 448h128v-128h-128v128zM256 448h128v-128h-128v128zM896 874.667v-42.667h-128v42.667h-384v-42.667h-128v42.667h-128v-853.333h896v853.333h-128zM981.333 64h-810.667v640h810.667v-640z" />
<glyph unicode="&#xe92c;" glyph-name="SendMsg" data-tags="SendMsg" d="M915.515 817.181l-817.302-315.38c-46.059-17.773-44.905-43.602 2.348-57.623l197.478-58.595 80.292-238.911c10.512-31.278 37.973-37.874 61.462-14.604l103.584 102.612 204.475-149.84c26.566-19.467 53.879-9.222 61.050 23.090l149.211 672.345c7.151 32.22-11.895 48.753-42.598 36.906zM791.141 665.166l-348.62-310.61c-6.269-5.585-11.942-16.653-12.812-24.847l-15.391-144.698c-1.728-16.248-7.33-16.918-12.498-1.345l-67.457 203.339c-2.639 7.955 0.976 17.705 8.022 21.931l442.115 265.181c28.174 16.898 31.174 12.907 6.641-8.951z" />
<glyph unicode="&#xe92d;" glyph-name="Storage" data-tags="Storage" d="M512 134.4c-211.2 0-377.6 57.6-377.6 128v0-198.4c6.4-70.4 172.8-128 377.6-128s371.2 57.6 377.6 128v0 204.8c0-76.8-166.4-134.4-377.6-134.4v0zM512 416c-211.2 0-377.6 57.6-377.6 128v0-204.8c6.4-70.4 172.8-128 377.6-128s371.2 57.6 377.6 128v0 204.8c0-70.4-166.4-128-377.6-128v0zM889.6 832v0c0 70.4-166.4 128-377.6 128s-377.6-57.6-377.6-128v0 0-204.8c6.4-70.4 172.8-128 377.6-128s371.2 57.6 377.6 128v0 204.8zM512 742.4c-153.6 0-281.6 44.8-281.6 96s128 96 281.6 96c153.6 0 281.6-44.8 281.6-96 0-57.6-128-96-281.6-96v0z" />
<glyph unicode="&#xe92e;" glyph-name="thumbList" data-tags="thumbList" d="M380.199 527.456h-218.453c-28.15 0-50.973 22.821-50.973 50.973v218.453c0 28.15 22.821 50.973 50.973 50.973h218.453c28.15 0 50.973-22.821 50.973-50.973v-218.453c0-28.15-22.821-50.973-50.973-50.973zM380.199 491.046h-218.453c-48.182 0-87.381 39.199-87.381 87.381v218.453c0 48.182 39.199 87.381 87.381 87.381h218.453c48.182 0 87.381-39.199 87.381-87.381v-218.453c0-48.182-39.199-87.381-87.381-87.381zM161.746 811.445c-8.031 0-14.563-6.533-14.563-14.563v-218.453c0-8.031 6.533-14.563 14.563-14.563h218.453c8.031 0 14.563 6.533 14.563 14.563v218.453c0 8.031-6.533 14.563-14.563 14.563h-218.453zM380.199 48.146h-218.453c-28.15 0-50.973 22.821-50.973 50.973v218.453c0 28.15 22.821 50.973 50.973 50.973h218.453c28.15 0 50.973-22.821 50.973-50.973v-218.453c0-28.15-22.821-50.973-50.973-50.973zM380.199 11.738h-218.453c-48.182 0-87.381 39.199-87.381 87.381v218.453c0 48.182 39.199 87.381 87.381 87.381h218.453c48.182 0 87.381-39.199 87.381-87.381v-218.453c0-48.182-39.199-87.381-87.381-87.381zM161.746 332.135c-8.031 0-14.563-6.533-14.563-14.563v-218.453c0-8.031 6.533-14.563 14.563-14.563h218.453c8.031 0 14.563 6.533 14.563 14.563v218.453c0 8.031-6.533 14.563-14.563 14.563h-218.453zM860.797 527.456h-218.453c-28.15 0-50.973 22.821-50.973 50.973v218.453c0 28.15 22.821 50.973 50.973 50.973h218.453c28.15 0 50.973-22.821 50.973-50.973v-218.453c0-28.15-22.821-50.973-50.973-50.973zM860.797 491.046h-218.453c-48.182 0-87.381 39.199-87.381 87.381v218.453c0 48.182 39.199 87.381 87.381 87.381h218.453c48.182 0 87.381-39.199 87.381-87.381v-218.453c0-48.182-39.199-87.381-87.381-87.381zM642.343 811.445c-8.031 0-14.563-6.533-14.563-14.563v-218.453c0-8.031 6.533-14.563 14.563-14.563h218.453c8.031 0 14.563 6.533 14.563 14.563v218.453c0 8.031-6.533 14.563-14.563 14.563h-218.453zM860.797 11.738h-218.453c-48.182 0-87.381 39.199-87.381 87.381v218.453c0 48.182 39.199 87.381 87.381 87.381h218.453c48.182 0 87.381-39.199 87.381-87.381v-218.453c0-48.182-39.199-87.381-87.381-87.381zM642.343 332.135c-8.031 0-14.563-6.533-14.563-14.563v-218.453c0-8.031 6.533-14.563 14.563-14.563h218.453c8.031 0 14.563 6.533 14.563 14.563v218.453c0 8.031-6.533 14.563-14.563 14.563h-218.453z" />
<glyph unicode="&#xe92f;" glyph-name="Upload" data-tags="Upload" d="M469.333 277.333v640c0 23.467 19.2 42.667 42.667 42.667s42.667-19.2 42.667-42.667v-640c0-23.467-19.2-42.667-42.667-42.667s-42.667 19.2-42.667 42.667zM226.21 691.942l255.616 255.625c7.733 7.692 18.394 12.446 30.165 12.446s22.432-4.755 30.167-12.448l-0.002 0.002c16.597-16.597 16.597-43.776 0-60.331l-255.616-255.625c-7.733-7.692-18.394-12.446-30.165-12.446s-22.432 4.755-30.167 12.448l0.002-0.002c-7.692 7.733-12.446 18.394-12.446 30.165s4.755 22.432 12.448 30.167l-0.002-0.002zM542.054 947.558l255.616-255.616c7.692-7.733 12.446-18.394 12.446-30.165s-4.755-22.432-12.448-30.167l0.002 0.002c-16.597-16.606-43.776-16.606-60.331 0l-255.616 255.599c-7.692 7.733-12.446 18.394-12.446 30.165s4.755 22.432 12.448 30.167l-0.002-0.002c7.733 7.692 18.394 12.446 30.165 12.446s22.432-4.755 30.167-12.448l-0.002 0.002zM896-64h-768c-70.571 0-128 57.429-128 128v256c0 23.595 19.072 42.667 42.667 42.667s42.667-19.072 42.667-42.667v-256c0-23.552 19.115-42.667 42.667-42.667h768c23.552 0 42.667 19.115 42.667 42.667v256c0 23.595 19.072 42.667 42.667 42.667s42.667-19.072 42.667-42.667v-256c0-70.571-57.429-128-128-128z" />
<glyph unicode="&#xe930;" glyph-name="WindowClose" data-tags="WindowClose" d="M155.252 16.175c-19.213 0-38.429 7.332-53.089 21.988-29.317 29.321-29.317 76.855 0 106.175l713.494 713.494c29.317 29.321 76.853 29.321 106.175 0 29.317-29.317 29.317-76.855 0-106.175l-713.494-713.494c-14.66-14.66-33.874-21.988-53.089-21.988zM868.749 16.176c-19.213 0-38.428 7.332-53.089 21.988l-713.494 713.493c-29.317 29.317-29.317 76.857 0 106.175 29.316 29.317 76.855 29.321 106.174 0l713.494-713.492c29.317-29.321 29.317-76.855 0-106.175-14.657-14.661-33.871-21.993-53.087-21.993z" />
<glyph unicode="&#xe931;" glyph-name="ZoomAll" data-tags="ZoomAll" d="M938.667 832h-298.667c-23.467 0-42.667 19.2-42.667 42.667s19.2 42.667 42.667 42.667h298.667c23.467 0 42.667-19.2 42.667-42.667s-19.2-42.667-42.667-42.667zM384 832h-298.667c-23.467 0-42.667 19.2-42.667 42.667s19.2 42.667 42.667 42.667h298.667c23.467 0 42.667-19.2 42.667-42.667s-19.2-42.667-42.667-42.667zM896 576v298.667c0 23.467 19.2 42.667 42.667 42.667s42.667-19.2 42.667-42.667v-298.667c0-23.467-19.2-42.667-42.667-42.667s-42.667 19.2-42.667 42.667zM42.667 576v298.667c0 23.467 19.2 42.667 42.667 42.667s42.667-19.2 42.667-42.667v-298.667c0-23.467-19.2-42.667-42.667-42.667s-42.667 19.2-42.667 42.667zM85.333 64h298.667c23.467 0 42.667-19.2 42.667-42.667s-19.2-42.667-42.667-42.667h-298.667c-23.467 0-42.667 19.2-42.667 42.667s19.2 42.667 42.667 42.667zM640 64h298.667c23.467 0 42.667-19.2 42.667-42.667s-19.2-42.667-42.667-42.667h-298.667c-23.467 0-42.667 19.2-42.667 42.667s19.2 42.667 42.667 42.667zM128 21.333c0-23.467-19.2-42.667-42.667-42.667s-42.667 19.2-42.667 42.667v298.667c0 23.467 19.2 42.667 42.667 42.667s42.667-19.2 42.667-42.667v-298.667zM981.333 21.333c0-23.467-19.2-42.667-42.667-42.667s-42.667 19.2-42.667 42.667v298.667c0 23.467 19.2 42.667 42.667 42.667s42.667-19.2 42.667-42.667v-298.667zM908.535 904.875c16.597 16.597 43.776 16.597 60.373 0 16.555-16.597 16.555-43.733 0-60.331l-286.251-286.208c-7.733-7.692-18.394-12.446-30.165-12.446s-22.432 4.755-30.167 12.448l0.002-0.002c-7.692 7.733-12.446 18.394-12.446 30.165s4.755 22.432 12.448 30.167l286.206 286.206zM341.316 337.664c16.606 16.597 43.776 16.597 60.382 0 16.555-16.597 16.555-43.733 0-60.331l-286.251-286.208c-7.733-7.692-18.394-12.446-30.165-12.446s-22.432 4.755-30.167 12.448l0.002-0.002c-7.692 7.733-12.446 18.394-12.446 30.165s4.755 22.432 12.448 30.167l286.206 286.206z" />
<glyph unicode="&#xe932;" glyph-name="discuss" data-tags="discuss" horiz-adv-x="1025" d="M864 117.488v-181.488l-179.368 110.437c-24.867-4.057-50.416-6.441-76.63-6.441-123.222 0-233.587 47.159-309.761 121.643 12.534-0.725 25.012-1.638 37.761-1.638 17.871 0 35.49 0.883 52.935 2.286 60.142-41.384 136.182-66.288 219.065-66.288 28.568 0 56.193 3.262 82.789 8.815l62.351-41.572c-0.068-0.023-0.127-0.051-0.195-0.074l47.053-31.162v113.394c96.256 54.252 160 147.933 160 254.602 0 67.474-25.764 129.6-68.829 180.036 2.867 19.687 4.831 39.615 4.831 59.966 0 9.308-1.014 18.397-1.624 27.572 79.694-66.312 129.624-159.744 129.624-263.576 0-116.458-62.741-219.882-160.002-286.51zM416.003 232c-26.216 0-51.763 2.378-76.634 6.433l-179.368-110.43v181.484c-97.258 66.626-160 170.058-160 286.518 0 201.028 186.25 363.996 416.003 363.996 229.749 0 415.999-162.968 415.999-363.996 0-201.038-186.25-364.004-415.999-364.004zM416.003 896c-194.405 0-352.001-136.108-352.001-303.993 0-106.674 63.744-200.354 159.998-254.608v-113.396l47.055 31.167c-0.066 0.018-0.125 0.053-0.193 0.074l62.349 41.566c26.597-5.544 54.223-8.804 82.793-8.804 194.405 0 351.999 136.096 351.999 304.002-0.002 167.885-157.598 303.993-352.001 303.993zM624 544.003c-26.509 0-48.001 21.486-48.001 48.003 0 26.503 21.492 47.997 48.001 47.997 26.511 0 48.001-21.492 48.001-47.997 0-26.518-21.49-48.003-48.001-48.003zM432 544.003c-26.509 0-48.001 21.486-48.001 48.003 0 26.503 21.492 47.997 48.001 47.997s48.001-21.492 48.001-47.997c0-26.518-21.49-48.003-48.001-48.003zM240.002 544.003c-26.509 0-48.001 21.486-48.001 48.003 0 26.503 21.49 47.997 48.001 47.997 26.509 0 48.001-21.492 48.001-47.997 0-26.518-21.492-48.003-48.001-48.003z" />
<glyph unicode="&#xe933;" glyph-name="attach_file" data-tags="attach_file" d="M381.747 49.766h-208.589c-22.118 0-40.346 7.168-54.477 21.299-14.336 14.234-21.402 32.358-21.402 54.579v758.477c0 22.118 7.066 40.346 21.299 54.477 14.234 14.336 32.461 21.402 54.579 21.402 12.595 0 18.944-6.349 18.944-18.944 0-12.698-6.349-18.944-18.944-18.944-25.293 0-37.888-12.698-37.888-37.888v-758.477c0-25.293 12.595-37.888 37.888-37.888h208.589c12.595 0 18.944-6.349 18.944-18.944 0-12.908-6.349-19.149-18.944-19.149zM741.99 485.888v239.411l-196.71 196.813h-372.122c-12.595 0-18.944 6.246-18.944 18.944 0 12.595 6.246 18.944 18.944 18.944h379.29c3.169 0 7.88-1.536 14.228-4.71l208.492-208.589c3.169-6.349 4.71-11.059 4.71-14.234v-246.579c0-12.698-6.349-18.944-18.944-18.944s-18.944 6.349-18.944 18.944zM552.346-64c-28.467 0-55.296 10.342-80.589 30.822-22.118 22.118-33.178 48.23-33.178 78.234 0 33.178 11.059 59.29 33.178 78.234l336.589 317.645c17.403 17.306 39.526 26.010 66.452 26.010 26.829 0 48.952-8.704 66.36-26.117 18.939-18.939 28.467-41.16 28.467-66.35 0-26.936-9.523-48.236-28.467-64l-260.813-244.127c-14.131-14.234-31.534-21.299-52.122-21.299s-38.707 7.066-54.477 21.299c-14.239 14.234-21.407 31.647-21.407 52.127 0 14.228 3.994 27.643 11.878 40.34l-66.35-61.64c-14.234-14.234-21.299-31.647-21.299-52.127 0-18.944 7.066-35.533 21.299-49.766 15.77-14.234 33.997-21.402 54.477-21.402s38.707 7.163 54.477 21.299l237.061 220.467c7.88 7.885 16.589 7.066 26.112-2.355 9.518-9.523 8.704-18.125-2.355-26.112l-234.593-220.37c-22.231-20.47-49.055-30.812-80.701-30.812zM760.934 694.477h-170.598c-22.113 0-40.346 7.168-54.477 21.299-14.234 14.336-21.402 32.461-21.402 54.579v170.701c0 12.595 6.349 18.944 18.939 18.944 12.6 0 18.944-6.349 18.944-18.944v-170.701c0-25.293 12.595-37.888 37.883-37.888h170.706c12.595 0 18.944-6.349 18.944-18.944 0.108-12.698-6.241-19.046-18.939-19.046zM756.224 312.934c9.523-9.523 8.704-18.227-2.355-26.117l-154.112-142.228c-6.252-9.523-9.426-18.125-9.426-26.112 0-11.059 3.994-18.949 11.878-23.66 17.403-17.403 34.714-17.403 52.122 0l260.716 241.772c11.054 11.059 16.584 23.757 16.584 37.888 0 15.764-5.53 28.467-16.584 37.883-11.059 11.059-24.479 16.691-40.248 16.691s-29.281-5.524-40.34-16.584l-101.888-94.828c1.536 1.536 4.71 2.355 9.421 2.355s9.518-2.35 14.234-7.060z" />
<glyph unicode="&#xe934;" glyph-name="MyEntrust" data-tags="MyEntrust" d="M929.558 83.995c-13.599-19.798-28.397-36.996-46.795-51.595-33.197-26.397-70.793-43.996-110.589-57.594-33.797-11.599-68.393-20.598-103.789-25.597-20.598-3-41.196-6.199-61.994-8.399-17.798-2-35.796-3-53.795-3.6-22.798-0.8-45.795-1.6-68.793-1-21.798 0.6-43.396 2.6-65.193 4.6-16.798 1.6-33.797 3-50.395 6.199-27.997 5.199-55.994 10.999-83.592 17.798-31.597 7.799-61.794 19.398-90.791 33.997-23.798 11.999-45.995 26.397-65.393 44.595-27.597 25.997-46.195 57.594-61.594 91.591-13.599 30.197-23.998 61.394-31.397 93.591-5.599 24.198-10.199 48.595-13.999 72.993-3.4 21.798-5.399 43.796-7.399 65.793-1.4 14.599-2 29.197-2.4 43.796-0.6 18.998-1.4 37.796-1 56.594 0.6 23.598 1.4 47.195 3.6 70.793 4.4 47.795 11.599 94.99 23.998 141.386 7.999 29.797 17.798 58.794 30.797 86.791 10.999 23.398 23.798 45.595 39.996 65.793 16.598 20.798 37.196 37.196 59.994 51.195 29.597 17.998 61.194 31.197 94.19 41.596 31.597 9.999 63.794 17.798 96.59 22.598 18.198 2.6 36.196 5.199 54.394 7.199 16.998 1.8 34.197 3 51.395 3.6 28.197 0.8 56.394 1.8 84.391 1 23.398-0.6 46.995-3.6 70.393-5.599 39.996-3.6 79.392-11.599 117.988-21.998 26.397-7.199 52.395-16.198 77.192-27.597 21.198-9.799 41.396-20.998 60.194-34.996 25.797-19.198 46.195-43.196 62.194-70.993 17.598-30.597 31.197-62.594 40.596-96.39 7.599-26.997 13.599-54.594 19.198-82.192 4.2-20.598 6.999-41.596 9.599-62.394 1.6-11.599 2.2-23.398 2.6-35.196 1-36.396 2.4-72.793 2.2-108.989-0.2-21.798-3-43.396-4.6-65.193-0.2-1.2 0-2.4 0-3.6-0.2-9.599-0.2-9.799-8.999-7.799-39.596 8.799-78.192 20.998-115.188 37.596-41.996 18.798-83.192 39.596-124.587 59.594-14.799 7.199-30.397 12.599-46.795 12.199-14.799-0.4-29.797-3-44.196-6.399-35.596-7.999-70.793-17.798-106.389-25.597-36.396-7.799-73.193-14.199-109.989-20.998-14.599-2.6-29.597-4.2-44.396-5.999-6.799-0.8-10.399-5.199-11.599-14.599-4-32.197 19.598-61.994 47.995-70.993 9.599-3 20.398-3.6 30.597-4 17.798-0.6 35.596-0.8 53.195 0 21.398 1 42.596 3 63.994 4.6 13.599 1 26.997 2.4 40.596 3.8 7.799 0.8 15.398 1.4 23.198 2.4 14.399 1.8 15.598-7.399 12.799-18.398-3.4-13.199-12.799-22.198-23.598-29.797-24.398-16.998-51.995-27.197-80.192-36.196-16.398-5.199-32.997-10.999-49.795-13.399-18.198-2.4-37.196-2-55.594-1.2-14.199 0.6-28.397 3.8-42.396 5.799-19.198 2.6-36.396 9.999-53.395 19.198-21.398 11.799-43.396 22.798-65.993 32.597-28.597 12.399-57.594 23.598-86.991 34.197-15.198 5.599-30.997 9.799-47.795 9.599-30.997-0.6-46.195-21.598-44.795-49.195 0.2-2 2.4-4.4 4.4-5.599 32.797-21.398 65.593-42.996 98.79-63.794 33.797-21.198 68.193-41.596 102.19-62.794 15.798-9.999 30.997-20.998 46.795-31.197 24.398-15.998 48.995-31.797 77.392-40.396 15.998-4.8 32.197-6.399 48.395-3.4 47.995 8.999 95.79 18.398 143.585 27.797 28.197 5.599 56.394 11.599 84.591 16.798 21.998 4 44.396 6.399 66.593 9.999 22.198 3.8 43.196-1.6 64.393-6.399 23.598-5.199 46.995-11.199 70.593-16.798 1.8-0.6 3-1.2 4.6-1.8zM422.009 606.942c-60.394 0-120.788 0-181.382-0.2-4.999 0-9.999-0.8-14.599-2.2-27.197-7.799-36.796-38.596-26.997-62.594 7.799-19.398 23.598-27.197 43.596-27.197 110.789-0.2 221.578-0.2 332.366 0 11.799 0 23.598 0.4 35.396 1.2 10.799 0.8 19.398 6.399 26.397 14.599 8.999 10.799 11.399 23.598 9.799 37.396-1.4 11.599-6.399 21.398-15.198 28.797-8.599 7.599-19.198 9.999-30.397 9.999-59.594 0.2-119.188 0.2-178.982 0.2zM421.609 791.923h-179.582c-4.6 0-9.199-0.4-13.599-1.6-29.397-7.599-38.996-38.796-28.997-63.394 7.799-19.198 23.398-26.997 43.196-26.997 114.188-0.2 228.577-0.2 342.765 0 8.199 0 16.398 0.4 24.598 1.2 14.199 1.2 24.598 8.799 31.397 20.798 5.399 9.599 6.999 19.998 5.399 30.997-1.6 12.199-6.799 22.198-16.598 29.797-8.599 6.799-18.598 9.199-28.997 9.199-59.994 0.2-119.788 0-179.582 0z" />
<glyph unicode="&#xe935;" glyph-name="MyList2" data-tags="MyList2" d="M954.182 378.182h-232.727c-12.847 0-23.273 10.426-23.273 23.273s10.426 23.273 23.273 23.273h232.727c12.847 0 23.273-10.426 23.273-23.273s-10.426-23.273-23.273-23.273zM954.182 541.091h-209.455c-12.847 0-23.273 10.426-23.273 23.273s10.426 23.273 23.273 23.273h209.455c12.847 0 23.273-10.426 23.273-23.273s-10.426-23.273-23.273-23.273zM954.182 704h-209.455c-12.847 0-23.273 10.426-23.273 23.273s10.426 23.273 23.273 23.273h209.455c12.847 0 23.273-10.426 23.273-23.273s-10.426-23.273-23.273-23.273zM534.761 406.109c148.899-48.733 256.512-188.602 256.512-353.745 0-12.847-10.426-23.273-23.273-23.273s-23.273 10.426-23.273 23.273c0 179.945-145.873 325.818-325.818 325.818s-325.818-145.873-325.818-325.818c0-12.847-10.426-23.273-23.273-23.273s-23.273 10.426-23.273 23.273c0 165.143 107.613 305.012 256.512 353.745-83.13 42.31-140.148 128.419-140.148 228.073 0 141.405 114.595 256 256 256s256-114.595 256-256c0-99.654-57.065-185.763-140.148-228.073zM418.909 843.636c-115.665 0-209.455-93.789-209.455-209.455s93.789-209.455 209.455-209.455 209.455 93.789 209.455 209.455c0 115.665-93.789 209.455-209.455 209.455zM814.545 261.818h139.636c12.847 0 23.273-10.426 23.273-23.273s-10.426-23.273-23.273-23.273h-139.636c-12.847 0-23.273 10.426-23.273 23.273s10.426 23.273 23.273 23.273z" />
<glyph unicode="&#xe936;" glyph-name="openfolder" data-tags="openfolder" horiz-adv-x="1156" d="M1039.77 633.897h-16.143c0.128 1.137 0.128 2.437 0.128 3.574v74.619c-0.087 64.476-52.306 116.741-116.787 116.884h-368.814v14.141c-0.015 64.507-52.275 116.813-116.782 116.884h-304.471c-64.507-0.072-116.767-52.378-116.787-116.884v-848.917c5.658-30.321 29.947-53.699 60.457-58.199h858.916c61.942 0.031 113.111 48.374 116.649 110.218l118.968 459.249c0.922 3.779 1.388 7.654 1.398 11.54 0.010 64.497-52.234 116.808-116.731 116.89zM96.338 843.116c0.005 11.382 9.216 20.608 20.593 20.644h304.435c11.382-0.026 20.598-9.262 20.598-20.644v-62.264c0-0.036 0-0.077 0-0.113 0.026-26.542 21.56-48.031 48.102-48.005h416.952c11.382-0.026 20.593-9.262 20.593-20.644v-74.619c0-1.137 0.128-2.437 0.128-3.574h-678.298c-62.198-0.108-113.413-48.911-116.511-111.032l-36.593-180.936v501.187zM941.548 64.266c-0.927-3.727-1.388-7.547-1.398-11.382 0-0.015 0-0.036 0-0.051 0.026-11.433-9.226-20.736-20.659-20.762h-799.304l107.679 474.86c0.727 3.308 1.091 6.692 1.091 10.081-0.056 11.377 9.073 20.664 20.449 20.808h790.364c9.789-0.056 18.202-6.984 20.127-16.584l-118.349-456.97z" />
<glyph unicode="&#xe937;" glyph-name="PlanProgress" data-tags="PlanProgress" d="M931.417 913.408h-837.418c-45.611 0-82.568-36.964-82.568-82.564v-773.93c0-45.611 36.968-82.568 82.568-82.568h60.952c10.895 0 21.046 4.916 27.911 13.278l200.428 248.489 91.493-75.51c14.627-12.091 36.116-10.597 49.103 3.276l268.057 314.048-7.503-66.229c0-19.78 16.036-35.817 35.817-35.817s35.817 16.036 35.817 35.817l17.841 157.491c0.479 2.222 0.737 4.526 0.78 6.882l0.034 0.298c0 0.062-0.010 0.122-0.011 0.186 0 0.062 0.011 0.122 0.011 0.186 0 19.78-16.036 35.817-35.817 35.817l-164.67-18.655c-19.78 0-35.817-16.036-35.817-35.817 0-19.78 16.036-35.817 35.817-35.817l67.331 7.628-247.24-292.437-93.277 77.003c-7.317 6.121-16.87 8.956-26.417 8.058-9.555-0.887-18.211-5.669-24.333-13.131l-211.884-262.806h-13.47c-22.8 0-41.289 18.466-41.289 41.288v712.009c0 22.804 18.473 41.289 41.289 41.289h775.496c22.804 0 41.296-18.473 41.296-41.289v-712.008c0-22.804-18.473-41.288-41.296-41.288h-372.081c-19.949 0-36.121-16.17-36.121-36.121s16.17-36.121 36.121-36.121h403.048c45.604 0 82.564 36.969 82.564 82.568v773.93c0 45.605-36.968 82.564-82.564 82.564z" />
<glyph unicode="&#xe938;" glyph-name="storage2" data-tags="storage2" d="M511.706 120.74c-181.596 0-328.825 64.402-329.341 143.754-17.128 4.565-33.799 9.474-49.665 14.612-0.689-4.68-0.969-9.359-0.969-14.158 0-108.58 170.116-196.609 379.976-196.609 209.855 0 379.976 88.029 379.976 196.609 0 6.107-0.516 12.219-1.6 18.155-15.701-5.363-32.141-10.505-49.155-15.242l0.115-2.913c0.005-79.633-147.454-144.207-329.337-144.207v0 0zM511.706 304.222c-181.596 0-328.825 64.282-329.341 143.749-17.128 4.569-33.799 9.363-49.665 14.617-0.689-4.68-0.969-9.479-0.969-14.273 0-108.465 170.116-196.494 379.976-196.494 209.855 0 379.976 88.029 379.976 196.494 0 6.164-0.516 12.214-1.6 18.269-15.701-5.424-32.141-10.504-49.155-15.298l0.115-2.971c0.005-79.581-147.454-144.093-329.337-144.093v0 0zM182.365 631.792c0 79.586 147.459 144.093 329.341 144.093s329.341-64.507 329.341-144.093c0-79.577-147.459-144.088-329.341-144.088s-329.341 64.511-329.341 144.088v0 0zM131.73 631.792c0-108.575 170.122-196.494 379.976-196.494s379.976 87.919 379.976 196.494c0 108.58-170.122 196.498-379.976 196.498s-379.976-87.918-379.976-196.498v0 0z" />
<glyph unicode="&#xe939;" glyph-name="TaskPad" data-tags="TaskPad" d="M287.5 395c-21.25 0-38.75-17.5-38.75-38.75s17.5-38.75 38.75-38.75c21.25 0 38.75 17.5 38.75 38.75s-17.5 38.75-38.75 38.75v0zM287.5 232.5v0c-21.25 0-38.75-17.5-38.75-38.75s17.5-38.75 38.75-38.75c21.25 0 38.75 17.5 38.75 38.75s-17.5 38.75-38.75 38.75v0zM287.5 556.25v0c-21.25 0-38.75-17.5-38.75-38.75s17.5-38.75 38.75-38.75c21.25 0 38.75 17.5 38.75 38.75 0 22.5-17.5 38.75-38.75 38.75v0zM910 798.75v0h-105v21.25c0 12.5-10 22.5-22.5 22.5h-123.75c-6.25 27.5-20 51.25-40 71.25-27.5 27.5-65 45-107.5 45-41.25 0-78.75-17.5-106.25-45-18.75-18.75-33.75-42.5-40-71.25h-122.5c-12.5 0-23.75-10-23.75-22.5v-21.25h-103.75c-21.25 0-38.75-17.5-38.75-38.75v-785c0-21.25 17.5-38.75 38.75-38.75h795c21.25 0 37.5 17.5 37.5 38.75v785c0 22.5-16.25 38.75-37.5 38.75v0zM450 870c18.75 18.75 33.75 31.25 62.5 31.25s43.75-11.25 62.5-31.25c10-10 7.5-12.5 12.5-27.5h-151.25c6.25 15 2.5 16.25 13.75 27.5zM277.5 785v0h470v-50h-470zM871.25 15v0h-718.75v707.5h66.25v-21.25c0-12.5 10-22.5 23.75-22.5h540c12.5 0 22.5 10 22.5 22.5v21.25h67.5v-707.5h-1.25zM735 553.75v0h-332.5c-12.5 0-22.5-22.5-22.5-35s10-35 22.5-35h332.5c12.5 0 23.75 22.5 23.75 35-1.25 12.5-11.25 35-23.75 35v0zM735 228.75v0h-332.5c-12.5 0-22.5-22.5-22.5-35s10-33.75 22.5-33.75h332.5c12.5 0 23.75 21.25 23.75 33.75-1.25 13.75-11.25 35-23.75 35v0zM735 391.25v0h-332.5c-12.5 0-22.5-21.25-22.5-35 0-12.5 10-35 22.5-35h332.5c12.5 0 23.75 21.25 23.75 35-1.25 12.5-11.25 35-23.75 35v0z" />
<glyph unicode="&#xe93a;" glyph-name="flag" data-tags="flag" d="M607.263 775.004l-20.122 100.675h-452.797v-855.357h100.664v352.292h281.682l20.193-100.675h352.133v503.066h-281.754z" />
<glyph unicode="&#xe93b;" glyph-name="guide" data-tags="guide" d="M948.531 754.278c9.114-9.114 9.114-18.33 0-27.443l-91.341-91.443c-6.144-3.072-10.752-4.506-13.722-4.506h-292.659v-109.67h274.33c12.186 0 18.33-6.144 18.33-18.33v-182.886c0-12.288-6.144-18.33-18.33-18.33h-274.33v-347.443c0-12.186-6.042-18.227-18.227-18.227h-73.114c-12.186 0-18.33 6.042-18.33 18.33v347.341h-329.114c-3.072 0-7.578 1.434-13.722 4.608l-91.443 91.443c-9.114 9.114-9.114 18.33 0 27.443l91.443 91.443c6.144 3.072 10.65 4.608 13.722 4.608h329.114v109.67h-310.886c-12.186 0-18.33 6.042-18.33 18.33v182.784c0 12.186 6.144 18.33 18.33 18.33h310.886v91.341c0 12.186 6.144 18.33 18.33 18.33h73.114c12.186 0 18.227-6.144 18.227-18.33v-91.443h292.557c3.072 0 7.578-1.536 13.722-4.608l91.443-91.341zM806.81 484.557h-687.923l-73.216-73.114 73.114-73.114h688.026v146.227zM909.722 740.557l-73.114 73.114h-688.026v-146.33h688.026l73.114 73.216zM477.696 850.33h36.557v73.114h-36.557v-73.114zM514.253 630.886h-36.557v-109.67h36.557v109.67zM514.253 301.67h-36.557v-329.114h36.557v329.114z" />
<glyph unicode="&#xe93c;" glyph-name="radio_button" data-tags="radio_button" d="M150.118 809.882c100.147 100.045 220.774 150.118 361.882 150.118s261.734-50.074 361.882-150.118c100.045-100.147 150.118-220.774 150.118-361.882 0-141.21-50.074-261.837-150.118-361.882-100.147-100.045-220.774-150.118-361.882-150.118s-261.734 50.074-361.882 150.118c-100.045 100.045-150.118 220.672-150.118 361.882 0 141.107 50.074 261.734 150.118 361.882zM512 918.118c-85.299 0-164.147-20.89-236.339-62.771-72.192-41.779-129.229-98.816-171.008-171.008-41.882-72.294-62.771-151.040-62.771-236.339 0-129.638 45.978-240.435 137.83-332.288 91.853-91.955 202.65-137.83 332.288-137.83s240.435 45.875 332.288 137.83c91.955 91.853 137.83 202.65 137.83 332.288s-45.978 240.333-137.83 332.288c-91.853 91.955-202.65 137.83-332.288 137.83zM512 704c-36.147 0-70.144-7.066-102.195-20.89-31.949-14.029-60.314-32.461-84.89-55.398-22.938-24.576-41.472-52.941-55.398-84.89s-20.89-66.15-20.89-102.195c0-36.147 6.963-70.144 20.89-102.195s32.461-60.314 55.398-84.89c24.576-23.040 52.941-41.472 84.89-55.398 32.051-13.926 66.048-20.89 102.195-20.89s70.144 6.963 102.195 20.89c31.949 13.926 60.314 32.358 84.89 55.398 22.938 24.576 41.472 52.941 55.398 84.89s20.89 66.048 20.89 102.195c0 36.045-6.963 70.144-20.89 102.195s-32.461 60.211-55.398 84.89c-24.576 22.938-52.941 41.37-84.89 55.398-32.051 13.824-66.048 20.89-102.195 20.89z" />
<glyph unicode="&#xe93d;" glyph-name="text_file" data-tags="text_file" d="M904.294 746.701c3.174-6.349 4.71-11.059 4.71-14.234v-720.589c0-22.118-7.066-40.243-21.299-54.482-14.131-14.228-32.353-21.402-54.477-21.402h-644.71c-22.118 0-40.346 7.168-54.477 21.299s-21.402 32.358-21.402 54.579v872.248c0 22.118 7.066 40.346 21.299 54.477s32.461 21.402 54.579 21.402h493.056c3.174 0 7.885-1.536 14.234-4.71l208.486-208.589zM833.229-26.112c25.288 0 37.888 12.59 37.888 37.883v682.706h-151.654c-22.113 0-40.34 7.168-54.477 21.299-14.234 14.336-21.402 32.461-21.402 54.579v151.757h-455.066c-25.293 0-37.888-12.698-37.888-37.888v-872.346c0-25.293 12.595-37.888 37.888-37.888l644.71-0.102zM472.986 656.589h-227.635c-12.595 0-18.944 6.246-18.944 18.944 0 12.595 6.349 18.944 18.944 18.944h227.533c12.595 0 18.944-6.349 18.944-18.944 0.102-12.698-6.246-18.944-18.842-18.944zM776.294 542.822h-530.944c-12.595 0-18.944 6.246-18.944 18.944 0 12.595 6.349 18.944 18.944 18.944h530.944c12.595 0 18.944-6.349 18.944-18.944 0.102-12.698-6.246-18.944-18.944-18.944zM776.294 429.056h-530.944c-12.595 0-18.944 6.246-18.944 18.944 0 12.595 6.349 18.944 18.944 18.944h530.944c12.595 0 18.944-6.349 18.944-18.944 0.102-12.698-6.246-18.944-18.944-18.944zM776.294 315.29h-530.944c-12.595 0-18.944 6.246-18.944 18.944 0 12.595 6.349 18.944 18.944 18.944h530.944c12.595 0 18.944-6.349 18.944-18.944 0.102-12.698-6.246-18.944-18.944-18.944zM662.528 201.518h-417.178c-12.595 0-18.944 6.252-18.944 18.949 0 12.59 6.349 18.939 18.944 18.939h417.178c12.59 0 18.939-6.349 18.939-18.939 0.108-12.698-6.241-18.949-18.939-18.949zM681.574 914.944v-144.589c0-25.293 12.595-37.888 37.883-37.888h144.589l-182.472 182.477z" />
<glyph unicode="&#xe93e;" glyph-name="user_info" data-tags="user_info" d="M899.174 746.701c3.174-6.349 4.71-11.059 4.71-14.234v-720.589c0-22.118-7.066-40.243-21.299-54.482-14.131-14.228-32.353-21.402-54.477-21.402h-644.71c-22.118 0-40.243 7.168-54.477 21.299-14.336 14.228-21.402 32.358-21.402 54.579v872.248c0 22.118 7.066 40.346 21.299 54.477 14.234 14.336 32.461 21.402 54.579 21.402h493.056c3.174 0 7.885-1.536 14.234-4.71l208.486-208.589zM828.109-26.112c25.288 0 37.888 12.59 37.888 37.883v682.706h-151.654c-22.113 0-40.238 7.168-54.477 21.299-14.234 14.336-21.402 32.461-21.402 54.579v151.757h-455.066c-25.293 0-37.888-12.698-37.888-37.888v-872.346c0-25.293 12.595-37.888 37.888-37.888l644.71-0.102zM415.642 604.467c47.411-26.931 71.168-66.355 71.168-118.579 0-12.698-6.349-18.944-18.944-18.944s-18.944 6.246-18.944 18.944c0 25.293-9.523 47.411-28.467 66.355s-41.165 28.467-66.458 28.467-47.411-9.421-66.355-28.365c-18.944-18.944-28.467-41.165-28.467-66.458 0-12.698-6.349-18.944-18.944-18.944s-18.944 6.349-18.944 18.944c0 52.122 23.757 91.648 71.066 118.477-22.016 19.046-33.178 42.701-33.178 71.168 0 25.293 9.523 47.411 28.467 66.355s41.062 28.467 66.355 28.467 47.411-9.421 66.458-28.467c19.046-19.046 28.467-41.165 28.467-66.355-0.102-28.467-11.162-52.122-33.28-71.066zM771.174 353.178h-530.944c-12.595 0-18.944 6.246-18.944 18.939 0 12.6 6.349 18.944 18.944 18.944h530.944c12.595 0 18.944-6.344 18.944-18.944 0.102-12.692-6.246-18.939-18.944-18.939zM771.174 239.411h-530.944c-12.595 0-18.944 6.252-18.944 18.944 0 12.595 6.349 18.944 18.944 18.944h530.944c12.595 0 18.944-6.349 18.944-18.944 0.102-12.698-6.246-18.944-18.944-18.944zM657.408 125.645h-417.178c-12.595 0-18.944 6.246-18.944 18.944 0 12.595 6.349 18.939 18.944 18.939h417.178c12.59 0 18.939-6.344 18.939-18.939 0.108-12.698-6.241-18.944-18.939-18.944zM313.754 715.878c-11.059-11.059-16.589-24.576-16.589-40.346s5.53-29.286 16.589-40.243c11.059-11.059 24.474-16.589 40.243-16.589s29.286 5.53 40.243 16.589c11.059 11.059 16.589 24.474 16.589 40.243s-5.53 29.286-16.589 40.346c-10.957 10.957-24.371 16.589-40.243 16.589-15.77 0-29.184-5.632-40.243-16.589zM676.454 914.944v-144.589c0-25.293 12.595-37.888 37.883-37.888h144.589l-182.472 182.477z" />
<glyph unicode="&#xe93f;" glyph-name="ZoomIn" data-tags="ZoomIn" horiz-adv-x="1025" d="M394.445 585.216c0-3.277-0.819-5.734-2.458-7.373 0-6.554-3.277-9.83-9.83-9.83-1.638-1.638-4.096-2.458-7.373-2.458h-235.11c-13.107 0-19.558 6.451-19.558 19.558s6.554 19.558 19.558 19.558h188.621l-320.922 318.464c-9.83 9.83-9.83 19.558 0 29.389s19.558 9.83 29.389 0l318.464-320.922v188.723c0 13.107 6.554 19.558 19.558 19.558s19.558-6.554 19.558-19.558v-235.11zM391.987 318.157c1.638-1.638 2.458-4.096 2.458-7.373v-235.213c0-13.107-6.554-19.558-19.558-19.558s-19.661 6.554-19.661 19.661v188.621l-318.464-320.922c-6.554-3.379-11.469-4.915-14.746-4.915s-8.192 1.536-14.746 4.915c-9.83 9.83-9.83 19.558 0 29.389l320.922 318.464h-188.518c-13.107 0-19.558 6.451-19.558 19.558s6.554 19.558 19.558 19.558h235.11c3.277 0 5.734-0.819 7.373-2.458 6.554 0.102 9.83-3.277 9.83-9.728zM987.238 952.627c9.83 9.83 19.558 9.83 29.389 0s9.83-19.558 0-29.389l-320.922-318.464h188.621c13.107 0 19.558-6.554 19.558-19.558 0-13.107-6.554-19.558-19.558-19.558h-235.11c-3.277 0-5.734 0.819-7.373 2.458-6.554 0-9.83 3.277-9.83 9.83-1.638 1.434-2.458 3.891-2.458 7.27v235.11c0 13.107 6.554 19.558 19.558 19.558 13.107 0 19.558-6.554 19.558-19.558v-188.621l318.566 320.922zM1016.627-27.238c9.83-9.83 9.83-19.558 0-29.389-6.554-3.379-11.366-4.915-14.643-4.915s-8.192 1.536-14.746 4.915l-318.464 320.922v-188.621c0-13.107-6.554-19.558-19.558-19.558-13.107 0-19.558 6.451-19.558 19.558v235.11c0 3.277 0.819 5.734 2.458 7.373 0 6.451 3.277 9.83 9.83 9.83 1.638 1.536 4.096 2.458 7.373 2.458h235.213c13.107 0 19.558-6.554 19.558-19.558 0-13.107-6.554-19.558-19.558-19.558h-188.826l320.922-318.566z" />
<glyph unicode="&#xe940;" glyph-name="MyAdd" data-tags="MyAdd" d="M1008.159 136.97h-110.177v111.227c0 8.837-7.137 16.026-15.908 16.026h-41.242c-8.658 0-15.775-7.178-15.775-16.026v-111.227h-110.188c-8.786 0-15.836-7.173-15.836-16.020v-41.682c0-8.842 7.050-16.020 15.836-16.020h110.188v-111.283c0-8.776 7.122-15.964 15.775-15.964h41.242c8.776 0 15.908 7.178 15.908 15.964v111.35h110.177c8.714 0 15.841 7.117 15.841 15.944v41.692c0 8.847-7.127 16.020-15.841 16.020v0 0 0zM769.751 340.577c-38.129 36.987-82.432 65.198-130.355 83.625 60.349 44.093 99.789 116.823 99.789 198.886 0 134.262-105.549 243.395-235.284 243.395-129.741 0-235.249-109.133-235.249-243.395 0-82.14 39.485-154.875 99.871-198.963-147.835-57.021-253.43-204.57-253.43-377.124 0-19.174 15.017-34.719 33.521-34.719 18.468 0 33.521 15.544 33.521 34.719 0 180.618 139.776 328.166 313.324 332.815 2.796-0.092 5.632-0.164 8.428-0.164s5.637 0.087 8.392 0.164c78.981-2.094 153.846-33.812 211.635-89.882 13.496-13.087 34.76-12.344 47.391 1.603 12.646 13.993 11.981 35.912-1.551 49.039zM511.104 449.172c-2.391 0.036-4.777 0.082-7.199 0.082-2.345 0-4.69-0.036-7.071-0.082-89.513 3.86-161.126 80.374-161.126 173.916 0 96.005 75.443 174.039 168.197 174.039s168.238-78.034 168.238-174.039c-0.005-93.46-71.613-170.010-161.039-173.916z" />
<glyph unicode="&#xe941;" glyph-name="Chart" data-tags="Chart" d="M229.4 442.8h101.2v-113.3h-101.2zM371.1 533.5h101.2v-204h-101.2zM645.6 173c0 10.3-7.4 18.7-16.6 18.7h-233c-9.2 0-16.6-8.4-16.6-18.7v-74.9h-166.4v-56.2h599v56.2h-166.4v74.9zM886.7 854.9h-748.4c-31 0-56.1-25.1-56.1-56.1v-523.9c0-30.9 25.1-56.1 56.1-56.1h748.4c31 0 56.2 25.1 56.2 56.1v523.9c-0.1 30.9-25.2 56.1-56.2 56.1zM886.7 293.6c0-10.3-8.4-18.7-18.7-18.7h-711c-10.4 0-18.7 8.4-18.7 18.7v486.5c0 10.3 8.3 18.7 18.7 18.7h711c10.3 0 18.7-8.3 18.7-18.7v-486.5zM695 624.1h101.2v-294.7h-101.2zM533.1 714.8h101.2v-385.4h-101.2z" />
<glyph unicode="&#xe942;" glyph-name="computer_set" data-tags="computer_set" d="M618.6 127.2h-98.6v113.5h24.8c-8.6 19.8-15.2 38.5-19.9 57.3h-370.5c-17.4 0-33.1 2.2-33.1 18.7v19.8h396.5c-0.4 0-0.8 12.7-0.8 18.3 0 12.3 1.2 19.2 3 38h-398.7v354c0 7.2 6.3 13.8 11.2 18.9s14.8 8.1 22 8.1h613.4c7.2 0 18.7-8.2 18.7-27.1v-165.2c18.7-3.9 37.5-10.1 57.3-17.9v183c0 36.3-27.4 84.3-64.5 84.3h-625c-21.1 0-45.6-10.8-61-25.9-15.5-15.2-29.4-36.7-29.4-58.4v-431c0-42.7 24.9-74.9 90.4-74.9h213.6v-113.5h-61.4c-7.2 0-13.4-3.8-18.5-8.9-5.2-5.1-7.7-11.9-7.7-19.1s2.6-15.1 7.7-20 11.3-9.2 18.5-9.2h312.1c7.2 0 13.4 4 18.5 8.9s7.7 11.7 7.7 18.9c0 7.2-2.6 15-7.7 20.1-5.2 5.2-11.4 9.3-18.6 9.3zM482.5 127.2h-57.3v113.5h57.3v-113.5zM748.7 278.1c-39.3 0-71.3 32-71.3 71.3s32 71.3 71.3 71.3 71.3-32 71.3-71.3-32-71.3-71.3-71.3zM748.7 382.6c-18.3 0-33.3-14.9-33.3-33.3 0-18.3 14.9-33.3 33.3-33.3 18.3 0 33.3 14.9 33.3 33.3s-14.9 33.3-33.3 33.3zM748.2 146c-14.9 0-28.9 1.7-39.5 12.1-10.7 10.5-16.7 22.5-16.9 37.5-4.7 1.7-9.4 3.1-13.9 5.3-10.4-10-24.1-16.3-38.6-16.3h-0.5c-14.9 0-28.9 5.3-39.5 15.7-10.8 10.6-16.7 24.4-16.9 39.5-0.1 15 5.5 29 16 39.8-2.1 4.6-4.1 9.2-5.8 13.9-14.5 0.3-28.1 5.9-38.5 16.1-10.7 10.6-16.7 24.7-16.9 39.8-0.1 15.1 5.6 29.3 16.2 40.1 10.5 10.7 24.5 16.7 39.5 16.9 1.8 4.9 3.8 9.7 6 14.4-10 10.5-15.6 24.1-15.7 38.7-0.1 15.1 5.7 29.3 16.3 40 21.8 22.1 57.5 22.4 79.6 0.7 4.3 2 8.7 3.8 13.1 5.4 0.5 30.7 25.6 55.5 56.4 55.5s55.9-24.8 56.4-55.5c4.8-1.7 9.5-3.7 14.1-5.8 21.9 21.1 56.8 21.1 78.7-0.2 10.8-10.5 16.8-24.6 17-39.7 0.2-15-5.5-29.2-15.9-39.9 2.1-4.5 4-9.1 5.7-13.8 30.4-0.5 55.2-25.2 55.5-55.7 0.2-15.1-5.5-29.3-16.1-40.1-10.5-10.7-24.5-16.7-39.4-17-1.8-4.9-3.8-9.7-6-14.4 10-10.4 15.6-24.1 15.8-38.6 0.1-15.1-5.6-29.3-16.2-40.1-21.7-22.1-57.4-22.5-79.6-0.9-4.6-2.2-9.3 0-14.1-1.7-0.6-30.4-25.4-51.3-56-51.3h-0.3zM672.3 242.9c3.5 0 6.9-0.9 9.9-2.8 11-6.7 22.9-11.7 35.4-14.8 5.2-1.3 9.6-4.7 12.2-9.5 2.5-4.7 3-10.3 1.1-15.4-0.8-2.3-1.2-4.3-1.2-6.3 0-5 2-9.6 5.5-13s7.4-5.4 13.1-5.3c10.2 0.1 18.3 8.4 18.3 18.6 0 1.7-0.4 3.6-1.2 5.8-1.8 5.1-1.3 10.7 1.2 15.4 2.6 4.7 7 8.1 12.2 9.4 12.6 3.1 24.6 8 35.7 14.7 4.6 2.8 10.2 3.5 15.3 1.9s9.4-5.2 11.7-10.1c1-2.2 2.2-3.9 3.6-5.3 7.3-7.1 18.9-7 26.1 0.2 3.4 3.5 5.3 8.2 5.3 13.1s-2 9.5-5.5 13c-1.2 1.2-2.9 2.3-5 3.4-4.8 2.3-8.5 6.6-10 11.7s-0.8 10.7 2 15.3c6.8 11.1 11.8 23.2 14.9 35.9 1.3 5.2 4.7 9.6 9.4 12.2s10.3 3 15.4 1.2c2-0.7 4.2-1.1 6.3-1.2 4.9 0.1 9.5 2 13 5.5 3.4 3.5 5.3 8.2 5.2 13.1-0.1 10.1-9.1 17.7-18.6 18.2-1.8-0.3-3.6-0.4-5.8-1.2-5.1-1.8-10.7-1.4-15.4 1.1s-8.2 7-9.5 12.2c-3.1 12.5-8 24.4-14.7 35.4-2.8 4.6-3.5 10.1-2 15.3 1.5 5.1 5.2 9.4 10 11.7 2.2 1.1 4 2.3 5.3 3.7 3.4 3.5 5.3 8.2 5.3 13.1s-2 9.6-5.5 13c-7.3 7.1-19 7-26.1-0.3-1.2-1.2-2.3-2.9-3.3-5-2.3-4.8-6.6-8.5-11.7-10-5.2-1.6-10.7-0.8-15.3 2-11 6.7-23 11.7-35.6 14.7-5.2 1.3-9.7 4.7-12.2 9.5-2.6 4.7-3 10.3-1.2 15.4 0.8 2.3 1.2 4.2 1.2 6.1 0 10.2-8.3 18.4-18.4 18.4-10.2 0-18.4-8.3-18.4-18.4 0-1.9 0.4-3.8 1.2-6.1 1.8-5.1 1.4-10.7-1.2-15.4s-7-8.2-12.2-9.5c-12.3-3-24-7.8-34.9-14.3-4.6-2.8-10.2-3.4-15.3-1.9-5.1 1.6-9.4 5.2-11.7 10.1-1 2.2-2.2 3.9-3.6 5.3-7.2 7.1-18.9 7.1-26.1-0.2-3.4-3.5-5.4-8.2-5.3-13 0-4.9 2-9.6 5.5-13 1.3-1.2 2.9-2.3 5-3.4 4.8-2.3 8.5-6.6 10-11.8s0.8-10.7-2-15.3c-6.8-11.1-11.9-23.2-15-35.8-1.3-5.2-4.7-9.6-9.5-12.2-4.7-2.5-10.3-2.9-15.4-1.1-2.3 0.8-4.2 1.4-6.2 1.2-5 0-9.6-2-13-5.5-3.5-3.5-5.3-8.2-5.3-13.1s2-9.5 5.5-13c3.4-3.4 8.1-5.3 12.9-5.3 1.6-0.2 3.8 0.4 6.1 1.2 5.1 1.7 10.6 1.3 15.3-1.3s8.1-7 9.4-12.2c3-12.5 8-24.5 14.6-35.6 2.8-4.6 3.5-10.2 1.9-15.3s-5.2-9.4-10.1-11.7c-2.2-1-3.9-2.2-5.3-3.6-3.4-3.5-5.3-8.2-5.3-13.1s2-9.6 5.5-13c3.5-3.5 8.7-5.9 13.1-5.3 4.9 0 9.5 2 13 5.5 1.2 1.2 2.3 2.9 3.3 5 2.3 4.8 6.6 8.5 11.7 10 1.8 0.8 3.6 1.1 5.4 1.1z" />
<glyph unicode="&#xe943;" glyph-name="Config_mag" data-tags="Config_mag" d="M902 275.7h-325.7c-7.3 0-13.4 5.9-13.5 13.2v31.3c0.1 7.3 6.1 13.3 13.5 13.2h325.7c7.3 0 13.3-5.9 13.4-13.2v-31.3c-0.1-7.3-6-13.3-13.4-13.2zM902 160h-325.7c-7.3 0-13.4 5.9-13.5 13.2v31.3c0.1 7.3 6.1 13.3 13.5 13.2h325.7c7.3 0 13.3-5.9 13.4-13.2v-31.2c-0.1-7.3-6-13.3-13.4-13.3zM902 44.3h-325.7c-7.3 0-13.4 5.9-13.5 13.2v31.3c0.1 7.3 6.1 13.3 13.5 13.2h325.7c7.3 0 13.3-5.9 13.4-13.2v-31.2c-0.1-7.4-6-13.2-13.4-13.3zM504 338.6v-58.7c-94.9 0-172.1 76-172.1 169.4s77.2 169.4 172.1 169.4c94.9 0 172.1-76 172.1-169.4 0-19.8-3.4-39.4-10.3-57.9h-66.2c11 17.3 16.8 37.4 16.8 57.9 0 60.9-50.5 110.5-112.5 110.5-61.9 0-112.4-49.6-112.4-110.5 0.1-61.1 50.5-110.7 112.5-110.7zM489.8 103.2c3.7 0.1 7.3-1.4 10.1-4 2.6-2.6 4.2-6.3 4.2-10v-30.8c-0.1-7.7-6.4-14-14.2-14h-56.1c-26.7-0.3-49 20.6-50.4 47.2l-8.2 59.4c-24.6 10.3-47.8 23.4-69.2 39.2l-56.2-22.6c-23.9-12.1-53.1-3.7-66.8 19.3l-70.5 119.7c-13.5 22.9-6.3 52.5 16.4 66.6l48.2 36.7c-1.671 11.805-2.625 25.441-2.625 39.3s0.954 27.495 2.8 40.846l-0.175-1.546-48.1 36.7c-22.5 14-29.8 43.4-16.5 66.3l70.4 119.9c13.7 23 42.8 31.4 66.7 19.4l56.3-22.6c21.3 15.9 44.7 29 69.2 39.2l8.2 59.3c1.4 26.7 23.6 47.6 50.3 47.3h140.7c27 0 49.1-20.7 50.3-47.2l8.2-59.4c24.6-10.2 47.9-23.4 69.3-39.2l56.3 22.5c23.9 11.9 53 3.6 66.7-19.3l70.2-119.8c13.5-22.9 6.4-52.4-16.3-66.6l-48-36.6c3.4-26.1 3.4-52.6 0-78.6l24.3-18.5h-87.9l2.1 11.1c5.9 30.8 5.9 62.7 0 93.6l-3.2 17.4 73.4 55.9-62.8 107.1-85-35.9-13.9 11.7c-24.5 20.3-52.4 36.1-82.4 46.6l-16.9 6.1-12.7 90.3h-124.1l-12.5-90.5-16.9-6.1c-30.1-10.6-58-26.4-82.5-46.7l-13.8-11.5-85.8 34.6-62.1-105.6 73.4-55.9-3.2-17.5c-2.9-15.4-4.4-31-4.5-46.7 0.1-15.7 1.6-31.4 4.4-46.8l3.1-17.5-73.3-55.9 63-107.1 84.9 35.9 14-11.6c24.5-20.3 52.4-36.1 82.4-46.6l16.9-6.1 12.5-90.5h47.9z" />
<glyph unicode="&#xe944;" glyph-name="PRJ_edit" data-tags="PRJ_edit" d="M759.509-64h-528.516c-91.216 0-165.161 73.945-165.161 165.161v0 660.645c0 91.216 73.945 165.161 165.161 165.161v0h466.415c18.243 0 33.032-14.789 33.032-33.032s-14.789-33.032-33.032-33.032v0h-466.415c-54.73 0-99.097-44.367-99.097-99.097v0-660.645c0-54.73 44.367-99.097 99.097-99.097v0h528.516c54.73 0 99.097 44.367 99.097 99.097v0 611.097c0 18.243 14.789 33.032 33.032 33.032s33.032-14.789 33.032-33.032v0-611.097c0-91.216-73.945-165.161-165.161-165.161v0zM528.283 563.613h-198.194c-18.243 0-33.032 14.789-33.032 33.032s14.789 33.032 33.032 33.032h198.194c18.243 0 33.032-14.789 33.032-33.032s-14.789-33.032-33.032-33.032v0zM660.412 365.419h-330.323c-18.243 0-33.032 14.789-33.032 33.032s14.789 33.032 33.032 33.032v0h330.323c18.243 0 33.032-14.789 33.032-33.032s-14.789-33.032-33.032-33.032v0zM660.412 167.226h-330.323c-18.243 0-33.032 14.789-33.032 33.032s14.789 33.032 33.032 33.032v0h330.323c18.243 0 33.032-14.789 33.032-33.032s-14.789-33.032-33.032-33.032v0zM652.485 621.75c-18.043 0.262-32.568 14.949-32.568 33.029 0 9.007 3.605 17.172 9.451 23.131l272.181 272.181c6.002 6.002 14.294 9.715 23.453 9.715 18.318 0 33.167-14.85 33.167-33.167 0-9.159-3.712-17.451-9.715-23.453v0l-272.846-273.507c-5.743-4.951-13.276-7.967-21.514-7.967-0.566 0-1.128 0.014-1.687 0.042l0.078-0.003z" />
<glyph unicode="&#xe945;" glyph-name="Audit" data-tags="Audit" d="M951.818 379.241v441.056l-43.361 0.62c-1.239 0-98.495 1.858-199.466 42.743-103.45 41.504-170.35 89.821-170.972 90.443 0 0-17.964 19.203-26.636 19.203-8.053 0-26.017-19.203-26.017-19.203-0.62-0.62-67.521-48.319-170.972-90.443-100.973-40.884-198.228-42.743-199.466-42.743l-43.981-0.62v-441.056c0-221.769 286.191-455.922 439.818-455.922 154.866 0 441.056 234.157 441.056 455.922zM512 11.902c-102.211 0-351.235 195.749-351.235 367.341v356.811c43.361 4.955 113.982 16.724 187.697 46.46 74.955 30.354 132.565 63.806 163.538 83.008 30.974-19.822 87.964-52.654 163.538-83.008 73.715-29.734 144.335-41.504 187.697-46.46v-356.811c0-171.591-249.643-367.341-351.235-367.341zM752.971 553.929h-58.23v56.371h-373.535v-59.469h-58.23v113.362h211.234c-4.339 11.15-9.91 22.303-14.866 32.211l63.185 10.53c4.339-12.389 9.293-26.636 13.629-42.743h216.192v-110.266zM372.621 284.462v-29.734h-58.23v286.811h167.253v46.46h59.469v-46.46h169.114v-284.951h-58.23v27.875h-110.883v-112.122h-59.469v112.122h-109.025zM372.621 487.026v-48.939h109.025v48.939h-109.025zM372.621 338.357h109.025v47.699h-109.025v-47.699zM651.999 487.026h-110.883v-48.939h110.883v48.939zM651.999 338.357v47.699h-110.883v-47.699h110.883z" />
<glyph unicode="&#xe946;" glyph-name="Audit2" data-tags="Audit2" d="M933.745 590.254c0-60.457 5.12-121.487-1.126-181.33-11.264-109.097-70.431-195.482-145.039-272.056-69.939-71.68-149.996-131.052-233.656-185.733-25.928-16.957-53.514-19.169-79.462-2.191-106.68 69.55-208.527 145.183-288.399 246.19-66.191 83.661-101.54 177.766-99.328 285.88 1.946 88.617 0 177.336 0.512 266.22 0 39.322 25.088 68.444 63.222 69.632 114.688 3.584 212.419 50.074 302.572 116.367 47.575 34.98 70.656 34.755 118.723-0.307 89.641-65.393 186.511-112.087 300.278-115.814 38.953-1.126 64.205-29.286 64.532-68.28 0.328-52.838 0-105.718 0-158.72l-2.826 0.143zM480.645 555.233c-37.274 0-72.090 0.369-106.947 0-42.045-0.553-55.767-13.619-56.32-55.050-0.362-22.079-0.568-48.131-0.568-74.23s0.206-52.15 0.617-78.152l-0.049 3.922c0.553-42.762 14.746-56.074 57.754-56.32h107.213v-48.333c-0.369-22.487 8.397-35.185 32.911-35.41 25.6-0.266 32.256 14.275 32.297 35.84v47.964c38.605 0 74.179-0.451 109.752 0 33.137 0.553 48.804 13.414 49.254 42.598 0.983 57.958 0.655 115.958 0 174.080 0 23.491-11.919 39.526-36.598 40.96-28.877 1.741-57.897 1.536-87.040 2.048h-34.406c-2.458 25.6-1.188 48.947-32.973 49.152-31.764 0.184-33.157-22.487-34.898-49.070zM480.645 670.843h-147.599c-46.080 0-62.566-16.65-63.488-63.283v-17.92c-0.963-21.094 3.748-37.745 29.348-38.707 22.528-0.819 34.857 11.018 33.997 37.581-0.717 21.299 6.349 28.365 27.75 28.201 103.219-0.86 206.438-0.86 309.637 0 21.914 0 30.351-5.12 21.729-27.996-7.127-18.801 1.741-31.027 20.48-36.68 18.719-5.632 30.044 1.331 35.82 18.698 3.994 11.141 7.086 22.61 9.216 34.243 7.578 46.49-5.837 64.102-52.675 65.7-18.084 0.615-39.339 0.965-60.675 0.965-24.498 0-48.889-0.462-73.164-1.378l3.504 0.105c-17.51-0.573-26.112 5.12-31.437 21.402-6.656 20.48-18.534 38.031-44.503 31.13-25.948-6.902-28.508-25.948-18.063-52.060h0.123zM480.952 395.653v-42.598c-27.75 0-54.845-1.29-81.92 0.451-17.408 1.126-19.251 8.561-14.684 42.148h96.604zM549.396 396.186h91.546c7.27-39.895 4.301-43.622-34.079-43.684h-57.467v43.684zM480.952 493.752v-38.482h-94.904c-7.885 37.069-5.12 40.96 30.72 40.96 17.818 0 35.84 0 53.453-0.369 3.625-0.43 7.209-1.147 10.732-2.109zM549.356 496.353h59.576c36.291 0 38.093-2.355 32.358-41.82h-92.14l0.205 41.82z" />
<glyph unicode="&#xe947;" glyph-name="myproject" data-tags="myproject" d="M916.173-29.867h-68.267c-37.717 0-68.267 30.55-68.267 68.267v68.267c0 37.717 30.55 68.266 68.267 68.266h68.267c37.717 0 68.266-30.549 68.266-68.266v-68.267c0-37.717-30.583-68.267-68.266-68.267zM916.173 106.667h-68.267v-68.267h68.267v68.267zM916.173 209.067h-68.267c-37.717 0-68.267 30.549-68.267 68.266v68.267c0 37.717 30.55 68.267 68.267 68.267h68.267c37.717 0 68.266-30.55 68.266-68.267v-68.267c0-37.717-30.583-68.266-68.266-68.266zM916.173 345.6h-68.267v-68.267h68.267v68.267zM722.193 516.267c14.78 31.061 23.313 65.706 23.313 102.4 0 131.96-106.974 238.933-238.933 238.933s-238.934-106.974-238.934-238.933c0-108.203 71.988-199.51 170.667-228.898v-69.53c-13.346 3.106-26.658 6.246-39.287 10.99-152.44-41.505-269.312-168.857-295.902-326.962h-68.984c24.030 167.56 134.895 306.722 285.457 371.063-72.977 56.15-120.217 144.111-120.217 243.337 0 169.676 137.523 307.2 307.2 307.2s307.2-137.524 307.2-307.2c0-35.977-6.383-70.383-17.75-102.4h-73.83zM608.973 413.867h68.266c37.718 0 68.267-30.55 68.267-68.267v-68.267c0-37.717-30.55-68.266-68.267-68.266h-68.266c-37.718 0-68.267 30.549-68.267 68.266v68.267c0 37.717 30.55 68.267 68.267 68.267zM608.973 277.333h68.266v68.267h-68.266v-68.267zM608.973 174.933h68.266c37.718 0 68.267-30.549 68.267-68.266v-68.267c0-37.717-30.55-68.267-68.267-68.267h-68.266c-37.718 0-68.267 30.55-68.267 68.267v68.267c0 37.717 30.55 68.266 68.267 68.266zM608.973 38.4h68.266v68.267h-68.266v-68.267z" />
<glyph unicode="&#xe948;" glyph-name="WD" data-tags="WD" d="M733.092 215.27h-442.184c-19.282 0.010-34.918-15.611-34.924-34.888s15.616-34.918 34.893-34.924c0.010 0 0.020 0 0.031 0h442.179c19.282-0.010 34.918 15.616 34.924 34.893s-15.616 34.913-34.893 34.918c-0.005 0-0.015 0-0.026 0zM440.392 721.014h58.066c30.254 0 51.548-7.89 65.306-24.3 13.169-15.524 19.85-39.583 19.85-71.491 0-31.068-7.332-54.292-22.41-70.958-15.15-16.686-37.238-24.806-67.517-24.806h-53.294v191.555zM493.686 459.633c50.365 0 90.46 16.036 119.25 47.734 26.854 29.696 40.494 69.35 40.494 117.852 0 48.942-12.268 88.202-36.311 116.48-27.269 32.604-67.185 49.126-118.666 49.126h-90.665c-20.5 0-37.212-16.712-37.212-37.233v-256.722c0-20.526 16.712-37.238 37.212-37.238h85.898zM733.092 354.908h-442.184c-19.282 0.010-34.918-15.616-34.924-34.893s15.616-34.913 34.893-34.924c0.010 0 0.020 0 0.031 0h442.179c19.282-0.010 34.918 15.616 34.924 34.893s-15.616 34.913-34.893 34.924c-0.005 0-0.015 0-0.026 0zM798.72 926.72h-576c-70.692 0-128-57.308-128-128v-704c0-70.692 57.308-128 128-128h576c70.692 0 128 57.308 128 128v704c0 70.692-57.308 128-128 128zM862.72 94.72c0-35.343-28.652-64-64-64h-576c-35.343 0-64 28.657-64 64v704c0 35.343 28.657 64 64 64h576c35.348 0 64-28.657 64-64v-704z" />
<glyph unicode="&#xe949;" glyph-name="WD_Confirm" data-tags="WD_Confirm" d="M800 928h-576c-70.692 0-128-57.308-128-128v0-704c0-70.692 57.308-128 128-128v0h576c70.692 0 128 57.308 128 128v0 704c0 70.692-57.308 128-128 128v0zM864 96c0-35.346-28.654-64-64-64v0h-576c-35.346 0-64 28.654-64 64v0 704c0 35.346 28.654 64 64 64v0h576c35.346 0 64-28.654 64-64v0-704zM288 224h448c17.673 0 32-14.327 32-32s-14.327-32-32-32v0h-448c-17.673 0-32 14.327-32 32s14.327 32 32 32v0zM288 384h448c17.673 0 32-14.327 32-32s-14.327-32-32-32v0h-448c-17.673 0-32 14.327-32 32s14.327 32 32 32v0zM297.152 662.784c5.757 5.759 13.71 9.321 22.496 9.321s16.739-3.562 22.496-9.321l160.768-160.704c4.832-5.557 7.777-12.866 7.777-20.862 0-17.602-14.27-31.872-31.872-31.872-8.013 0-15.335 2.957-20.935 7.839l0.038-0.032-160.768 160.704c-5.755 5.746-9.315 13.689-9.315 22.464s3.56 16.718 9.315 22.464v0zM758.848 758.848c12.16-12.16 12.16-32 0-44.16l-257.536-257.536c-5.473-4.804-12.694-7.735-20.599-7.735-17.284 0-31.296 14.012-31.296 31.296 0 7.905 2.931 15.126 7.766 20.634l-0.031-0.036 257.536 257.536c5.644 5.665 13.453 9.17 22.080 9.17s16.436-3.505 22.079-9.169l0.001-0.001z" />
<glyph unicode="&#xe94a;" glyph-name="WD_Count" data-tags="WD_Count" d="M800 928h-576c-70.692 0-128-57.308-128-128v0-704c0-70.692 57.308-128 128-128v0h576c70.692 0 128 57.308 128 128v0 704c0 70.692-57.308 128-128 128v0zM864 96c0-35.346-28.654-64-64-64v0h-576c-35.346 0-64 28.654-64 64v0 704c0 35.346 28.654 64 64 64v0h576c35.346 0 64-28.654 64-64v0-704zM736 224h-448c-17.673 0-32-14.327-32-32s14.327-32 32-32v0h448c17.673 0 32 14.327 32 32s-14.327 32-32 32v0zM736 384h-448c-17.673 0-32-14.327-32-32s14.327-32 32-32v0h448c17.673 0 32 14.327 32 32s-14.327 32-32 32v0zM736 768c-35.346 0-64-28.654-64-64v0c0-5.568 1.792-10.496 3.136-15.616l-83.52-83.52c-5.12 1.344-10.048 3.136-15.616 3.136-4.608 0-8.704-1.664-12.992-2.624l-53.632 53.632c0.96 4.288 2.624 8.384 2.624 12.992 0 35.346-28.654 64-64 64s-64-28.654-64-64v0c0-5.568 1.792-10.496 3.136-15.616l-83.52-83.52c-5.12 1.344-10.048 3.136-15.616 3.136-35.346 0-64-28.654-64-64s28.654-64 64-64v0c35.346 0 64 28.654 64 64v0c0 5.568-1.792 10.496-3.136 15.616l83.52 83.52c5.12-1.344 10.048-3.136 15.616-3.136 5.248 0 9.856 1.792 14.72 3.008l52.288-52.288c-1.216-4.864-3.008-9.472-3.008-14.72 0-35.346 28.654-64 64-64s64 28.654 64 64v0c0 5.568-1.792 10.496-3.136 15.616l83.52 83.52c5.12-1.344 10.048-3.136 15.616-3.136 35.346 0 64 28.654 64 64s-28.654 64-64 64v0z" />
<glyph unicode="&#xe94b;" glyph-name="WD_Edit" data-tags="WD_Edit" d="M800 928h-576c-70.692 0-128-57.308-128-128v0-704c0-70.692 57.308-128 128-128v0h576c70.692 0 128 57.308 128 128v0 704c0 70.692-57.308 128-128 128v0zM864 96c0-35.346-28.654-64-64-64v0h-576c-35.346 0-64 28.654-64 64v0 704c0 35.346 28.654 64 64 64v0h576c35.346 0 64-28.654 64-64v0-704zM288 224h448c17.673 0 32-14.327 32-32s-14.327-32-32-32v0h-448c-17.673 0-32 14.327-32 32s14.327 32 32 32v0zM288 384h448c17.673 0 32-14.327 32-32s-14.327-32-32-32v0h-448c-17.673 0-32 14.327-32 32s14.327 32 32 32v0zM670.4 766.4c5.789-5.791 9.369-13.789 9.369-22.624s-3.58-16.833-9.369-22.624l-226.304-226.304-90.496-45.248 45.312 90.496 226.24 226.24c5.794 5.808 13.805 9.401 22.656 9.401 8.819 0 16.805-3.567 22.593-9.338l-0.001 0.001z" />
<glyph unicode="&#xe94c;" glyph-name="WD_My" data-tags="WD_My" d="M800 928h-576c-70.692 0-128-57.308-128-128v0-704c0-70.692 57.308-128 128-128v0h576c70.692 0 128 57.308 128 128v0 704c0 70.692-57.308 128-128 128v0zM864 96c0-35.346-28.654-64-64-64v0h-576c-35.346 0-64 28.654-64 64v0 704c0 35.346 28.654 64 64 64v0h576c35.346 0 64-28.654 64-64v0-704zM512 544c70.696 0.018 128 57.333 128 128.032 0 70.71-57.322 128.032-128.032 128.032-0.011 0-0.022 0-0.034 0h0.002c-70.696-0.018-128-57.333-128-128.032 0-70.71 57.322-128.032 128.032-128.032 0.011 0 0.022 0 0.034 0h-0.002zM512 735.488c35.063 0 63.488-28.425 63.488-63.488s-28.425-63.488-63.488-63.488v0c-35.063 0-63.488 28.425-63.488 63.488s28.425 63.488 63.488 63.488v0zM512 416c70.692 0 128-57.308 128-128v0h64c0 106.039-85.961 192-192 192s-192-85.961-192-192v0h64c0 70.692 57.308 128 128 128v0zM736 224h-448c-17.673 0-32-14.327-32-32s14.327-32 32-32v0h448c17.673 0 32 14.327 32 32s-14.327 32-32 32v0z" />
<glyph unicode="&#xe94d;" glyph-name="cancle" data-tags="cancle" d="M511.256 957.447c-282.108 0-510.725-228.678-510.725-510.724s228.617-510.725 510.725-510.725 510.724 228.676 510.724 510.725c0 282.046-228.616 510.724-510.724 510.724zM562.628 353.582v124.438c-61.784 0-219.138-1.434-219.138-170.761 0-88.658 60.097-162.625 140.027-179.738-128.368 18.204-227.62 132.139-227.62 271.478 0 258.824 264.155 261.003 306.734 261.003v105.924l203.99-206.952-203.992-205.393z" />
<glyph unicode="&#xe94e;" glyph-name="delete_solid_circle" data-tags="delete_solid_circle" d="M513.43-59.262c-280.204 0-507.389 227.208-507.389 507.41 0 280.224 227.185 507.409 507.389 507.409 280.248 0 507.391-227.185 507.391-507.409 0-280.203-227.142-507.41-507.391-507.41zM746.107 596.097c9.54 9.539 9.54 25.022 0 34.54l-51.822 51.801c-9.535 9.559-24.978 9.559-34.518 0l-146.79-146.772-146.792 146.772c-9.536 9.559-24.978 9.559-34.518 0l-51.822-51.801c-9.538-9.518-9.538-25.001 0-34.54l146.793-146.771-146.793-146.79c-9.538-9.519-9.538-25.004 0-34.541l51.822-51.8c9.54-9.538 24.982-9.538 34.518 0l146.792 146.79 146.79-146.79c9.54-9.538 24.983-9.538 34.518 0l51.822 51.8c9.54 9.536 9.54 25.022 0 34.541l-146.79 146.789 146.79 146.772z" />
<glyph unicode="&#xe94f;" glyph-name="save" data-tags="save" d="M0 960v-877.708c0-80.46 65.83-146.29 146.285-146.29h877.713v1023.998h-1023.998zM804.568 9.142h-292.569v146.29h-146.285v-146.29h-146.285v292.57h585.139v-292.57zM877.708 521.146c0-36.575-36.57-73.145-73.14-73.145h-585.139c-36.575 0-73.145 36.57-73.145 73.145v365.709h731.423v-365.709z" />
<glyph unicode="&#xe950;" glyph-name="split_window" data-tags="split_window" d="M978.401 959.201h-430.899c-14.7 0-27.699-6.999-35.599-17.7-7.9 10.598-20.803 17.603-35.502 17.603h-430.802c-24.003 0-43.5-18.601-43.5-41.6v-939.203c0-22.902 19.502-41.6 43.5-41.6h430.899c14.7 0 27.699 6.999 35.599 17.7 7.9-10.598 20.803-17.603 35.502-17.603h430.899c24.003 0 43.5 18.601 43.5 41.6v939.3c-0.097 22.902-19.599 41.503-43.597 41.503zM476.298 11.5c0-10.199-8.602-18.499-19.302-18.499h-376.893c-10.701 0-19.302 8.3-19.302 18.499v829.302c0 10.199 8.602 18.499 19.302 18.499h376.899c10.701 0 19.302-8.3 19.302-18.499v-829.302zM963.098 11.699c0-10.199-8.602-18.499-19.302-18.499h-376.899c-10.701 0-19.302 8.3-19.302 18.499v829.302c0 10.199 8.602 18.499 19.302 18.499h376.899c10.701 0 19.302-8.3 19.302-18.499v-829.302z" />
<glyph unicode="&#xe951;" glyph-name="window" data-tags="window" d="M981.002 960h-938.004c-22.897 0-41.498-18.601-41.498-41.498v-940.099c0-22.902 18.601-41.498 41.498-41.498h937.999c22.902 0 41.498 18.601 41.498 41.498v940.099c0.005 22.897-18.596 41.498-41.492 41.498zM966.4 11.602c0-10.199-8.202-18.401-18.401-18.401h-872.1c-10.199 0-18.401 8.202-18.401 18.401v830.397c0 10.199 8.202 18.401 18.401 18.401h872.1c10.199 0 18.401-8.202 18.401-18.401v-830.397z" />
<glyph unicode="&#xe952;" glyph-name="inbox" data-tags="inbox" d="M352 528c0-13.248 5.376-25.248 14.064-33.936l112-112c8.688-8.688 20.688-14.064 33.936-14.064s25.248 5.376 33.936 14.064l112 112c9.041 8.741 14.654 20.978 14.654 34.526 0 26.51-21.49 48-48 48-13.548 0-25.785-5.613-34.513-14.64l-30.077-30.077v300.128c0 26.51-21.49 48-48 48s-48-21.49-48-48v0-300.112l-30.064 30.064c-8.686 8.683-20.684 14.054-33.936 14.054-26.51 0-48-21.49-48-48 0-0.002 0-0.004 0-0.006v0zM1020.8 369.216l-127.648 335.056c-6.864 18.657-24.482 31.725-45.152 31.728h-240v-96h206.912l91.44-240h-154.352c-26.51 0-48-21.49-48-48v0-48h-384v48c0 26.51-21.49 48-48 48v0h-154.352l91.424 240h206.928v96h-240c-20.8 0-38.496-13.232-45.168-31.712l-127.632-335.072c-2.064-5.344-3.2-11.152-3.2-17.216v-304c0-26.51 21.49-48 48-48v0h928c26.51 0 48 21.49 48 48v0 304c0 6.064-1.12 11.872-3.2 17.216z" />
<glyph unicode="&#xe953;" glyph-name="outbox" data-tags="outbox" d="M400 672c0.017 0 0.036 0 0.056 0 13.236 0 25.217 5.376 33.879 14.063l30.065 30.049v-300.112c0-26.51 21.49-48 48-48s48 21.49 48 48v0 300.112l30.064-30.064c8.657-8.519 20.544-13.78 33.66-13.78 26.51 0 48 21.49 48 48 0 13.119-5.263 25.009-13.794 33.674l-111.994 111.994c-8.66 8.688-20.639 14.064-33.873 14.064-0.022 0-0.044 0-0.066 0h0.003c-0.017 0-0.036 0-0.056 0-13.236 0-25.217-5.376-33.879-14.063l-112.001-112.001c-8.683-8.686-14.054-20.684-14.054-33.936 0-26.506 21.484-47.994 47.989-48h0.001zM1020.8 369.216l-127.648 335.056c-6.864 18.657-24.482 31.725-45.152 31.728h-129.632c0.896-5.232 1.632-10.528 1.632-16 0-33.44-17.12-62.816-43.056-80h137.968l91.44-240h-154.352c-26.51 0-48-21.49-48-48v0-48h-384v48c0 26.51-21.49 48-48 48v0h-154.352l91.424 240h137.968c-26.087 17.404-43.040 46.714-43.040 79.984 0 0.006 0 0.011 0 0.017v-0.001c0 5.472 0.736 10.768 1.616 16h-129.616c-20.8 0-38.496-13.232-45.168-31.712l-127.632-335.072c-2.064-5.344-3.2-11.152-3.2-17.216v-304c0-26.51 21.49-48 48-48v0h928c26.51 0 48 21.49 48 48v0 304c0 6.064-1.12 11.872-3.2 17.216z" />
<glyph unicode="&#xe954;" glyph-name="transfer" data-tags="transfer" d="M748.76 133.255l157.373 141.689c9.607 8.675 22.4 13.982 36.433 13.982 30.076 0 54.457-24.381 54.457-54.457 0-16.043-6.938-30.466-17.976-40.432l-0.048-0.042-244.79-220.429c-9.969-10.709-24.146-17.387-39.882-17.387-30.063 0-54.434 24.371-54.434 54.434 0 0.012 0 0.023 0 0.035v-0.002l-0.162 894.814c0 30.063 24.371 54.434 54.434 54.434s54.434-24.371 54.434-54.434v0-772.312zM274.755 782.794l-156.888-141.204c-9.611-8.69-22.414-14.007-36.46-14.007-30.075 0-54.455 24.38-54.455 54.455 0 16.029 6.926 30.441 17.948 40.406l0.047 0.042 247.215 222.639c4.259 3.861 9.19 7.083 14.58 9.456l0.349 0.137c6.545 2.993 14.198 4.738 22.259 4.738 30.18 0 54.647-24.465 54.649-54.645v0-894.76c0.017-0.511 0.027-1.113 0.027-1.716 0-30.182-24.467-54.649-54.649-54.649s-54.649 24.467-54.649 54.649c0 0.603 0.010 1.205 0.029 1.803l-0.002-0.087v772.851z" />
<glyph unicode="&#xe955;" glyph-name="HomePage2" data-tags="HomePage2" d="M717.722 32.051h-411.443c-51.302 0-93.082 40.448-93.082 90.112v319.795c0 20.378 17.101 36.966 37.99 36.966s37.888-16.589 37.99-37.069v-316.006c0-10.854 9.421-19.763 21.094-19.763h403.558c11.571 0 21.094 8.909 21.094 19.763v316.211c0.102 20.378 17.203 36.966 37.99 36.966s37.786-16.589 37.99-36.966v-319.898c-0.102-49.766-41.882-90.112-93.184-90.112zM135.168 434.586c-8.806 0-16.896 3.277-23.347 9.626-8.294 7.885-12.902 18.534-12.902 29.901s4.608 22.016 12.902 30.003l350.925 337.613c2.048 2.458 6.042 6.758 12.698 11.162 10.752 7.27 23.552 11.162 36.557 11.059 12.39 0 24.371-3.686 35.533-10.854 5.12-3.277 9.83-7.168 12.8-10.445l351.846-338.534c8.294-7.987 12.902-18.637 12.902-30.003s-4.608-22.016-12.902-30.003c-13.414-12.902-32.973-12.186-56.832 3.072l-0.922 0.614-0.819 0.819-340.685 326.451-318.976-301.056-23.552-22.733c-11.366-10.854-23.552-16.691-35.226-16.691z" />
<glyph unicode="&#xe956;" glyph-name="solid_homepage" data-tags="solid_homepage" d="M787.724 7.694h-115.61c-17.661 0-32.003 14.331-32.003 31.992v0.376c0 0.060 0.013 0.121 0.013 0.182-0.063 34.103-13.363 66.179-37.481 90.347-24.172 24.222-56.284 37.561-90.422 37.561-70.467 0-127.82-57.352-127.926-127.884 0.001-0.057-0.011-0.114-0.011-0.171v-0.411c0-17.66-14.289-31.992-31.951-31.992h-108.241c-35.379 0-65.494 29.889-65.494 65.249v334.864h-96.372c-12.94 0-24.526 7.782-29.472 19.739-4.947 11.955-2.161 25.706 6.995 34.85l407.651 406.956c12.050 12.053 28.097 18.698 45.145 18.698 17.065 0 33.125-6.658 45.216-18.747l406.543-406.929c9.14-9.148 11.871-22.894 6.921-34.838-4.952-11.947-16.766-19.727-29.697-19.727h-91.641v-334.864c0-16.583-5.743-32.417-16.607-44.571-11.918-13.332-27.94-20.678-45.557-20.678z" />
<glyph unicode="&#xe957;" glyph-name="file2" data-tags="file2" d="M236.864 896c-60.128 0-108.864-50.144-108.864-112v-672c0-61.856 48.736-112 108.864-112h544.32c60.096 0 114.816 50.144 114.816 112v586.88l-186.144 197.12h-472.992zM672 832l160-160h-133.856c-14.439 0-26.144 11.705-26.144 26.144v0 133.856zM778.656 64h-533.312c-29.44 0-53.344 24.576-53.344 54.848v658.304c0 30.272 23.872 54.848 53.344 54.848h373.312v-164.576c0-30.304 23.904-54.848 53.344-54.848h160v-493.728c0-30.272-23.872-54.848-53.344-54.848zM551.296 544h-270.592c-14.528 1.696-25.28 15.456-24.576 31.36-1.408 16.352 9.568 30.912 24.576 32.64h270.592c15.040-1.728 25.984-16.288 24.576-32.64 0.736-15.904-10.048-29.664-24.576-31.36zM743.616 384h-463.232c-14.208 3.072-24.384 16.448-24.384 32s10.176 28.928 24.352 32h463.328c14.176-3.072 24.352-16.448 24.352-32s-10.176-28.928-24.352-32zM743.616 224h-463.232c-14.208 3.072-24.384 16.448-24.384 32s10.176 28.928 24.352 32h463.328c14.176-3.072 24.352-16.448 24.352-32s-10.176-28.928-24.352-32z" />
<glyph unicode="&#xe958;" glyph-name="task1" data-tags="task" d="M636.9 528.9c13.9 15.8 37.5 16.9 52.8 2.4 15.2-14.4 16.3-38.9 2.4-54.7l-205-232.2c-7.1-8-17.1-12.6-27.6-12.6h-0.2c-10.6 0.1-20.6 4.8-27.6 12.9l-100 116.1c-13.7 15.9-12.4 40.4 3 54.6s39 12.8 52.7-3.1l72.5-84.2 177 200.8zM661.4 815.2l-298.9 0.4 0.1-0.4v-76.6l298.9-0.4-0.1 77zM175.9 80.1l672.5 0.3-0.3 696.8-112-0.3v-38.3c0.1-42.8-33.2-77.6-74.5-77.8h-299c-41.1 0-74.5 34.9-74.5 77.8v38.3h-112.5l0.3-696.8zM847.9 854.3c41.2 0.1 74.7-34.4 74.9-77.1v-697.1c-0.1-42.5-33.3-77-74.4-77.1h-672.8c-41 0-74.4 34.6-74.4 77.1v697.1c0 42.5 33.3 77 74.3 77.1h122.8c13 23.1 36.7 38.7 64.1 38.7h299c27.4 0 51.2-15.7 64.1-38.7h122.4z" />
<glyph unicode="&#xe959;" glyph-name="message2" data-tags="message2" d="M520.028 225.357c-29.573 0-58.122 2.964-85.565 7.987l-119.153-61.583 1.597 100.936c-91.341 47.206-151.214 125.292-151.214 213.75 0 144.174 158.628 261.084 354.34 261.084 195.676 0 354.34-116.905 354.34-261.084-0.005-144.21-158.669-261.089-354.345-261.089zM520.028 831.785c-242.345 0-438.82-152.381-438.82-340.285 0-107.412 64.312-203.054 164.557-265.426v-172.088l192.225 103.368c26.619-3.901 53.975-6.139 82.038-6.139 242.33 0 438.82 152.351 438.82 340.28 0 187.909-196.49 340.291-438.82 340.291v0z" />
<glyph unicode="&#xe95a;" glyph-name="project2" data-tags="project2" d="M822.159 0h-137.851c-75.812 0-137.846 62.029-137.846 137.846v275.697h275.697c75.812 0 137.846-62.029 137.846-137.851v-137.846c0-75.817-62.034-137.846-137.846-137.846v0zM608.886 351.114v-197.222c0-41.841 35.86-77.696 77.696-77.696h119.532c41.83 0 77.696 35.855 77.696 77.696v119.526c0 41.836-35.866 77.696-77.696 77.696h-197.228zM339.697 0h-137.846c-75.817 0-137.846 62.029-137.846 137.846v137.846c0 75.822 62.029 137.851 137.846 137.851h275.692v-275.697c0-75.817-62.029-137.846-137.846-137.846zM211.005 344.223c-41.83 0-77.691-35.855-77.691-77.696v-119.526c0-41.836 35.86-77.696 77.691-77.696h119.532c41.836 0 77.691 35.86 77.691 77.696v197.222h-197.222zM822.159 482.463h-275.697v275.692c0 75.817 62.029 137.846 137.846 137.846h137.851c75.812 0 137.846-62.029 137.846-137.846v-137.846c0-75.817-62.034-137.846-137.846-137.846v0zM621.691 557.686h188.739c40.028 0 74.348 34.319 74.348 74.348v114.391c0 40.033-34.319 74.348-74.348 74.348h-114.391c-40.033 0-74.348-34.319-74.348-74.348v-188.739zM477.542 482.463h-275.692c-75.817 0-137.846 62.029-137.846 137.846v137.846c0 75.817 62.029 137.846 137.846 137.846h137.846c75.817 0 137.846-62.029 137.846-137.846v-275.692zM213.755 820.378c-39.916 0-74.127-34.217-74.127-74.127v-114.043c0-39.916 34.212-74.127 74.127-74.127h188.165v188.17c0 39.91-34.212 74.127-74.127 74.127h-114.038z" />
</font>
</defs>
</svg>
