<?xml version="1.0" standalone="no"?>
<!DOCTYPE svg PUBLIC "-//W3C//DTD SVG 1.1//EN" "http://www.w3.org/Graphics/SVG/1.1/DTD/svg11.dtd" >
<svg xmlns="http://www.w3.org/2000/svg">
<metadata>
<json>
<![CDATA[
{
	"fontFamily": "mobox-org",
	"majorVersion": 2,
	"minorVersion": 3,
	"version": "Version 2.3",
	"fontId": "mobox-org",
	"psName": "mobox-org",
	"subFamily": "Regular",
	"fullName": "mobox-org",
	"description": "Font generated by IcoMoon."
}
]]>
</json>
</metadata>
<defs>
<font id="mobox-org" horiz-adv-x="1024">
<font-face units-per-em="1024" ascent="960" descent="-64" />
<missing-glyph horiz-adv-x="1024" />
<glyph unicode="&#x20;" horiz-adv-x="512" d="" />
<glyph unicode="&#xe900;" glyph-name="address-book2" data-tags="address-book2" d="M197.867 235.699h-142.064c-15.679 0.032-28.381 12.734-28.413 28.41v0.003c0 15.627 12.786 28.413 28.413 28.413h142.064c15.627 0 28.413-12.786 28.413-28.413s-12.786-28.413-28.413-28.413zM197.867 408.279h-142.064c-15.679 0.032-28.381 12.734-28.413 28.41v0.003c0 15.627 12.786 28.413 28.413 28.413h142.064c15.627 0 28.413-12.786 28.413-28.413s-12.786-28.413-28.413-28.413zM197.867 580.915h-142.064c-15.679 0.032-28.381 12.734-28.413 28.41v0.003c0 15.627 12.786 28.413 28.413 28.413h142.064c15.627 0 28.413-12.786 28.413-28.413s-12.786-28.413-28.413-28.413zM785.389 200.24c-27.641 56.112-72.757 100.089-128.138 125.585l-1.652 0.682c25.625 16.836 46.674 38.519 62.289 63.902l0.503 0.879c17.88 29.142 28.47 64.43 28.47 102.191 0 0.053 0 0.107 0 0.16v-0.008c-0.097 110.652-89.772 200.328-200.415 200.424h-0.009c-110.652-0.097-200.328-89.772-200.424-200.415v-0.009c0-36.255 9.888-71.657 28.583-102.514 15.684-25.913 37.448-48.245 63.077-64.838-56.829-26.214-101.777-70.115-128.641-124.54l-0.695-1.556c-1.778-3.604-2.818-7.846-2.818-12.331 0-15.679 12.71-28.39 28.39-28.39 11.194 0 20.875 6.479 25.497 15.891l0.074 0.167c34.563 70.103 105.417 117.539 187.376 117.8h0.035c81.953-0.301 152.764-47.697 186.808-116.521l0.547-1.222c4.697-9.579 14.377-16.058 25.572-16.058 15.679 0 28.39 12.71 28.39 28.39 0 4.485-1.040 8.727-2.892 12.498l0.074-0.167zM546.436 635.809c78.452-0.097 142.024-63.669 142.121-142.112v-0.009c-0.097-78.452-63.669-142.024-142.112-142.121h-0.009c-78.452 0.097-142.024 63.669-142.121 142.112v0.009c0.097 78.452 63.669 142.024 142.112 142.121h0.009zM882.106 960h-681.398c-62.679 0-113.651-50.973-113.651-113.651v-112.060c0.003-15.69 12.723-28.408 28.413-28.408s28.41 12.718 28.413 28.407v0 112.060c0 31.384 25.442 56.826 56.826 56.826v0h681.398c31.384 0 56.826-25.442 56.826-56.826v0-796.697c0-31.384-25.442-56.826-56.826-56.826v0h-681.398c-31.384 0-56.826 25.442-56.826 56.826v0 109.844c-0.003 15.69-12.723 28.408-28.413 28.408s-28.41-12.718-28.413-28.407v0-109.844c0-62.679 50.973-113.651 113.651-113.651h681.398c62.679 0 113.651 50.973 113.651 113.651v796.697c0 62.622-51.030 113.651-113.651 113.651z" />
<glyph unicode="&#xe901;" glyph-name="add-user" data-tags="add-user" d="M1008.159 136.97h-110.177v111.227c0 8.837-7.137 16.026-15.908 16.026h-41.242c-8.658 0-15.775-7.178-15.775-16.026v-111.227h-110.188c-8.786 0-15.836-7.173-15.836-16.020v-41.682c0-8.842 7.050-16.020 15.836-16.020h110.188v-111.283c0-8.776 7.122-15.964 15.775-15.964h41.242c8.776 0 15.908 7.178 15.908 15.964v111.35h110.177c8.714 0 15.841 7.117 15.841 15.944v41.692c0 8.847-7.127 16.020-15.841 16.020v0 0 0zM769.751 340.577c-38.129 36.987-82.432 65.198-130.355 83.625 60.349 44.093 99.789 116.823 99.789 198.886 0 134.262-105.549 243.395-235.284 243.395-129.741 0-235.249-109.133-235.249-243.395 0-82.14 39.485-154.875 99.871-198.963-147.835-57.021-253.43-204.57-253.43-377.124 0-19.174 15.017-34.719 33.521-34.719 18.468 0 33.521 15.544 33.521 34.719 0 180.618 139.776 328.166 313.324 332.815 2.796-0.092 5.632-0.164 8.428-0.164s5.637 0.087 8.392 0.164c78.981-2.094 153.846-33.812 211.635-89.882 13.496-13.087 34.76-12.344 47.391 1.603 12.646 13.993 11.981 35.912-1.551 49.039zM511.104 449.172c-2.391 0.036-4.777 0.082-7.199 0.082-2.345 0-4.69-0.036-7.071-0.082-89.513 3.86-161.126 80.374-161.126 173.916 0 96.005 75.443 174.039 168.197 174.039s168.238-78.034 168.238-174.039c-0.005-93.46-71.613-170.010-161.039-173.916z" />
<glyph unicode="&#xe902;" glyph-name="company" data-tags="company" d="M230.4 652.8h153.6c28.277 0 51.2 22.923 51.2 51.2s-22.923 51.2-51.2 51.2v0h-153.6c-28.277 0-51.2-22.923-51.2-51.2s22.923-51.2 51.2-51.2v0zM230.4 448h153.6c28.277 0 51.2 22.923 51.2 51.2s-22.923 51.2-51.2 51.2h-153.6c-28.277 0-51.2-22.923-51.2-51.2s22.923-51.2 51.2-51.2v0zM921.6 652.8h-307.2v204.8c0 56.554-45.846 102.4-102.4 102.4h-409.6c-56.554 0-102.4-45.846-102.4-102.4v0-819.2c0-56.554 45.846-102.4 102.4-102.4v0h819.2c56.554 0 102.4 45.846 102.4 102.4v0 512c0 56.554-45.846 102.4-102.4 102.4v0zM512 38.4h-409.6v819.2h409.6zM921.6 550.4v-111.104h-307.2v111.104zM614.4 38.4v298.496h307.2v-298.496z" />
<glyph unicode="&#xe903;" glyph-name="del-user1" data-tags="del-user1" d="M470.66 444.43c-113.11 0-205.13 92.020-205.13 205.13s92.020 205.12 205.13 205.12 205.12-92.010 205.12-205.12-92.020-205.13-205.12-205.13zM470.66 800.1c-83.010 0-150.55-67.53-150.55-150.55s67.53-150.55 150.55-150.55 150.54 67.54 150.54 150.55-67.53 150.55-150.54 150.55zM793.72 41.33h-646.13c-28.12 0-54.17 12.48-69.67 33.4-13.31 17.95-17.31 40.21-10.99 61.080 52.16 171.96 218.18 292.060 403.72 292.060 185.53 0 351.55-120.1 403.73-292.060 6.33-20.88 2.32-43.14-10.99-61.090-15.51-20.91-41.56-33.39-69.67-33.39zM470.66 373.29c-161.7 0-306.25-104.17-351.49-253.33-1.33-4.35-0.45-8.63 2.59-12.74 4.060-5.48 12.98-11.33 25.83-11.33h646.13c12.86 0 21.77 5.85 25.83 11.33 3.050 4.1 3.92 8.39 2.6 12.74-45.25 149.16-189.78 253.33-351.49 253.33zM932.71 386.23c-6.98 0-13.96 2.66-19.29 7.99l-153.3 153.3c-10.66 10.65-10.66 27.93 0 38.59s27.93 10.66 38.59 0l153.3-153.3c10.66-10.65 10.66-27.93 0-38.59-5.33-5.33-12.32-7.99-19.3-7.99zM779.41 386.23c-6.98 0-13.96 2.66-19.29 7.99-10.66 10.65-10.66 27.93 0 38.59l153.3 153.3c10.66 10.66 27.93 10.66 38.59 0 10.66-10.65 10.66-27.93 0-38.59l-153.3-153.3c-4.929-4.936-11.742-7.99-19.269-7.99-0.011 0-0.022 0-0.033 0h0.002z" />
<glyph unicode="&#xe904;" glyph-name="department" data-tags="department" d="M859.8 47h-204.8c-22 0-40 18-40 40v332.6h-206v-332.8c0-22-18-40-40-40h-204.8c-22 0-40 18-40 40v497c0 13.6 7 26.4 18.4 33.6l347.8 223.2c13.2 8.4 30 8.4 43.2 0l347.8-223.2c11.4-7.4 18.4-20 18.4-33.6v-496.8c0-22.2-18-40-40-40zM671 103h172.8v472l-331.8 212.8-331.8-212.8v-472h172.8v332.6c0 22 18 40 40 40h238c22 0 40-18 40-40v-332.6z" />
<glyph unicode="&#xe905;" glyph-name="depart-user" data-tags="depart-user" d="M868.073 215.273c25.713 25.126 41.658 60.154 41.658 98.905 0 76.348-61.892 138.24-138.24 138.24s-138.24-61.892-138.24-138.24c0-38.752 15.945-73.779 41.632-98.879l0.027-0.026c-60.885-21.25-103.785-78.181-103.785-145.131 0-2.897 0.080-5.775 0.239-8.633l-0.018 0.397c0-58.182 86.575-58.182 206.429-58.182h71.447c50.967 0 85.876 3.025 105.891 23.273 9.193 8.898 14.9 21.349 14.9 35.134 0 0.248-0.002 0.496-0.006 0.744v-0.037c0.698 76.8-35.142 129.164-101.935 152.436zM771.258 394.007c44.215 0 80.058-35.843 80.058-80.058s-35.843-80.058-80.058-80.058c-44.215 0-80.058 35.843-80.058 80.058v0c-0.003 0.277-0.005 0.604-0.005 0.931 0 44.264 35.818 80.161 80.051 80.291h0.012zM817.804 60.742h-39.564c-46.545 0-124.044 0-148.015 8.611 4.655 84.48 78.662 102.633 140.8 102.633 122.647 0 139.636-59.811 141.033-106.822-18.345-2.924-39.496-4.595-61.038-4.595-11.61 0-23.107 0.485-34.471 1.437l1.486-0.1zM796.625 691.898h-141.731v100.073c-0.132 58.686-47.671 106.224-106.344 106.356h-319.78c-58.686-0.132-106.224-47.671-106.356-106.344v-720.071h-40.029c-19.28 0-34.909-15.629-34.909-34.909s15.629-34.909 34.909-34.909h392.611c19.28 0 34.909 15.629 34.909 34.909s-15.629 34.909-34.909 34.909h-282.764v720.058c0 20.179 16.359 36.538 36.538 36.538v0h319.767c20.127-0.131 36.407-16.412 36.538-36.526v-292.086c0.003-19.277 15.631-34.903 34.909-34.903s34.906 15.626 34.909 34.903v0 122.182h141.731c20.179 0 36.538-16.359 36.538-36.538v0c0-19.28 15.629-34.909 34.909-34.909s34.909 15.629 34.909 34.909v0c-0.132 58.686-47.671 106.224-106.344 106.356h-0.013zM484.538 596.247h-192c-19.28 0-34.909 15.629-34.909 34.909s15.629 34.909 34.909 34.909h192c19.28 0 34.909-15.629 34.909-34.909s-15.629-34.909-34.909-34.909v0zM484.538 429.382h-192c-19.28 0-34.909 15.629-34.909 34.909s15.629 34.909 34.909 34.909h192c19.28 0 34.909-15.629 34.909-34.909s-15.629-34.909-34.909-34.909v0zM484.538 261.818h-192c-19.28 0-34.909 15.629-34.909 34.909s15.629 34.909 34.909 34.909h192c19.28 0 34.909-15.629 34.909-34.909s-15.629-34.909-34.909-34.909v0z" />
<glyph unicode="&#xe906;" glyph-name="manger" data-tags="manger" d="M901.111 880.415h-515.646c7.247-17.181 11.819-35.718 13.501-55.055h502.168c30.344 0 55.055-24.7 55.055-55.055v-389.393c0-30.344-24.7-55.055-55.055-55.055h-438.544v-55.055h438.522c60.553 0 110.133 49.546 110.133 110.11v389.393c0 60.575-49.58 110.11-110.133 110.11zM297.616 623.235h-163.020c-61.332 0-111.487-50.167-111.487-111.465v-212.77c0-50.844 34.543-93.922 81.324-107.175v-238.553h55.055l0.169 289.33h-25.061c-31.112 0-56.432 25.275-56.432 56.398v212.77c0 31.112 25.332 56.421 56.432 56.421h163.009c31.112 0 56.421-25.309 56.421-56.421v-212.77c0-10.318-2.98-19.868-7.846-28.177-9.787-16.798-27.804-28.222-48.575-28.222h-25.084l0.124-289.319h55.055v238.779c37.749 10.736 67.574 40.662 77.61 78.739 2.371 9.042 3.782 18.457 3.782 28.199v212.77c-0.011 61.298-50.156 111.465-111.476 111.465zM216.089 679.87c71.582 0 129.595 58.024 129.595 129.606 0 71.559-58.013 129.595-129.595 129.595-71.57 0-129.583-58.035-129.583-129.595-0.011-71.582 58.013-129.606 129.583-129.606zM216.089 884.004c41.091 0 74.539-33.437 74.539-74.539s-33.437-74.539-74.539-74.539-74.539 33.437-74.539 74.539 33.448 74.539 74.539 74.539zM493.746 401.152c-4.245 0-8.433 1.174-12.113 3.42-10.95 6.706-14.416 21.053-7.733 32.015l96.462 157.986c4.199 6.875 11.526 11.052 19.597 11.153 0.011 0 0.045 0 0.045 0 8.139 0 15.669-4.199 19.834-10.713l44.771-69.809 58.893 61.986c4.448 4.662 10.431 7.247 16.888 7.247 5.588 0 10.984-2.009 15.172-5.644l36.090-31.112 72.146 186.998c3.466 8.907 12.169 14.901 21.765 14.901 2.833 0 5.633-0.531 8.331-1.547 11.989-4.64 17.96-18.13 13.355-30.107l-84.033-217.838c-2.709-7.067-8.715-12.372-16.086-14.224-1.817-0.463-3.748-0.7-5.633-0.7-5.599 0-10.973 2.021-15.195 5.667l-44.297 38.212-64.052-67.405c-4.414-4.628-10.544-7.247-16.831-7.247-0.722 0-1.468 0.023-2.213 0.102-7.213 0.677-13.513 4.549-17.43 10.611l-40.707 63.476-77.057-126.23c-4.324-7.010-11.763-11.198-19.97-11.198z" />
<glyph unicode="&#xe907;" glyph-name="meeting" data-tags="meeting" horiz-adv-x="1160" d="M954.132 959.729h-747.735c-113.828 0-206.397-92.749-206.397-206.715v-278.528c0-14.479 11.735-26.214 26.214-26.214s26.214 11.735 26.214 26.214v278.528c0 85.033 69.059 154.214 153.969 154.214h747.781c84.89 0 153.948-69.181 153.948-154.214v-278.528c0.471-14.469 12.58-25.82 27.049-25.354 13.809 0.445 24.909 11.54 25.349 25.354v278.528c0.005 113.976-92.544 206.715-206.392 206.715zM943.145 229.504c-9.774-10.685-9.068-27.274 1.597-37.084 40.771-37.55 63.99-90.429 64.051-145.853 0-14.484 11.74-26.225 26.22-26.225s26.22 11.74 26.22 26.225v0c0 69.934-29.558 137.216-81.060 184.535-10.67 9.779-27.244 9.068-37.028-1.597v0zM355.886 248.96c7.183 4.398 12.396 11.802 12.836 20.838 0.712 14.459-10.44 26.757-24.899 27.464-0.015 0-0.031 0-0.046 0.005-61.389 2.842-109.67 53.489-109.568 114.944 0 50.954 34.135 96.42 83.011 110.643 13.901 4.045 21.893 18.591 17.853 32.492 0 0.010-0.005 0.020-0.005 0.031-4.024 13.901-18.55 21.908-32.451 17.889 0 0-0.005 0-0.005 0-71.137-20.685-120.832-86.876-120.832-161.029 0-55.706 27.075-105.17 69.043-135.66-92.165-39.188-151.88-129.792-151.552-229.949 0-14.474 11.735-26.209 26.214-26.209s26.214 11.735 26.214 26.209c-0.425 106.593 84.076 194.156 190.612 197.524 5.187 0.108 9.61 2.104 13.568 4.818v-0.010zM857.892 573.225c-13.88 4.050-28.421-3.922-32.471-17.807-0.005-0.026-0.015-0.051-0.020-0.077-4.040-13.901 3.942-28.447 17.828-32.507 48.891-14.228 83.011-59.709 83.011-110.659 0.102-61.445-48.169-112.087-109.548-114.934-14.495-0.338-25.969-12.36-25.631-26.854s12.36-25.964 26.86-25.626h1.224c89.4 4.152 159.698 77.921 159.555 167.414 0.026 74.179-49.659 140.411-120.812 161.065v-0.015zM580.265 654.070c-115.154 0-208.788-93.798-208.788-209.116 0-74.614 39.352-140.052 98.207-177.070-119.424-45-204.8-160.266-204.8-295.414 0-14.515 11.715-26.245 26.214-26.245 14.474 0 26.23 11.756 26.23 26.245 0 145.198 117.98 263.368 262.963 263.368 115.149 0 208.824 93.809 208.824 209.157-0.020 115.308-93.737 209.075-208.85 209.075zM580.265 288.323c-86.252 0-156.385 70.262-156.385 156.631 0 86.385 70.134 156.605 156.385 156.605 86.246 0 156.38-70.262 156.38-156.605 0.005-86.369-70.129-156.631-156.38-156.631zM756.378 203.674c-9.779-10.691-9.062-27.274 1.603-37.084 54.257-49.976 85.151-120.356 85.222-194.12 0-14.515 11.72-26.245 26.22-26.245 14.469 0 26.209 11.756 26.209 26.245-0.097 88.468-37.156 172.872-102.221 232.817-10.67 9.774-27.238 9.057-37.028-1.597v-0.015z" />
<glyph unicode="&#xe908;" glyph-name="meeting2" data-tags="meeting2" d="M978.944 111.411c-8.607 39.788-41.626 66.381-82.714 66.642-11.238 0.077-22.502 0-33.766 0 46.387 19.753 76.477 65.321 76.442 115.732 0.108 69.407-55.885 125.824-124.974 125.901-68.946 0.108-125.266-56.346-125.389-125.645-0.118-50.493 30.029-96.143 76.513-115.866-12.083 0.026-24.141 0-36.224-0.282-38.989-0.896-71.24-26.772-79.616-64.748-2.637-12.006-1.997-22.932-2.534-35.379-0.328-7.757-0.077-21.811-0.077-21.811h-7.194c0 17.388 0.102 24.96-0.026 38.118-0.461 49.331-36.654 84.71-85.652 84.838-10.47 0.026-20.941-0.108-31.391-0.128 45.629 20.055 75.090 65.178 75.090 115.021 0.020 69.35-56.12 125.824-125.112 125.901-69.069 0.051-125.056-56.166-125.21-125.696-0.189-50.243 29.645-95.749 75.802-115.61-10.701-0.077-21.402-0.026-32.128-0.123-9.83-0.082-20.122-1.797-29.414-4.972-34.381-11.699-55.834-42.772-56.269-79.713-0.154-13.568-0.026-27.192-0.026-40.376l0.845-12.078c-100.122 15.13-177.203 101.632-177.203 206.080v34.765c0 113.792 91.443 206.464 204.595 208.486 222.536-0.128 415.027 0.179 639.693 0.179h7.624c0.108 0 0.21 2.662 0.21 3.763 0 40.576 0.077 80.973-0.082 121.549-0.020 5.74-0.64 11.464-1.838 17.075-8.602 39.782-41.631 66.381-82.714 66.637-11.233 0.077-22.508 0-33.766 0 46.387 19.753 76.483 65.316 76.442 115.732 0.102 69.402-55.885 125.824-124.979 125.901-68.941 0.108-125.261-56.34-125.389-125.64-0.113-50.499 30.029-96.148 76.518-115.866-12.078 0.026-24.141 0-36.219-0.282-38.989-0.896-71.25-26.778-79.621-64.742-2.642-12.006-2.002-22.963-2.534-35.379-0.333-7.757-0.077-21.811-0.077-21.811h-7.194c0 17.382 0.108 24.934-0.026 38.118-0.461 49.331-36.659 84.71-85.658 84.838-10.47 0.026-20.941-0.128-31.38-0.128 45.619 20.055 75.080 65.183 75.080 115.021 0.031 69.35-56.11 125.824-125.107 125.901-69.069 0.051-125.056-56.166-125.21-125.67-0.189-50.248 29.645-95.754 75.802-115.61-10.701-0.077-21.402-0.051-32.128-0.128-9.83-0.077-20.122-1.792-29.414-4.966-34.381-11.699-55.834-42.778-56.269-79.718-0.154-13.568-0.026-27.187-0.026-40.371l1.152-16.486c-138.675-15.411-246.938-133.453-246.938-276.403v-34.765c0-141.67 106.342-258.739 243.226-275.84l-0.154-2.355v-0.179c243.026-0.154 438.426 0.179 670.694 0.179h7.629c0.102 0 0.205 2.668 0.205 3.763 0 40.571 0.077 80.968-0.077 121.569-0.026 5.734-0.64 11.453-1.843 17.055z" />
<glyph unicode="&#xe909;" glyph-name="meeting-room" data-tags="meeting-room" d="M183.9 379.699c10.501 0 19.098 8.602 19.098 19.098v432.604h432.599c10.501 0 19.098 8.602 19.098 19.098s-8.602 19.098-19.098 19.098h-451.697c-10.501 0-19.098-8.602-19.098-19.098v-451.702c0.097-10.598 8.596-19.098 19.098-19.098zM719.8 351.002h-38.999v67.2c0 10.501-8.602 19.098-19.098 19.098s-19.098-8.602-19.098-19.098v-86.2c0-10.501 8.602-19.098 19.098-19.098h40.499l24.499-297.4c0.799-9.999 9.201-17.5 19-17.5 0.502 0 1.101 0 1.603 0.102 10.501 0.901 18.299 10.102 17.398 20.598l-25.999 314.9c-0.701 9.795-8.904 17.398-18.903 17.398zM937.201 632.1c-2.202 1.9-55.301 47.498-144 47.498s-141.798-45.599-144-47.498c-0.901-0.799-1.7-1.603-2.401-2.601l-59.203-75.203-121.298 117.002c-7.598 7.301-19.702 7.101-26.998-0.502s-7.101-19.702 0.502-26.998l136.602-131.702c3.599-3.4 8.3-5.299 13.302-5.299 0.399 0 0.901 0 1.3 0.102 5.402 0.399 10.301 3 13.701 7.199l70.999 90.102c7.398 5.898 49.9 37.1 117.699 37.1 57.498 0 97.398-22.999 112.399-33.198v-257.101h-38.999c-9.902 0-18.202-7.598-19-17.5l-25.999-314.9c-0.901-10.501 6.999-19.702 17.398-20.598 0.502-0.102 1.101-0.102 1.603-0.102 9.8 0 18.202 7.501 19 17.5l24.499 297.4h40.499c10.501 0 19.098 8.602 19.098 19.098v285.901c-0.102 5.499-2.504 10.701-6.702 14.3zM784.799 711.501c51.4 0 93.199 41.8 93.199 93.199s-41.8 93.302-93.199 93.302-93.199-41.8-93.199-93.199 41.8-93.302 93.199-93.302zM784.799 859.802c30.403 0 54.999-24.699 54.999-54.999 0-30.403-24.699-55.101-54.999-55.101-30.403 0-54.999 24.699-54.999 55.101 0 30.295 24.699 54.999 54.999 54.999zM554.501 346.199h-455.199c-10.501 0-19.098-8.602-19.098-19.098s8.602-19.098 19.098-19.098h455.199c10.501 0 19.098 8.602 19.098 19.098 0 10.598-8.499 19.098-19.098 19.098z" />
<glyph unicode="&#xe90a;" glyph-name="member" data-tags="member" d="M837.604 682.866c-0.002 0.172-0.022 0.339-0.060 0.499l0.003-0.015c-0.199 0.654 14.848-44.857-0.597 1.934-0.5 1.606-0.838 2.578-1.193 3.543l0.197-0.613c-14.962 42.496-39.225 58.965-57.003 62.322-22.841 4.352-47.588-5.774-47.588-35.499 0-4.437 0.853-9.273 2.418-14.251l-0.142 0.028c0.085-0.256 0.228-0.512 0.37-0.768 1.621-5.063 3.954-10.268 6.77-15.445 13.767-34.020 21.333-71.225 21.333-110.165 0-76.117-28.956-145.522-76.459-197.803 102.030-60.274 177.209-184.149 203.065-303.673h92.615c-21.163 119.979-82.916 248.633-170.524 325.632 26.569 50.944 42.155 111.257 42.155 175.211 0 0.222 0 0.445-0.001 0.667v-0.034c0 0.174 0 0.379 0 0.584 0 38.429-5.612 75.547-16.060 110.58l0.7-2.734zM429.056 322.987c138.088 0.008 250.027 111.952 250.027 250.041 0 138.094-111.947 250.041-250.041 250.041-0.005 0-0.010 0-0.015 0h0.001c-138.088-0.008-250.027-111.952-250.027-250.041 0-138.094 111.947-250.041 250.041-250.041 0.005 0 0.010 0 0.015 0h-0.001zM587.207 576.341c0-89.182-72.297-161.479-161.479-161.479s-161.479 72.297-161.479 161.479v0c0 89.182 72.297 161.479 161.479 161.479s161.479-72.297 161.479-161.479v0zM769.991 72.96c-30.663 180.878-180.708 340.935-352.484 340.935-191.744 0-343.95-160.057-374.841-340.935h91.307c29.355 130.304 141.625 250.027 283.534 250.027 122.738 0 232.249-119.694 261.205-250.027h91.278z" />
<glyph unicode="&#xe90b;" glyph-name="my-collection" data-tags="my-collection" d="M795.3 333.2c24.9 0 31.1 6.2 31.1 30.5 0 14.1-10.2 25.6-20.7 33.6l-2 1.9c-34.7 26.3-70.9 51.3-112.5 66.8 52.9 44.4 86.6 110.3 86.6 184 0 133.8-110.9 242.3-247.7 242.3-136.7 0-247.6-108.5-247.6-242.3 0-73.7 33.7-139.4 86.6-184-168.8-63.4-289-223.2-289.1-411v-0.1c0.1-24.3 11-42.4 35.7-42.4 25 0 26.7 17.5 26.8 41.8 0 194.4 119.4 378 387.8 373.7 81.4-1.3 176.9-32 235.1-79.4 15.8-12.9 19.3-13.1 26.4-15l3.5-0.4zM530.3 475.1c-127.9 0.3-189.4 89.9-189.4 174.9s70.3 184.6 189.7 184.6c138.7 0 189.7-100.5 189.7-185.6-0.2-85.2-80.9-177.1-190-173.9zM612.9 216.7c0-24.4 20.1-36 45-36h240.2c24.9 0 45 11.7 45 36 0 24.4-20.1 33.6-45 33.6h-240.2c-24.9 0-45-9.3-45-33.6zM898.1 73.2h-240.2c-24.9 0-45-8.6-45-32.9 0-24.4 20.1-33.2 45-33.2h240.2c24.9 0 45 8.9 45 33.2 0 24.4-20.2 32.9-45 32.9z" />
<glyph unicode="&#xe90c;" glyph-name="person" data-tags="person" d="M907.995 160.475c-22.769 53.1-53.865 98.426-92.145 136.543l-0.015 0.015c-38.156 38.254-83.474 69.344-133.775 91.089l-2.783 1.071-1.317 0.512c71.415 52.093 117.293 135.486 117.293 229.594 0 156.493-126.863 283.355-283.355 283.355s-283.355-126.863-283.355-283.355c0-94.196 45.963-177.657 116.685-229.178l0.81-0.562-1.317-0.512c-51.2-21.65-97.207-52.59-136.631-92.16-75.633-75.559-123.218-179.182-125.797-293.913l-0.009-0.487c-0.002-0.065-0.003-0.142-0.003-0.219 0-5.049 4.093-9.143 9.143-9.143 0.001 0 0.002 0 0.003 0h68.608c0.001 0 0.002 0 0.003 0 4.972 0 9.018 3.969 9.14 8.912v0.011c2.22 91.434 40.128 173.604 100.266 233.459l0.013 0.013c61.72 62.122 147.201 100.573 241.662 100.573 0.309 0 0.619 0 0.928-0.001h-0.048c91.648 0 177.737-35.694 242.542-100.498 60.151-59.868 98.058-142.038 100.271-233.056l0.008-0.416c0.082-4.946 4.111-8.925 9.069-8.925 0.052 0 0.104 0 0.155 0.001h68.527c5.12 0 9.289 4.242 9.143 9.362-1.124 57.297-13.39 111.437-34.708 160.749l1.062-2.76zM512 422.839c-0.132 0-0.287-0.001-0.443-0.001-54.145 0-103.144 22.035-138.518 57.627l-0.010 0.010c-35.558 35.377-57.564 84.346-57.564 138.456 0 0.181 0 0.363 0.001 0.544v-0.028c0 52.443 20.48 101.815 57.563 138.971 35.37 35.515 84.31 57.491 138.383 57.491 0.207 0 0.414 0 0.62-0.001h-0.032c52.443 0 101.815-20.48 138.971-57.563 35.558-35.377 57.564-84.346 57.564-138.456 0-0.181 0-0.363-0.001-0.544v0.028c0-0.153 0.001-0.334 0.001-0.516 0-54.109-22.006-103.079-57.556-138.447l-0.008-0.008c-35.384-35.602-84.383-57.637-138.528-57.637-0.156 0-0.312 0-0.467 0.001h0.024z" />
<glyph unicode="&#xe90d;" glyph-name="select-user" data-tags="select-user" d="M128.521-30.165c14.203 0 23.672 9.469 23.672 23.672 0 213.044 172.802 385.846 385.846 385.846 106.522 0 208.31-42.609 281.692-120.725 9.469-9.469 23.672-9.469 33.14 0s9.469 23.672 0 33.14c-54.445 56.812-123.092 99.421-196.474 118.358 87.585 44.976 149.131 137.295 149.131 243.817 0 151.498-123.092 274.59-274.59 274.59s-274.59-123.092-274.59-274.59c0-108.889 61.546-201.208 153.865-246.184-177.537-54.445-307.73-220.145-307.73-414.252 2.367-11.836 11.836-23.672 26.039-23.672zM306.057 653.943c0 125.459 101.788 227.247 227.247 227.247s227.247-101.788 227.247-227.247-101.788-227.247-227.247-227.247-227.247 101.788-227.247 227.247zM822.097 85.825l-82.85 82.85c-9.469 9.469-23.672 9.469-33.14 0s-9.469-23.672 0-33.14l99.421-99.421c4.734-4.734 11.836-7.101 16.57-7.101s11.836 2.367 16.57 7.101l187.005 187.005c9.469 9.469 9.469 23.672 0 33.14s-23.672 9.469-33.14 0l-170.435-170.435z" />
<glyph unicode="&#xe90e;" glyph-name="user" data-tags="user" d="M512 789.333c-70.692 0-128-57.308-128-128s57.308-128 128-128v0c70.692 0 128 57.308 128 128s-57.308 128-128 128v0zM512 874.667c117.823-0.012 213.333-95.53 213.333-213.355 0-117.833-95.522-213.355-213.355-213.355-0.007 0-0.015 0-0.022 0h0.001c-117.823 0.012-213.333 95.53-213.333 213.355 0 117.833 95.522 213.355 213.355 213.355 0.007 0 0.015 0 0.022 0h-0.001zM682.667 362.667c117.821 0 213.333-95.513 213.333-213.333v-85.333c-0.004-23.561-19.105-42.66-42.667-42.66s-42.663 19.099-42.667 42.66v0 85.333c0 70.692-57.308 128-128 128v0h-341.333c-70.692 0-128-57.308-128-128v0-85.333c-0.004-23.561-19.105-42.66-42.667-42.66s-42.663 19.099-42.667 42.66v0 85.333c0 117.821 95.513 213.333 213.333 213.333v0h341.333z" />
<glyph unicode="&#xe90f;" glyph-name="user-group" data-tags="user-group" d="M512 704c70.6 0 128-71.7 128-159.8 0-17.7 14.3-32 32-32s32 14.3 32 32c0 58.7-19.3 114.2-54.3 156.1-14 16.8-29.9 30.7-47.1 41.4 23.1 23.2 37.3 55.1 37.3 90.3 0.1 70.6-57.3 128-127.9 128s-128-57.4-128-128c0-35.2 14.3-67.1 37.3-90.3-17.2-10.7-33.1-24.6-47.1-41.4-35-42-54.3-97.4-54.3-156.1 0-17.7 14.3-32 32-32s32 14.3 32 32c0.1 88.1 57.5 159.8 128.1 159.8zM448 832c0 35.3 28.7 64 64 64s64-28.7 64-64-28.7-64-64-64-64 28.7-64 64zM282.7 165.5c23.1 23.2 37.3 55.1 37.3 90.3 0 70.6-57.4 128-128 128s-128-57.4-128-128c0-35.2 14.3-67.1 37.3-90.3-17.2-10.7-33.1-24.6-47.1-41.4-34.9-41.9-54.2-97.4-54.2-156.1 0-17.7 14.3-32 32-32s32 14.3 32 32c0 88.1 57.4 159.8 128 159.8s128-71.7 128-159.8c0-17.7 14.3-32 32-32s32 14.3 32 32c0 58.7-19.3 114.2-54.3 156.1-14 16.8-29.8 30.7-47 41.4zM128 255.8c0 35.3 28.7 64 64 64s64-28.7 64-64-28.7-64-64-64-64 28.7-64 64zM969.7 124.1c-14 16.8-29.9 30.7-47.1 41.4 23.1 23.2 37.3 55.1 37.3 90.3 0 70.6-57.4 128-128 128s-128-57.4-128-128c0-35.2 14.3-67.1 37.3-90.3-17.2-10.7-33.1-24.6-47.1-41.4-35-42-54.3-97.4-54.3-156.1 0-17.7 14.3-32 32-32s32 14.3 32 32c0 88.1 57.4 159.8 128 159.8s128.2-71.7 128.2-159.8c0-17.7 14.3-32 32-32s32 14.3 32 32c0 58.7-19.3 114.2-54.3 156.1zM768 255.8c0 35.3 28.7 64 64 64s64-28.7 64-64-28.7-64-64-64-64 28.7-64 64zM544 396.5v82.8c0 17.7-14.3 32-32 32s-32-14.3-32-32v-82.8l-86.1-85.2c-12.6-12.4-12.7-32.7-0.2-45.3 6.3-6.3 14.5-9.5 22.7-9.5 8.1 0 16.3 3.1 22.5 9.3l73.1 72.3 73.1-72.3c6.2-6.2 14.4-9.3 22.5-9.3 8.2 0 16.5 3.2 22.7 9.5 12.4 12.6 12.3 32.8-0.2 45.3l-86.1 85.2z" />
<glyph unicode="&#xe910;" glyph-name="user-group-info" data-tags="user-group-info" d="M447.302 130.095h-294.865c-0.069-0.001-0.151-0.001-0.233-0.001-18.637 0-33.745 15.108-33.745 33.745 0 0 0 0.001 0 0.001v0 325.818h475.462c19.28 0 34.909 15.629 34.909 34.909s-15.629 34.909-34.909 34.909h-475.462v56.32c0 18.637 15.108 33.745 33.745 33.745h555.985c18.713-0.131 33.847-15.265 33.978-33.966v-38.179c0-19.28 15.629-34.909 34.909-34.909s34.909 15.629 34.909 34.909v0 38.167c0 57.325-46.471 103.796-103.796 103.796v0h-440.785v31.185c0 18.637 15.108 33.745 33.745 33.745v0h555.985c0 0 0.001 0 0.001 0 18.684 0 33.845-15.080 33.977-33.733v-199.926c0-19.28 15.629-34.909 34.909-34.909s34.909 15.629 34.909 34.909v0 199.913c0 57.325-46.471 103.796-103.796 103.796v0h-555.985c-57.225-0.132-103.564-46.553-103.564-103.796 0 0 0 0 0 0v0-30.72h-45.382c-57.143-0.132-103.432-46.42-103.564-103.551v-452.435c0.132-57.225 46.553-103.564 103.796-103.564 0 0 0 0 0 0h294.865c19.277 0.003 34.903 15.631 34.903 34.909s-15.626 34.906-34.903 34.909v0zM872.029 254.371c24.228 24.218 39.215 57.681 39.215 94.644 0 73.906-59.912 133.818-133.818 133.818s-133.818-59.912-133.818-133.818c0-36.963 14.986-70.425 39.214-94.643l0.001-0.001c-57.988-21.092-98.655-75.732-98.655-139.87 0-2.783 0.077-5.548 0.228-8.293l-0.017 0.382c0-57.018 83.782-57.018 199.447-57.018h69.818c49.105 0 83.084 3.025 102.633 23.273 8.913 8.82 14.432 21.055 14.432 34.579 0 0.198-0.001 0.396-0.004 0.593v-0.030c-1.164 72.145-35.142 122.647-98.676 146.385zM777.076 424.727c41.901 0 75.869-33.968 75.869-75.869s-33.968-75.869-75.869-75.869c-41.901 0-75.869 33.968-75.869 75.869v0c0 41.901 33.968 75.869 75.869 75.869v0zM821.76 106.822h-37.935c-8.985-0.401-19.522-0.629-30.113-0.629-39.071 0-77.417 3.106-114.805 9.084l4.118-0.543c4.887 79.593 74.938 96.582 134.051 96.582 116.364 0 133.12-56.087 134.284-100.538-19.335-3.15-41.621-4.949-64.328-4.949-8.891 0-17.717 0.276-26.471 0.82l1.199-0.060z" />
<glyph unicode="&#xe911;" glyph-name="user-info" data-tags="user-info" horiz-adv-x="1025" d="M865.081 821.838h-704.025c-54 0-97.875-45.619-97.875-101.7v-546.469c0-56.137 43.931-101.756 97.875-101.756h704.081c54.112 0 98.044 45.619 98.044 101.756v546.469c0 56.081-43.987 101.7-98.1 101.7zM911.6 173.669c0.004-0.237 0.007-0.517 0.007-0.797 0-25.886-20.717-46.933-46.476-47.465l-0.050-0.001h-704.025c-25.537 0-46.406 21.656-46.406 48.206v546.525c0 26.662 20.813 48.15 46.406 48.15h704.081c25.65 0 46.519-21.544 46.519-48.15v-546.469zM828.912 624.512h-288.619c-14.27-0.188-25.766-11.801-25.766-26.098 0-0.159 0.001-0.318 0.004-0.476v0.024c0-14.85 11.419-26.775 25.763-26.775h288.619c14.23 0.28 25.657 11.881 25.657 26.151 0 0.219-0.003 0.438-0.008 0.656l0.001-0.032c0.002 0.115 0.003 0.25 0.003 0.385 0 7.078-2.787 13.505-7.324 18.243l0.009-0.010c-4.668 4.787-11.139 7.797-18.313 7.931h-0.025zM828.912 488.106h-288.619c-14.265-0.156-25.769-11.755-25.769-26.042 0-0.198 0.002-0.396 0.007-0.593l-0.001 0.029c-0.006-0.201-0.009-0.439-0.009-0.676 0-14.288 11.505-25.888 25.757-26.042h288.634c14.247 0.375 25.653 12.014 25.653 26.316 0 0.141-0.001 0.283-0.003 0.424v-0.021c0.003 0.135 0.004 0.295 0.004 0.455 0 14.269-11.426 25.87-25.628 26.151h-0.026zM828.912 357.887h-243.506c-14.296-0.314-25.766-11.977-25.766-26.319 0-0.141 0.001-0.281 0.003-0.421v0.021c-0.006-0.201-0.009-0.439-0.009-0.676 0-14.288 11.505-25.888 25.757-26.042h243.521c14.063 0 25.65 11.981 25.65 26.719s-11.475 26.719-25.65 26.719zM431.056 416.444c29.645 25.937 48.265 63.841 48.265 106.093 0 0.275-0.001 0.549-0.002 0.824v-0.042c0 76.613-60.019 138.938-133.875 138.938s-133.931-62.269-133.931-138.938c0-42.919 18.9-81.394 48.375-106.875-52.144-24.694-93.319-71.831-111.375-132.131-0.755-2.377-1.191-5.111-1.191-7.947 0-11.752 7.477-21.757 17.933-25.519l0.189-0.059c2.243-0.704 4.822-1.109 7.495-1.109 11.719 0 21.619 7.791 24.802 18.476l0.047 0.183c20.25 68.175 79.706 113.962 147.713 113.962s127.463-45.731 147.825-113.906c3.19-10.816 12.952-18.608 24.561-18.787h0.021c2.739 0.028 5.367 0.458 7.842 1.233l-0.192-0.052c10.691 3.716 18.227 13.705 18.227 25.455 0 2.882-0.453 5.658-1.293 8.261l0.053-0.19c-18.112 60.3-59.287 107.438-111.487 132.131zM345.5 437.819c-45.45 0-82.294 38.362-82.294 85.556 0 47.137 36.9 85.5 82.294 85.5 45.45 0 82.406-38.363 82.406-85.5s-37.012-85.556-82.406-85.556z" />
<glyph unicode="&#xe912;" glyph-name="user-info2" data-tags="user-info2" d="M599.505 435.433c0 19.28-15.629 34.909-34.909 34.909v0h-287.185c-19.28 0-34.909-15.629-34.909-34.909s15.629-34.909 34.909-34.909h287.185c19.28 0 34.909 15.629 34.909 34.909v0zM496.64 304.175h-219.229c-19.277-0.003-34.903-15.631-34.903-34.909s15.626-34.906 34.903-34.909h219.229c19.277 0.003 34.903 15.631 34.903 34.909s-15.626 34.906-34.903 34.909v0zM475.695 85.178h-330.007c-17.179 0.389-30.956 14.407-30.956 31.643 0 0.166 0.001 0.332 0.004 0.498v-0.025 667.695c-0.002 0.141-0.004 0.307-0.004 0.473 0 17.236 13.777 31.254 30.92 31.643l0.036 0.001h436.131v-89.833c0-57.197 46.367-103.564 103.564-103.564v0h116.364v-64.233c0-0.002 0-0.004 0-0.006 0-19.28 15.629-34.909 34.909-34.909s34.909 15.629 34.909 34.909c0 0.002 0 0.004 0 0.006v0 134.051c-0.252 9.111-4.028 17.293-10.007 23.273v0l-157.324 159.884c-6.319 6.327-15.053 10.241-24.7 10.241-0.071 0-0.142 0-0.212-0.001h-533.633c-55.739-0.395-100.772-45.672-100.772-101.467 0-0.164 0-0.329 0.001-0.493v0.025-667.695c-0.001-0.139-0.001-0.303-0.001-0.468 0-55.795 45.033-101.071 100.734-101.466h330.045c19.28 0 34.909 15.629 34.909 34.909s-15.629 34.909-34.909 34.909v0zM785.92 693.993h-101.004c-18.275 0.258-33.022 15.005-33.28 33.255v89.858h13.731zM875.52 221.556c24.37 24.312 39.447 57.93 39.447 95.069 0 74.163-60.121 134.284-134.284 134.284s-134.284-60.121-134.284-134.284c0-37.139 15.077-70.757 39.445-95.067l0.003-0.003c-58.126-21.1-98.899-75.849-98.899-140.121 0-2.858 0.081-5.698 0.24-8.517l-0.018 0.391c0-57.018 83.782-57.018 199.913-57.018h69.818c49.338 0 83.316 2.793 102.865 23.273 8.911 8.677 14.439 20.79 14.439 34.194 0 0.333-0.003 0.666-0.010 0.998l0.001-0.050c-0.931 72.378-35.142 123.113-98.676 146.851zM780.335 392.378c42.158 0 76.334-34.176 76.334-76.335s-34.176-76.335-76.335-76.335c-42.158 0-76.335 34.176-76.335 76.335 0 0.082 0 0.164 0 0.245v-0.013c0.132 42.058 34.258 76.102 76.334 76.102 0 0 0 0 0 0v0zM825.251 73.309h-38.167c-9.005-0.398-19.566-0.624-30.179-0.624-39.293 0-77.86 3.104-115.471 9.080l4.152-0.544c4.887 79.825 75.171 97.047 134.749 97.047 116.364 0 133.585-56.32 134.749-101.004-18.848-3.094-40.57-4.862-62.706-4.862-9.545 0-19.013 0.329-28.394 0.975l1.267-0.070z" />
<glyph unicode="&#xe913;" glyph-name="users" data-tags="users" horiz-adv-x="1025" d="M0.176 81.766v-0.587c0-0.025 0-0.056 0-0.086 0-21.555 17.065-39.124 38.422-39.933l0.074-0.002c21.527 0.891 38.641 18.559 38.641 40.223 0 0.527-0.010 1.052-0.030 1.575l0.002-0.075c0 155.507 98.586 283.316 237.486 298.808 0 0 0.352 0 0.469 0.352 23.768 2.926 41.989 22.991 41.989 47.312 0 23.926-17.634 43.733-40.614 47.134l-0.26 0.032c-69.303 13.732-121.824 78.986-121.824 157.502 0 70.418 42.192 130.098 100.757 151.517 3.159 0.834 5.796 1.737 8.349 2.798l-0.427-0.157c18.95 3.902 32.997 20.448 32.997 40.275 0 0.427-0.007 0.852-0.019 1.275l0.001-0.062c0.019 0.464 0.030 1.008 0.030 1.555 0 21.913-17.331 39.778-39.034 40.634l-0.078 0.002c-1.174 0-2.289 0-3.462-0.352-0.394 0.138-0.848 0.218-1.32 0.218s-0.927-0.080-1.349-0.227l0.029 0.009c-100.933-25.292-176.457-122.997-176.457-239.774-0.012-0.913-0.019-1.991-0.019-3.070 0-82.584 39.729-155.889 101.116-201.846l0.657-0.471c-126.636-54.457-216.302-187.782-216.302-343.818 0.020-0.28 0.083-0.539 0.182-0.78l-0.006 0.017zM463.353 419.539c-151.575-65.196-258.611-224.693-258.963-411.126 0-10.563 0.587-20.832 1.232-31.16 0-21.066 17.077-38.143 38.143-38.143s38.143 17.077 38.143 38.143v0 2.582c-0.822 9.389-1.35 18.778-1.35 28.402 0 199.519 149.932 361.011 334.781 361.011s334.781-161.727 334.781-361.011c0-9.272-0.704-18.367-1.35-27.404 0-1.232-0.352-2.523-0.352-3.756-0.037-0.632-0.059-1.372-0.059-2.117 0-21.098 17.104-38.202 38.202-38.202s38.202 17.104 38.202 38.202c0 0.745-0.021 1.484-0.063 2.218l0.005-0.102c0.704 10.328 1.232 20.656 1.232 31.16 0 186.609-107.036 346.223-258.201 411.36 73.235 52.814 121.472 143.008 121.472 245.291 0 162.96-122.528 295.112-273.575 295.112s-273.81-132.21-273.81-295.17c0-102.224 48.237-192.301 121.472-245.291zM418.93 664.83c0 116.836 88.023 211.901 196.467 211.901s196.702-95.065 196.702-211.901-88.023-211.783-196.702-211.783-196.467 94.771-196.467 211.783z" />
<glyph unicode="&#xe914;" glyph-name="user-manage" data-tags="user-manage" d="M512 896c0.001 0 0.001 0 0.002 0 75.111 0 136-60.889 136-136 0-36.187-14.133-69.073-37.181-93.44l0.060 0.064c75.356-34.623 128.983-105.066 139.339-188.915l0.117-1.165c60.955-14.313 105.642-68.222 105.642-132.569 0-36.175-14.124-69.052-37.159-93.416l0.060 0.064c83.905-38.542 141.12-121.849 141.12-218.519 0-0.037 0-0.074 0-0.111v0.006c0-17.673-14.327-32-32-32s-32 14.327-32 32v0c0 97.202-78.798 176-176 176s-176-78.798-176-176v0c0-0.003 0-0.007 0-0.011 0-15.637-11.216-28.654-26.041-31.446l-0.199-0.031-5.76-0.512c-17.673 0-32 14.327-32 32v0c0 97.202-78.798 176-176 176s-176-78.798-176-176v0c0-17.673-14.327-32-32-32s-32 14.327-32 32v0c0 97.28 57.92 181.12 141.12 218.752-22.925 24.298-37.017 57.148-37.017 93.29 0 64.375 44.707 118.309 104.766 132.447l0.922 0.183c10.46 84.967 64.002 155.389 137.777 189.464l1.487 0.616c-22.916 24.287-37.001 57.123-37.001 93.248 0 75.091 60.858 135.969 135.942 136h0.003zM512 624c-0.003 0-0.006 0-0.009 0-87.441 0-159.988-63.766-173.677-147.334l-0.138-1.018c59.041-15.697 101.835-68.67 101.835-131.639 0-36.192-14.137-69.082-37.19-93.449l0.060 0.063c46.324-21.31 83.706-55.396 108.505-97.744l0.615-1.136c25.406 43.527 62.788 77.654 107.629 98.39l1.491 0.618c-22.909 24.295-36.99 57.134-36.99 93.261 0 62.906 42.689 115.841 100.678 131.417l0.952 0.218c-13.798 84.581-86.332 148.352-173.76 148.352v0zM304.128 416.064l-0.128-0.064c-0.044 0-0.096 0-0.149 0-39.765 0-72-32.235-72-72s32.235-72 72-72c39.765 0 72 32.235 72 72 0 36.939-27.817 67.38-63.645 71.52l-0.334 0.031-7.744 0.512zM720.448 416h-0.448l-0.448 0.064-7.424-0.512c-36.161-4.174-63.975-34.614-63.975-71.551 0-39.765 32.235-72 72-72s72 32.235 72 72c0 39.661-32.068 71.832-71.689 71.999h-0.016zM512 832c-39.765 0-72-32.235-72-72s32.235-72 72-72v0c39.765 0 72 32.235 72 72s-32.235 72-72 72v0z" />
<glyph unicode="&#xe915;" glyph-name="org_struct" data-tags="org_struct" d="M1024 163v-131c0-53-43-96-96-96h-96c-53 0-96 43-96 96v131c0 26.5 10.7 50.5 28.1 67.9s41.4 28.1 67.9 28.1c8.8 0 16 7.2 16 16v77c0 17.7-14.3 32-32 32h-256c-8.8 0-16-7.2-16-16v-94c0-8.3 6.7-15 15-15h1c53 0 96-43 96-96v-131c0-53-43-96-96-96h-96c-53 0-96 43-96 96v131c0 53 43 96 96 96h1c8.3 0 15 6.7 15 15v94c0 8.8-7.2 16-16 16h-256c-17.7 0-32-14.3-32-32v-77c0-4.4 1.8-8.4 4.7-11.3s6.9-4.7 11.3-4.7c53 0 96-43 96-96v-131c0-53-43-96-96-96h-96c-53 0-96 43-96 96v131c0 26.5 10.7 50.5 28.1 67.9s41.4 28.1 67.9 28.1c8.8 0 16 7.2 16 16v77c0 53 43 96 96 96h256c8.8 0 16 7.2 16 16v96c0 8.8-7.2 16-16 16h-48c-53 0-96 43-96 96v192c0 53 43 96 96 96h192c53 0 96-43 96-96v-192c0-53-43-96-96-96h-48c-8.8 0-16-7.2-16-16v-96c0-8.8 7.2-16 16-16h256c53 0 96-43 96-96v-77c0-8.8 7.2-16 16-16 53 0 96-43 96-96z" />
</font>
</defs>
</svg>
