<?xml version="1.0" standalone="no"?>
<!DOCTYPE svg PUBLIC "-//W3C//DTD SVG 1.1//EN" "http://www.w3.org/Graphics/SVG/1.1/DTD/svg11.dtd" >
<svg xmlns="http://www.w3.org/2000/svg">
<metadata>Generated by IcoMoon</metadata>
<defs>
<font id="moboxicon" horiz-adv-x="1024">
<font-face units-per-em="1024" ascent="960" descent="-64" />
<missing-glyph horiz-adv-x="1024" />
<glyph unicode="&#x20;" horiz-adv-x="512" d="" />
<glyph unicode="&#xe800;" glyph-name="mobox-log" d="M956.892 706.022v-0.051l-444.211-256.348-443.996 256.466-0.108-512.799 142.874-90.696 0.901 338.053 300.436-179.446 312.125 199.496 0.067-343.711 131.912 76.119 0.102 512.865zM523.884 110.275l-196.076 115.594v-175.058l190.326-109.686 201.856 114.504v180.035zM733.051 686.341l120.899 76.252-322.924 186.532-344.233-190.111 137.667-72.673 208.031 117.77z" />
<glyph unicode="&#xe801;" glyph-name="user-male" d="M913.603 220.477l-231.188 86.318-169.692-245.98-169.682 245.98-231.158-86.318c-46.94-17.495-77.358-71.578-68.009-120.812l22.938-120.504c4.019-21.074 24.668-38.18 46.131-38.18h799.544c21.489 0 42.143 17.106 46.162 38.18l22.938 120.504c9.375 49.229-21.1 103.316-67.983 120.812zM511.099 951.496c-135.941 0-246.144-81.004-246.144-249.216 0-67.287 21.965-140.513 51.825-204.216-2.232 15.432-7.875 31.882-7.875 49.7 0 70.067 18.115 133.192 48.113 181.642 12.001 19.41 21.437 19.548 37.509 3.471 23.107-23.148 70.272-53.443 116.572-53.443 46.285 0 93.445 30.28 116.613 53.443 16.082 16.077 25.508 15.933 37.509-3.471 29.972-48.451 48.056-111.575 48.056-181.642 0-17.818-5.637-34.268-7.869-49.7 29.865 63.698 51.855 136.929 51.855 204.216-0.005 168.218-110.244 249.216-246.164 249.216z" />
<glyph unicode="&#xe802;" glyph-name="user-user" d="M509.44 945.137c-137.615 0-249.272-115.625-249.272-258.063 0-142.561 111.657-258.191 249.272-258.191 137.656 0 249.216 115.625 249.216 258.191 0 142.438-111.56 258.063-249.216 258.063zM509.44 511.724c-93.44 0-169.283 78.515-169.283 175.334 0 96.712 75.843 175.242 169.283 175.242 93.507 0 169.236-78.531 169.236-175.242 0-96.814-75.73-175.334-169.236-175.334zM335.104 321.080l174.3-205.65 172.933 205.65c133.135-67.087 215.9-205.476 263.537-370.668h73.001c-36.065 221.706-176.297 400.696-359.511 464.916l-149.924-177.208-149.975 177.208c-183.322-64.22-323.405-243.21-359.465-464.916h83.333c31.334 161.398 118.753 299.72 251.771 370.668z" />
<glyph unicode="&#xe803;" glyph-name="user-women" d="M932.767 221.117c-0.783 0.788-1.577 1.464-2.478 2.115-62.106 53.965-134.707 96.128-214.287 123.223-6.82 2.319-12.902-1.741-13.978-8.899-14.541-94.003-95.693-166.036-193.807-166.036-98.074 0-179.231 72.028-193.772 166.006-1.126 7.132-7.163 11.249-14.003 8.883-79.611-27.11-152.207-69.238-214.252-123.182-2.401-2.115-4.767-4.193-7.137-6.313-0.394-0.251-0.645-0.532-0.645-0.65-17.388-17.521-28.037-41.595-28.037-68.419 0-34.714 18.432-65.49 45.937-82.627 4.342-2.074 8.561-4.342 12.652-6.82 0.394-0.138 0.645-0.389 1.044-0.532 31.473-18.406 58.45-56.709 78.848-86.717 0.532-0.783 1.183-1.69 1.828-2.601 14.377-19.727 37.652-32.512 63.862-32.512h507.622c27.223 0 51.348 13.804 65.439 34.744 21.018 30.915 48.973 69.97 81.715 88.509 3.333 1.326 6.313 3.159 9.364 5.018 28.283 16.963 47.406 48.128 47.406 83.523-0.005 29.21-12.923 55.419-33.321 73.288zM412.513 412.744c-53.233 43.459-88.909 121.825-88.909 211.584 0 42.711 8.054 82.903 22.231 117.985 50.386-85.765 146.934-143.877 257.951-143.877 30.93 0 60.692 4.705 88.709 13.076-3.215-84.357-37.873-157.404-88.602-198.774 116.045 37.622 199.516 141.691 199.516 264.294 0 154.301-132.163 279.393-295.199 279.393-163.057 0-295.219-125.092-295.219-279.393 0.005-122.593 83.471-226.668 199.521-264.289z" />
<glyph unicode="&#xe804;" glyph-name="folder-close" d="M898.452 36.562h-773.084c-71.731 0-130.058 57.923-130.058 129.152v559.631c0 71.183 58.327 129.111 130.058 129.111h258.324c16.312 0 31.217-9.216 38.518-23.788l74.132-149.99h402.104c71.736 0 130.079-56.156 130.079-127.345v-387.625c0.005-71.224-58.342-129.147-130.074-129.147zM125.537 768.241c-24.269 0-44.012-19.41-44.012-43.233v-561.024c0-23.864 19.743-43.228 44.012-43.228h774.093c24.289 0 44.037 19.364 44.037 43.228v388.598c0 23.828-19.743 43.233-44.037 43.233h-429.261c-16.333 0-31.278 9.221-38.559 23.828l-74.26 148.598h-232.013zM900.557 726.482h-344.182c-23.828 0-43.105 18.857-43.105 42.097s19.277 42.097 43.105 42.097h344.182c23.828 0 43.11-18.862 43.11-42.097s-19.282-42.097-43.11-42.097z" />
<glyph unicode="&#xe805;" glyph-name="folder-open" d="M895.841 614.211h-1.408v3.282c0 70.195-57.533 125.573-128.282 125.573h-311.516l-73.103 105.411c-7.183 14.367-21.878 23.455-37.985 23.455h-212.219c-70.738 0-128.276-57.124-128.276-127.319v-594.396l3.123-0.067-0.466-1.925c0-68.291 55.956-123.837 124.79-123.837h680.945c66.959 0 108.477 51.395 124.749 118.308l84.439 347.679c0 68.296-56.003 123.837-124.79 123.837zM88.069 744.279c0 23.496 19.471 42.634 43.423 42.634h186.271l73.231-104.033c7.178-14.408 21.919-23.496 38.026-23.496h338.289c23.962 0 43.423-19.139 43.423-42.634v-2.534h-595.881c-66.964 0-104.904-40.765-124.621-118.313l-2.161-8.883v257.26zM853.248 145.157c-7.972-22.467-18.309-41.062-40.771-41.062h-686.295c-21.089 0-38.441 16.189-40.561 36.823l1.828 7.608 0.62-0.015v2.591l82.36 342.349c5.315 22.456 18.263 41.057 40.765 41.057h686.3c21.048 0 38.446-16.189 40.561-36.823l-84.808-352.527z" />
<glyph unicode="&#xe900;" glyph-name="bookmarks" d="M256 832v-896l320 320 320-320v896zM768 960h-640v-896l64 64v768h576z" />
<glyph unicode="&#xe901;" glyph-name="bookmark" d="M192 960v-1024l320 320 320-320v1024z" />
<glyph unicode="&#xe902;" glyph-name="outbox" d="M448 384h128v256h192l-256 256-256-256h192zM640 528v-98.688l293.056-109.312-421.056-156.992-421.056 156.992 293.056 109.312v98.688l-384-144v-256l512-192 512 192v256z" />
<glyph unicode="&#xe903;" glyph-name="inbox" d="M512 384l256 256h-192v256h-128v-256h-192zM744.704 488.704l-71.744-71.744 260.096-96.96-421.056-156.992-421.056 156.992 260.096 96.96-71.744 71.744-279.296-104.704v-256l512-192 512 192v256z" />
<glyph unicode="&#xe904;" glyph-name="home" d="M1024 369.536l-512 397.44-512-397.44v162.048l512 397.44 512-397.44zM896 384v-384h-256v256h-256v-256h-256v384l384 288z" />
<glyph unicode="&#xe905;" glyph-name="file-empty" d="M917.824 730.944c-22.208 30.272-53.184 65.728-87.168 99.712s-69.44 64.96-99.712 87.168c-51.584 37.824-76.608 42.176-90.944 42.176h-496c-44.096 0-80-35.904-80-80v-864c0-44.096 35.904-80 80-80h736c44.096 0 80 35.904 80 80v624c0 14.336-4.352 39.36-42.176 90.944zM785.344 785.344c30.72-30.72 54.784-58.368 72.576-81.344h-153.984v153.92c22.976-17.792 50.688-41.856 81.344-72.576zM896 16c0-8.704-7.296-16-16-16h-736c-8.64 0-16 7.296-16 16v864c0 8.64 7.36 16 16 16 0 0 495.936 0 496 0v-224c0-17.664 14.336-32 32-32h224v-624z" />
<glyph unicode="&#xe906;" glyph-name="files-empty" d="M917.824 602.944c-22.208 30.272-53.184 65.728-87.168 99.712s-69.44 64.96-99.712 87.168c-51.584 37.824-76.608 42.176-90.944 42.176h-368c-44.096 0-80-35.904-80-80v-736c0-44.096 35.904-80 80-80h608c44.096 0 80 35.904 80 80v496c0 14.336-4.352 39.36-42.176 90.944zM785.344 657.344c30.72-30.72 54.784-58.368 72.576-81.344h-153.984v153.92c22.976-17.792 50.688-41.856 81.344-72.576v0zM896 16c0-8.704-7.296-16-16-16h-608c-8.704 0-16 7.296-16 16v736c0 8.64 7.296 16 16 16 0 0 367.936 0 368 0v-224c0-17.664 14.336-32 32-32h224v-496zM602.944 917.824c-51.584 37.824-76.608 42.176-90.944 42.176h-368c-44.096 0-80-35.904-80-80v-736c0-38.656 27.52-70.976 64-78.4v814.4c0 8.64 7.36 16 16 16h486.848c-9.664 7.936-19.008 15.232-27.968 21.824z" />
<glyph unicode="&#xe907;" glyph-name="file-text" d="M917.824 730.944c-22.208 30.272-53.184 65.728-87.168 99.712s-69.44 64.96-99.712 87.168c-51.584 37.824-76.608 42.176-90.944 42.176h-496c-44.096 0-80-35.904-80-80v-864c0-44.096 35.904-80 80-80h736c44.096 0 80 35.904 80 80v624c0 14.336-4.352 39.36-42.176 90.944zM785.344 785.344c30.72-30.72 54.784-58.368 72.576-81.344h-153.984v153.92c22.976-17.792 50.688-41.856 81.344-72.576zM896 16c0-8.704-7.296-16-16-16h-736c-8.64 0-16 7.296-16 16v864c0 8.64 7.36 16 16 16 0 0 495.936 0 496 0v-224c0-17.664 14.336-32 32-32h224v-624zM736 128h-448c-17.664 0-32 14.336-32 32s14.336 32 32 32h448c17.664 0 32-14.336 32-32s-14.336-32-32-32zM736 256h-448c-17.664 0-32 14.336-32 32s14.336 32 32 32h448c17.664 0 32-14.336 32-32s-14.336-32-32-32zM736 384h-448c-17.664 0-32 14.336-32 32s14.336 32 32 32h448c17.664 0 32-14.336 32-32s-14.336-32-32-32z" />
<glyph unicode="&#xe908;" glyph-name="workflow" d="M968.384 378.816h-159.36c-24.864 0-45.12-20.352-45.12-44.864v-59.84h-127.2v59.84c0 24.544-20.192 44.864-44.928 44.864h-60v120.864h59.904c24.864 0 44.992 20.32 44.992 44.864v159.712c0 24.608-20.128 44.8-44.992 44.8h-159.36c-24.832 0-44.96-20.192-44.96-44.8v-159.744c0-24.544 20.128-44.864 44.96-44.864h60v-120.864h-60c-24.736 0-44.96-20.352-44.96-44.864v-59.84h-127.264v59.84c0 24.544-20.224 44.864-45.024 44.864h-159.36c-24.704 0-45.088-20.352-45.088-44.864v-159.744c0-24.576 20.384-44.768 45.088-44.768h159.392c24.8 0 45.024 20.224 45.024 44.768v59.904h127.264v-59.904c0-24.576 20.192-44.768 44.96-44.768h159.424c24.736 0 44.928 20.224 44.928 44.768v59.904h127.2v-59.904c0-24.576 20.256-44.768 45.12-44.768h159.36c24.672 0 44.992 20.224 44.992 44.768v159.744c0 24.544-20.32 44.896-44.992 44.896z" />
<glyph unicode="&#xe909;" glyph-name="address-book" d="M192 960v-1024h768v1024h-768zM576 703.67c70.51 0 127.67-57.16 127.67-127.67s-57.16-127.67-127.67-127.67-127.67 57.16-127.67 127.67 57.16 127.67 127.67 127.67v0zM768 192h-384v64c0 70.696 57.306 128 128 128v0h128c70.696 0 128-57.304 128-128v-64zM64 896h96v-192h-96v192zM64 640h96v-192h-96v192zM64 384h96v-192h-96v192zM64 128h96v-192h-96v192z" />
<glyph unicode="&#xe90a;" glyph-name="alarm" d="M512 832c-247.424 0-448-200.576-448-448s200.576-448 448-448 448 200.576 448 448-200.576 448-448 448zM512 24c-198.824 0-360 161.178-360 360 0 198.824 161.176 360 360 360 198.822 0 360-161.176 360-360 0-198.822-161.178-360-360-360zM934.784 672.826c16.042 28.052 25.216 60.542 25.216 95.174 0 106.040-85.96 192-192 192-61.818 0-116.802-29.222-151.92-74.596 131.884-27.236 245.206-105.198 318.704-212.578v0zM407.92 885.404c-35.116 45.374-90.102 74.596-151.92 74.596-106.040 0-192-85.96-192-192 0-34.632 9.174-67.122 25.216-95.174 73.5 107.38 186.822 185.342 318.704 212.578zM512 384v256h-64v-320h256v64z" />
<glyph unicode="&#xe90b;" glyph-name="barcode" d="M0 832h128v-640h-128zM192 832h64v-640h-64zM320 832h64v-640h-64zM512 832h64v-640h-64zM768 832h64v-640h-64zM960 832h64v-640h-64zM640 832h32v-640h-32zM448 832h32v-640h-32zM864 832h32v-640h-32zM0 128h64v-64h-64zM192 128h64v-64h-64zM320 128h64v-64h-64zM640 128h64v-64h-64zM960 128h64v-64h-64zM768 128h128v-64h-128zM448 128h128v-64h-128z" />
<glyph unicode="&#xe90c;" glyph-name="bin" d="M128 640v-640c0-35.2 28.8-64 64-64h576c35.2 0 64 28.8 64 64v640h-704zM320 64h-64v448h64v-448zM448 64h-64v448h64v-448zM576 64h-64v448h64v-448zM704 64h-64v448h64v-448zM848 832h-208v80c0 26.4-21.6 48-48 48h-224c-26.4 0-48-21.6-48-48v-80h-208c-26.4 0-48-21.6-48-48v-80h832v80c0 26.4-21.6 48-48 48zM576 832h-192v63.198h192v-63.198z" />
<glyph unicode="&#xe90d;" glyph-name="bin2" d="M192-64h640l64 704h-768zM640 832v128h-256v-128h-320v-192l64 64h768l64-64v192h-320zM576 832h-128v64h128v-64z" />
<glyph unicode="&#xe90e;" glyph-name="book" d="M896 832v-832h-672c-53.026 0-96 42.98-96 96s42.974 96 96 96h608v768h-640c-70.398 0-128-57.6-128-128v-768c0-70.4 57.602-128 128-128h768v896h-64zM224.056 128v0c-0.018-0.002-0.038 0-0.056 0-17.672 0-32-14.326-32-32s14.328-32 32-32c0.018 0 0.038 0.002 0.056 0.002v-0.002h607.89v64h-607.89z" />
<glyph unicode="&#xe90f;" glyph-name="books2" horiz-adv-x="1152" d="M224 832h-192c-17.6 0-32-14.4-32-32v-704c0-17.6 14.4-32 32-32h192c17.6 0 32 14.4 32 32v704c0 17.6-14.4 32-32 32zM192 640h-128v64h128v-64zM544 832h-192c-17.6 0-32-14.4-32-32v-704c0-17.6 14.4-32 32-32h192c17.6 0 32 14.4 32 32v704c0 17.6-14.4 32-32 32zM512 640h-128v64h128v-64zM765.088 782.52l-171.464-86.394c-15.716-7.918-22.096-27.258-14.178-42.976l287.978-571.548c7.918-15.718 27.258-22.098 42.976-14.178l171.464 86.392c15.716 7.92 22.096 27.26 14.178 42.974l-287.978 571.55c-7.92 15.718-27.26 22.1-42.976 14.18z" />
<glyph unicode="&#xe910;" glyph-name="addfolder_x" d="M914.545 17.008h-808.826c-49.772 0-93.324 43.552-93.324 93.324v684.39c0 49.772 43.552 93.324 93.324 93.324h248.86c49.772 0 93.335-43.552 93.335-93.324v-62.223c0-18.66 12.451-31.1 31.1-31.1h435.519c49.772 0 93.335-43.552 93.335-93.324v-497.742c0-49.772-43.552-93.324-93.324-93.324zM105.719 825.834c-18.672 0-31.112-12.451-31.112-31.112v-684.39c0-18.66 12.44-31.1 31.112-31.1h808.814c18.66 0 31.112 12.44 31.112 31.1v497.742c0 18.66-12.451 31.1-31.112 31.1h-435.519c-49.772 0-93.324 43.552-93.324 93.324v62.223c0 18.66-12.44 31.112-31.112 31.112h-248.86zM634.562 315.651h-248.86c-18.66 0-31.112 12.451-31.112 31.112s12.451 31.112 31.112 31.112h248.86c18.672 0 31.112-12.451 31.112-31.112s-12.44-31.112-31.112-31.112zM510.126 191.204c-18.66 0-31.112 12.451-31.112 31.112v248.871c0 18.672 12.451 31.1 31.112 31.1s31.112-12.44 31.112-31.1v-248.871c0-18.66-12.44-31.112-31.112-31.112z" />
<glyph unicode="&#xe911;" glyph-name="circle_arrow_down_x" d="M514.754-55.285c-281.191 0-508.534 227.355-508.534 508.534 0 281.191 227.344 508.534 508.534 508.534s508.534-227.344 508.534-508.534c0-281.179-227.344-508.534-508.534-508.534zM514.754 901.953c-245.293 0-448.704-203.411-448.704-448.704s203.411-448.704 448.704-448.704c245.304 0 448.715 203.411 448.715 448.704s-203.411 448.704-448.715 448.704zM514.754 327.606c-17.949 0-41.87 5.983-53.847 23.932l-113.666 113.677c-11.966 11.966-11.966 29.915 0 41.881s29.915 11.966 41.881 0l113.677-113.677c5.983-5.983 17.949-5.983 29.915 0l113.666 113.677c11.966 11.966 29.904 11.966 41.87 0 11.989-11.966 11.989-29.915 0-41.881l-113.666-113.666c-17.949-11.966-41.881-23.943-59.83-23.943z" />
<glyph unicode="&#xe912;" glyph-name="clock" d="M512 960c-282.77 0-512-229.23-512-512s229.23-512 512-512 512 229.23 512 512-229.23 512-512 512zM658.744 210.744l-210.744 210.746v282.51h128v-229.49l173.256-173.254-90.512-90.512z" />
<glyph unicode="&#xe913;" glyph-name="download_x" d="M509.133 315.358c-6.773 0-20.308 0-27.070 6.773l-203.084 203.050c-13.535 13.546-13.535 33.855 0 47.379 13.535 13.546 33.855 13.546 47.39 0l175.991-175.991 175.991 175.991c13.546 13.546 33.844 13.546 47.39 0 13.535-13.535 13.535-33.844 0-47.379l-203.073-203.062c6.773-6.762-6.773-6.762-13.535-6.762zM509.133 349.19c-20.308 0-33.844 13.546-33.844 33.844v541.531c0 20.308 13.535 33.844 33.844 33.844 20.32 0 33.844-13.535 33.844-33.844v-541.531c0-20.297-13.535-33.844-33.844-33.844zM847.58-56.956h-676.906c-94.769 0-169.229 74.46-169.229 169.218v135.386c0 20.308 13.535 33.855 33.844 33.855s33.844-13.546 33.844-33.855v-135.386c0-54.141 47.379-101.519 101.542-101.519h676.906c54.152 0 101.531 47.379 101.531 101.519v135.386c0 20.308 13.546 33.855 33.844 33.855 20.32 0 33.855-13.546 33.855-33.855v-135.386c0-94.758-74.46-169.218-169.229-169.218z" />
<glyph unicode="&#xe914;" glyph-name="file_attr_x" d="M775.264-52.711h-519.959c-80.884 0-144.428 63.544-144.428 144.417v693.297c0 80.884 63.544 144.428 144.428 144.428h519.959c80.884 0 144.439-63.556 144.439-144.428v-693.297c0-80.872-63.556-144.417-144.439-144.417zM255.306 871.654c-46.216 0-86.664-40.447-86.664-86.664v-693.297c0-46.216 40.447-86.652 86.664-86.652h519.959c46.227 0 86.664 40.436 86.664 86.652v693.308c0 46.216-40.436 86.664-86.664 86.664h-519.959zM688.601 640.563h-346.643c-17.328 0-28.888 11.56-28.888 28.888 0 17.339 11.56 28.888 28.888 28.888h346.643c17.328 0 28.899-11.548 28.899-28.888 0-17.328-11.571-28.888-28.899-28.888zM688.601 409.46h-346.643c-17.328 0-28.888 11.548-28.888 28.899 0 17.328 11.56 28.888 28.888 28.888h346.643c17.328 0 28.899-11.56 28.899-28.888 0-17.339-11.571-28.899-28.899-28.899zM688.601 178.38h-346.643c-17.328 0-28.888 11.548-28.888 28.888s11.56 28.888 28.888 28.888h346.643c17.328 0 28.899-11.548 28.899-28.888s-11.571-28.888-28.899-28.888z" />
<glyph unicode="&#xe915;" glyph-name="refresh_x" d="M852.434 352.554c-5.193 0-10.386 0-15.578 5.193l-140.093 124.537c-10.386 10.374-10.386 25.941 0 36.327 10.374 10.374 25.953 10.374 36.316 0l119.356-108.97 108.959 119.344c10.386 10.374 25.941 10.374 36.327 0 10.374-10.374 10.374-25.941 0-36.327l-124.537-140.104c-10.374 5.193-15.567 0-20.749 0v0zM42.954 336.998c-5.193 0-10.374 0-15.567 5.193-10.374 10.374-10.374 25.953 0 36.327l124.537 140.093c5.182 5.182 10.374 10.374 15.556 10.374 5.193 0 15.567 0 20.76-5.193l140.093-124.537c10.374-10.374 10.374-25.941 0-36.316-10.374-10.386-25.941-10.386-36.327 0l-119.344 108.959-108.947-119.344c-5.193-15.556-15.567-15.556-20.76-15.556zM852.434 362.939c0 0-5.193 0 0 0-15.578 0-25.953 15.567-25.953 31.134 10.374 83.017-10.374 171.227-57.087 238.689-51.894 67.461-124.526 114.152-212.736 124.537-83.029 10.374-171.239-10.374-238.7-57.076-10.374-10.374-25.953-5.193-36.327 5.182s-5.193 25.941 5.182 36.327c77.836 57.076 176.42 83.017 275.016 67.461 98.584-15.567 186.806-67.461 243.882-145.286 57.087-77.847 83.017-176.431 67.461-275.016 5.193-15.578-10.363-25.953-20.737-25.953zM509.957 67.175c-20.749 0-36.327 0-57.076 5.182-98.584 15.567-186.806 67.461-243.882 145.297s-83.017 176.42-67.461 275.005c0 15.567 15.556 25.941 31.134 20.749 15.567 0 25.941-15.556 20.749-31.134-10.374-83.029 10.374-171.227 57.087-238.689 51.883-67.45 124.526-114.163 212.747-124.526 83.017-10.386 171.227 10.363 238.7 57.087 10.374 10.363 25.941 5.17 36.316-5.193 10.386-10.386 5.193-25.953-5.193-36.338-67.45-41.497-145.297-67.439-223.122-67.439z" />
<glyph unicode="&#xe916;" glyph-name="set_x" d="M517.373 291.696c-84.53 0-150.953 66.423-150.953 150.953s66.423 150.953 150.953 150.953c84.53 0 150.942-66.423 150.942-150.953s-66.412-150.953-150.942-150.953zM517.373 533.219c-48.304 0-90.569-42.265-90.569-90.569s42.265-90.569 90.569-90.569c48.304 0 90.569 42.265 90.569 90.569s-42.265 90.569-90.569 90.569zM559.638-70.581h-78.49c-36.226 0-72.451 30.186-72.451 72.451v60.395c-24.147 6.028-48.304 18.107-72.451 30.186-6.039 0-12.079 0-12.079 0l-42.265-42.265c-24.158-24.158-72.451-24.158-102.648 0l-60.383 60.383c-30.186 30.197-30.186 72.462 0 102.648l42.265 42.265c6.039 6.028 0 12.068 0 12.068-12.079 18.107-18.118 42.265-24.158 60.383 0 6.039-6.039 6.039-12.068 6.039h-54.344c-36.226 0-72.451 30.186-72.451 72.451v78.502c0 36.226 30.186 72.451 72.451 72.451h54.344c6.039 0 6.039 6.039 12.068 6.039 6.039 24.158 18.107 42.276 24.158 60.383 0 6.039 0 6.039 0 12.079l-42.265 42.242c-30.186 30.186-30.186 72.451 0 102.648l60.383 60.383c24.147 24.158 72.451 24.158 102.648 0l42.265-42.265c6.039-6.039 6.039-6.039 12.079 0 18.107 12.079 42.265 18.118 60.383 24.158 6.039 0 6.039 6.039 6.039 12.068v54.333c0 36.226 30.186 72.451 72.451 72.451h78.502c36.226 0 72.451-30.186 72.451-72.451v-54.344c0-6.039 6.039-6.039 6.039-12.068 18.107-6.039 42.265-18.107 60.383-24.158 6.039 0 12.068 0 12.068 0l42.265 42.265c24.158 24.158 72.451 24.158 102.648 0l60.383-60.383c30.186-30.186 30.186-72.451 0-102.648l-42.265-42.265c-6.028-6.039 0-12.079 0-12.079 12.079-18.107 18.107-42.265 24.158-60.383 0-6.039 6.028-6.039 12.079-6.039h54.333c36.214 0 72.451-30.186 72.451-72.451v-78.502c0-36.226-30.186-72.451-72.451-72.451h-54.333c-6.051 0-6.051-6.039-12.079-6.039-6.039-24.147-18.118-42.265-24.158-60.383 0-6.039 0-6.039 0-12.068l42.265-42.265c30.186-30.186 30.186-72.451 0-102.648l-60.383-60.383c-24.158-24.158-72.462-24.158-102.648 0l-42.265 42.265c-6.028 6.028-6.028 6.028-12.068 0-18.107-12.079-42.265-18.107-60.383-24.158-6.039 0-6.039-6.028-6.039-12.079v-54.333c-0.011-42.242-30.209-72.428-66.434-72.428zM330.195 152.811c12.079 0 24.147 0 36.226-6.028 24.158-12.068 54.344-24.158 78.502-30.186 12.079-6.039 24.147-18.118 24.147-30.186v-84.541c0-6.028 6.039-12.068 12.079-12.068h78.49c6.039 0 12.068 6.039 12.068 12.068v54.333c0 30.209 18.118 60.395 48.304 66.423 18.107 6.039 36.226 12.079 54.344 24.158 30.186 12.079 60.372 12.079 84.519-12.068l42.265-42.265c6.039-6.028 12.079-6.028 12.079 0l60.372 60.372c6.051 6.051 6.051 12.079 0 12.079l-42.265 42.265c-24.147 24.158-24.147 54.333-12.068 84.53 6.039 18.107 18.118 36.226 24.158 54.344 12.068 30.186 36.237 48.293 66.423 48.293h54.333c6.039 0 12.079 6.039 12.079 12.068v78.502c0 6.039-6.039 12.079-12.079 12.079h-54.333c-30.186 0-60.383 18.107-66.423 48.304-6.028 18.107-12.079 36.226-24.158 54.344-12.068 30.186-12.068 60.383 12.068 84.53l42.265 42.265c6.051 6.039 6.051 12.079 0 12.079l-60.372 60.383c-6.039 6.039-12.079 6.039-12.079 0l-42.265-42.265c-24.158-18.107-54.333-24.158-84.519-12.079-18.118 6.039-36.237 18.118-54.344 24.158-30.186 12.068-48.304 36.214-48.304 66.412v54.333c0 6.039-6.028 12.079-12.068 12.079h-78.49c-6.039 0-12.079-6.039-12.079-12.079v-54.344c0-30.186-18.107-60.383-48.304-66.412-18.107-6.039-36.226-12.079-54.344-24.158-30.186-12.079-60.383-12.079-84.53 12.079l-42.265 42.265c-6.039 6.039-12.079 6.039-12.079 0l-60.383-60.383c-6.039-6.039-6.039-12.079 0-12.079l42.265-42.265c24.158-24.147 24.158-54.344 12.079-84.53-6.039-18.118-18.118-36.226-24.158-54.344-12.068-30.186-36.226-48.304-66.412-48.304h-54.333c-6.039 0-12.068-6.039-12.068-12.079v-78.502c0-6.028 6.039-12.068 12.068-12.068h54.344c30.186 0 60.372-18.107 66.412-48.293 6.039-18.118 12.079-36.237 24.158-54.344 12.079-30.197 12.079-60.383-12.079-84.53l-42.265-42.265c-6.039-6.028-6.039-12.079 0-12.079l60.383-60.372c6.039-6.028 12.079-6.028 12.079 0l42.265 42.265c12.079 12.079 30.186 18.107 48.293 18.107z" />
<glyph unicode="&#xe917;" glyph-name="smallwindow_x" d="M419.274 866.078v-177.391h-405.48v-645.997h810.959v240.518h177.402v582.871h-582.882zM751.276 122.264h-664.014v485.731h664.003v-485.731zM926.127 359.225h-101.373v329.461h-329.461v101.361h430.834v-430.823z" />
<glyph unicode="&#xe918;" glyph-name="folder" d="M448 832l128-128h448v-704h-1024v832z" />
<glyph unicode="&#xe919;" glyph-name="folder-download" d="M576 704l-128 128h-448v-832h1024v704h-448zM512 96l-224 224h160v256h128v-256h160l-224-224z" />
<glyph unicode="&#xe91a;" glyph-name="folder-minus" d="M576 704l-128 128h-448v-832h1024v704h-448zM704 256h-384v128h384v-128z" />
<glyph unicode="&#xe91b;" glyph-name="folder-open2" d="M832 0l192 512h-832l-192-512zM128 576l-128-576v832h288l128-128h416v-128z" />
<glyph unicode="&#xe91c;" glyph-name="folder-plus" d="M576 704l-128 128h-448v-832h1024v704h-448zM704 256h-128v-128h-128v128h-128v128h128v128h128v-128h128v-128z" />
<glyph unicode="&#xe91d;" glyph-name="folder-upload" d="M576 704l-128 128h-448v-832h1024v704h-448zM512 480l224-224h-160v-256h-128v256h-160l224 224z" />
<glyph unicode="&#xe91e;" glyph-name="tag_x" d="M427.978-33.34c-16.696 0-33.381 5.554-44.5 16.685l-333.751 333.751c-11.131 11.119-16.696 27.804-16.696 44.478 0 16.696 5.565 33.381 16.696 44.5l483.936 483.948c11.119 11.119 27.815 16.696 44.489 16.696h333.751c33.381 0 61.185-27.815 61.185-61.196v-333.74c0-16.685-5.554-33.369-16.685-44.489l-483.948-483.948c-16.673-11.131-33.358-16.685-44.478-16.685zM572.609 856.652l-489.502-489.502c0 0 0-5.577 0-11.131l339.305-339.316h5.565l483.936 483.948v339.305c0 5.565 0 5.565-5.565 5.565h-333.74v11.131zM750.598 634.162c-16.685 0-27.804 5.565-38.935 16.685-22.25 22.25-22.25 55.631 0 77.87 22.261 22.25 55.62 22.25 77.87 0s22.25-55.631 0-77.87c-11.119-11.131-22.25-16.685-38.935-16.685z" />
<glyph unicode="&#xe91f;" glyph-name="images" horiz-adv-x="1152" d="M1088 832h-64v64c0 35.2-28.8 64-64 64h-896c-35.2 0-64-28.8-64-64v-768c0-35.2 28.8-64 64-64h64v-64c0-35.2 28.8-64 64-64h896c35.2 0 64 28.8 64 64v768c0 35.2-28.8 64-64 64zM128 768v-640h-63.886c-0.040 0.034-0.082 0.076-0.114 0.116v767.77c0.034 0.040 0.076 0.082 0.114 0.114h895.77c0.040-0.034 0.082-0.076 0.116-0.116v-63.884h-768c-35.2 0-64-28.8-64-64v0zM1088 0.116c-0.034-0.040-0.076-0.082-0.116-0.116h-895.77c-0.040 0.034-0.082 0.076-0.114 0.116v767.77c0.034 0.040 0.076 0.082 0.114 0.114h895.77c0.040-0.034 0.082-0.076 0.116-0.116v-767.768zM960 608c0-53.020-42.98-96-96-96s-96 42.98-96 96 42.98 96 96 96 96-42.98 96-96zM1024 64h-768v128l224 384 256-320h64l224 192z" />
<glyph unicode="&#xe920;" glyph-name="time_x" d="M510.521-59.789c-280.796 0-507.812 227.027-507.812 507.812 0 280.796 227.016 507.812 507.812 507.812 280.784 0 507.801-227.016 507.801-507.812 0-280.784-227.016-507.812-507.801-507.812zM510.521 896.083c-244.943 0-448.061-203.118-448.061-448.061 0-244.954 203.118-448.072 448.061-448.072s448.072 203.118 448.072 448.072c0 244.943-203.129 448.061-448.072 448.061zM764.8 398.465h-274.237c-16.459 0-27.42 11.943-27.42 29.87s10.961 29.87 27.42 29.87h274.237c16.436 0 27.409-11.943 27.409-29.87 0-17.938-10.973-29.87-27.409-29.87zM493.012 399.312c-17.915 0-29.87 11.955-29.87 29.87v298.711c0 17.926 11.955 29.87 29.87 29.87 17.926 0 29.881-11.943 29.881-29.87v-298.711c0-17.915-11.955-29.87-29.881-29.87z" />
<glyph unicode="&#xe921;" glyph-name="upload_x" d="M718.606 674.373c-6.706 0-20.117 0-26.822 6.706l-174.366 181.071-174.366-174.366c-13.411-13.411-33.528-13.411-46.939 0s-13.411 33.528 0 46.939l201.188 201.199c13.411 13.411 33.528 13.411 46.95 0l201.188-201.188c13.411-13.411 13.411-33.528 0-46.939-6.717-13.422-20.117-13.422-26.833-13.422zM517.419 305.514c-20.117 0-33.528 13.411-33.528 33.539v536.508c0 20.117 13.411 33.528 33.528 33.528 20.128 0 33.528-13.411 33.528-33.528v-536.508c0.011-20.117-13.4-33.539-33.528-33.539zM852.739-63.323h-670.629c-93.888 0-167.66 73.772-167.66 167.66v134.121c0 20.117 13.411 33.539 33.528 33.539s33.539-13.411 33.539-33.539v-134.133c0-53.644 46.939-100.594 100.594-100.594h670.629c53.655 0 100.594 46.95 100.594 100.594v134.133c0 20.117 13.411 33.539 33.539 33.539s33.528-13.411 33.528-33.539v-134.133c0-93.877-73.772-167.649-167.66-167.649z" />
<glyph unicode="&#xe922;" glyph-name="paste" d="M704 832h-128v64c0 35.2-28.8 64-64 64h-128c-35.204 0-64-28.8-64-64v-64h-128v-128h512v128zM512 832h-128v63.886c0.034 0.038 0.072 0.078 0.114 0.114h127.768c0.042-0.036 0.082-0.076 0.118-0.114v-63.886zM832 640v160c0 17.6-14.4 32-32 32h-64v-64h32v-128h-192l-192-192v-256h-256v576h32v64h-64c-17.602 0-32-14.4-32-32v-640c0-17.6 14.398-32 32-32h288v-192h640v704h-192zM576 549.49v-101.49h-101.49l101.49 101.49zM960 0h-512v384h192v192h320v-576z" />
<glyph unicode="&#xe923;" glyph-name="zoomall_x" d="M965.897-50.668h-187.235c-25.851 0-46.803 20.952-46.803 46.814 0 25.851 20.952 46.803 46.803 46.803h140.42v140.432c0 25.851 20.952 46.803 46.803 46.803 25.862 0 46.814-20.952 46.814-46.803v-187.235c0.011-25.862-20.941-46.814-46.803-46.814zM965.897 667.080c-25.851 0-46.803 20.952-46.803 46.803v140.432h-140.432c-25.851 0-46.803 20.952-46.803 46.803s20.952 46.803 46.803 46.803h187.235c25.862 0 46.814-20.952 46.814-46.803v-187.235c0-25.851-20.952-46.803-46.814-46.803zM248.149 854.315v0h-140.432v-140.432c0-25.862-20.952-46.803-46.803-46.803s-46.803 20.952-46.803 46.803v187.246c0 25.862 20.952 46.803 46.803 46.803h187.235c25.862 0 46.803-20.952 46.803-46.803s-20.941-46.814-46.803-46.814zM154.531 807.512h717.748v-717.748h-717.748v717.748zM248.149 183.381h530.502v530.502h-530.502v-530.502zM60.914 230.195c25.862 0 46.803-20.952 46.803-46.803v-140.42h140.432c25.862 0 46.803-20.952 46.803-46.803 0-25.862-20.952-46.814-46.803-46.814h-187.235c-25.862 0-46.803 20.952-46.803 46.814v187.212c0 25.851 20.941 46.814 46.803 46.814z" />
<glyph unicode="&#xe924;" glyph-name="attr" d="M1012.057 118.979c0-16.538-13.411-29.938-29.938-29.938h-946.492c-16.538 0-29.938 13.411-29.938 29.938v669.715c0 16.538 13.411 29.938 29.938 29.938h946.492c16.538 0 29.938-13.411 29.938-29.938v-669.715zM734.614 663.998h153.132v73.851h-153.132v-73.851zM147.171 663.998h394.823v73.851h-394.823v-73.851zM927.956 592.292h-838.199v-408.268c0-6.017 4.888-10.905 10.905-10.905h816.389c6.028 0 10.905 4.888 10.905 10.905v408.268zM811.129 496.056h-621.794v-33.245h621.794v33.245zM624.91 389.671h-435.575v-33.245h435.575v33.245zM744.627 283.275h-555.292v-33.245h555.292v33.245z" />
<glyph unicode="&#xe928;" glyph-name="price-tags" horiz-adv-x="1280" d="M1232 960h-384c-26.4 0-63.274-15.274-81.942-33.942l-476.116-476.116c-18.668-18.668-18.668-49.214 0-67.882l412.118-412.118c18.668-18.668 49.214-18.668 67.882 0l476.118 476.118c18.666 18.666 33.94 55.54 33.94 81.94v384c0 26.4-21.6 48-48 48zM992 576c-53.020 0-96 42.98-96 96s42.98 96 96 96 96-42.98 96-96-42.98-96-96-96zM128 416l544 544h-80c-26.4 0-63.274-15.274-81.942-33.942l-476.116-476.116c-18.668-18.668-18.668-49.214 0-67.882l412.118-412.118c18.668-18.668 49.214-18.668 67.882 0l30.058 30.058-416 416z" />
<glyph unicode="&#xe92a;" glyph-name="stack" d="M1024 640l-512 256-512-256 512-256 512 256zM512 811.030l342.058-171.030-342.058-171.030-342.058 171.030 342.058 171.030zM921.444 499.278l102.556-51.278-512-256-512 256 102.556 51.278 409.444-204.722zM921.444 307.278l102.556-51.278-512-256-512 256 102.556 51.278 409.444-204.722z" />
<glyph unicode="&#xe92c;" glyph-name="table2" d="M0 768v-704h1024v704h-1024zM384 320v128h256v-128h-256zM640 256v-128h-256v128h256zM640 640v-128h-256v128h256zM320 640v-128h-256v128h256zM64 448h256v-128h-256v128zM704 448h256v-128h-256v128zM704 512v128h256v-128h-256zM64 256h256v-128h-256v128zM704 128v128h256v-128h-256z" />
<glyph unicode="&#xe92d;" glyph-name="skin-set" d="M1007.84 638.496l-196.864 194.88c-7.968 9.056-18.4 15.552-30.080 18.592l-114.208 29.728c-4.96 1.28-10.048 1.92-15.168 1.92-17.28 0-36.224-5.952-45.696-21.088-7.904-12.736-23.424-70.496-93.824-70.496s-92.448 57.28-101.6 71.424c-9.056 14.048-27.552 18.752-43.904 18.752-5.056 0-10.144-0.64-15.136-1.984l-109.76-28.992c-11.712-3.136-22.24-9.696-30.144-18.88l-195.552-196.864c-17.696-20.576-19.424-50.464-4.224-72.928l85.824-126.656c11.552-17.024 30.464-26.368 49.76-26.368 10.24 0 20.576 2.624 30.016 8.064l64.384 45.44v-390.528c0.064-33.12 29.088-60.096 62.24-60.096v0l411.872 0.16c33.056 0 66.464 26.88 66.592 59.936v390.496l63.040-44.608c9.216-5.12 19.264-7.584 29.152-7.584 19.2 0 37.984 9.216 49.504 26.048l88.096 127.968c15.52 22.656 13.76 52.96-4.32 73.664z" />
<glyph unicode="&#xe92e;" glyph-name="tree" d="M406.688 559.465h227.163c62.461 0 113.598 51.115 113.598 113.598v113.576c0 62.472-51.115 113.587-113.598 113.587h-227.163c-62.461 0-113.587-51.115-113.587-113.587v-113.587c0-62.494 51.104-113.587 113.587-113.587zM633.85 124.048c0-62.732-50.855-113.587-113.587-113.587s-113.587 50.855-113.587 113.587c0 62.732 50.855 113.587 113.587 113.587s113.587-50.855 113.587-113.587zM141.662 275.508c13.93 0 25.23 11.311 25.23 25.23v42.592c0 27.838 22.645 50.472 50.483 50.472h277.646v-93.064c0-13.919 11.3-25.23 25.242-25.23s25.253 11.311 25.253 25.23v93.064h277.646c27.804 0 50.461-22.634 50.461-50.472v-42.592c0-13.919 11.3-25.23 25.242-25.23s25.253 11.311 25.253 25.23v42.592c0 55.676-45.302 100.966-100.955 100.966h-605.787c-55.687 0-100.966-45.29-100.966-100.966v-42.592c0.011-13.919 11.3-25.23 25.253-25.23zM797.921 225.003h201.899v-201.91h-201.899v201.91zM14.283 124.065l127.357 127.357 127.373-127.373-127.357-127.357-127.373 127.373z" />
<glyph unicode="&#xe92f;" glyph-name="technology" d="M871.546 450.393c38.178 44.274 65.565 87.894 81.482 129.809 18.446 48.609 17.757 90.818-1.964 125.395-19.8 34.645-56.049 56.353-107.706 64.526-44.331 6.976-95.717 5.193-153.391-5.441-19.089 55.326-43.089 100.831-71.401 135.431-32.963 40.301-69.945 60.722-109.862 60.722-39.996 0-76.978-20.523-109.907-61.038-28.335-34.814-52.143-80.364-70.848-135.555-57.652 10.927-109.026 12.858-153.346 5.881-51.635-8.173-87.86-29.87-107.717-64.549-19.733-34.589-20.376-76.775-1.964-125.384 15.827-41.757 43.349-85.365 81.888-129.73-38.483-44.421-65.926-87.917-81.606-129.549-18.276-48.474-17.486-90.547 2.258-125.045 19.778-34.656 55.868-56.444 107.322-64.775 44.195-7.18 95.548-5.34 153.222 5.565 19.033-55.134 42.886-100.605 71.074-135.318 32.737-40.312 69.629-60.745 109.636-60.745 39.939 0 76.899 20.433 109.884 60.711 28.267 34.589 52.199 80.195 71.345 135.747 57.606-11.514 108.868-13.693 152.894-6.536 51.194 8.32 87.397 30.062 107.717 64.797 19.733 34.577 20.365 76.763 1.942 125.373-15.861 41.723-43.066 85.298-80.951 129.707zM443.207 42.554c-20.579 27.477-38.337 64.143-52.854 109.185 40.007 11.368 79.89 25.84 118.87 43.123 39.059-17.509 78.931-31.981 118.791-43.168-14.777-44.929-32.726-81.572-53.497-109.094-42.468-56.319-89.136-56.319-131.31-0.045zM574.494 858.593c20.794-27.725 38.754-64.459 53.52-109.399-37.162-10.487-76.989-24.813-118.78-42.762-40.594 17.283-80.624 31.857-119.333 43.45 14.766 44.489 32.67 81.030 53.328 108.756 42.231 56.556 88.775 56.545 131.265-0.045zM737.266 488.843c16.267-13.321 31.1-26.224 44.399-38.63-9.031-8.704-18.48-17.328-28.199-25.671-5.317-4.538-10.69-9.166-16.154-13.806 0.474 14.043 0.734 27.488 0.734 40.244-0.045 11.594-0.271 24.259-0.779 37.862zM730.663 577.64c-4.809 43.744-12.384 85.76-22.634 125.158 46.295 9.539 87.104 12.361 121.365 8.297 34.995-4.12 58.453-16.064 69.64-35.322 11.413-20.037 10.171-45.663-3.883-78.344-13.558-31.665-36.417-65.508-68.026-100.797-29.825 28.583-62.178 55.766-96.462 81.008zM509.234 267.843c-27.499 12.779-54.795 27.138-81.222 42.773-30.13 18.073-55.913 34.543-76.718 49.095-2.292 26.574-3.443 57.211-3.443 91.281 0 33.968 1.151 64.402 3.42 90.626 22.566 15.432 48.654 31.936 77.441 48.993 25.908 14.72 52.967 28.933 80.511 42.254 27.42-13.445 54.491-27.624 80.173-42.017 27.003-16.199 53.113-32.636 77.802-48.891 2.258-26.788 3.432-57.335 3.432-90.953 0-34.058-1.174-64.876-3.443-91.721-22.871-15.714-48.756-32.037-77.215-48.688-25.501-15.262-52.605-29.667-80.737-42.75zM622.934 648.431c-10.126 5.938-21.403 12.26-33.742 18.965 19.507 7.439 38.337 13.975 56.319 19.507 4.425-19.394 8.229-39.036 11.39-58.758-10.871 6.762-22.216 13.546-33.968 20.286zM372.855 686.745c18.288-5.791 36.835-12.293 55.552-19.462-11.594-6.141-22.702-12.429-33.234-18.784-11.831-6.785-23.164-13.546-33.945-20.286 3.285 19.936 7.157 39.499 11.627 58.532zM281.259 411.21c-16.403 13.197-31.428 26.28-44.952 39.149 13.795 12.971 28.73 25.874 44.76 38.641-0.384-12.406-0.553-25.072-0.553-38.020-0.023-13.727 0.237-27.014 0.745-39.77zM310.033 703.757c-10.216-40.617-17.689-82.6-22.261-125.102-35.368-26.337-67.89-53.836-96.993-81.967-31.62 35.232-54.558 69.076-68.331 100.831-14.122 32.568-15.319 58.092-3.579 78.129 11.424 19.688 34.227 31.349 69.685 35.718 10.736 1.309 22.182 1.976 34.058 1.976 26.246-0.023 55.608-3.24 87.42-9.584zM122.787 303.459c13.625 31.789 36.316 65.599 67.495 100.684 29.396-28.459 62.088-56.128 97.489-82.453 4.561-42.4 12-83.864 22.205-123.612-46.239-9.494-86.98-12.305-121.184-8.297-35.232 4.177-57.911 15.883-69.471 36.113-11.661 19.62-10.532 44.986 3.466 77.565zM394.134 253.202c10.611-6.581 22.137-13.14 34.498-19.721-19.292-7.439-38.043-13.863-56.094-19.191-4.391 19.315-8.117 38.709-11.153 58.024 10.916-6.773 21.9-13.174 32.749-19.112zM645.512 214.222c-18.164 5.34-36.925 11.774-56.207 19.202 10.961 5.859 22.544 12.384 34.589 19.518 11.266 6.502 22.239 13.027 32.884 19.518-3.364-20.794-7.146-40.267-11.266-58.239zM707.825 198c9.979 39.872 17.441 81.505 22.284 124.165 35.221 26.133 67.721 53.61 96.981 81.945 31.27-35.503 53.938-69.46 67.574-101.158 13.987-32.658 15.274-58.092 3.895-77.723-11.277-19.45-34.623-31.439-69.414-35.706-10.228-1.264-21.155-1.885-32.466-1.885-26.562 0-56.353 3.477-88.854 10.363z" />
<glyph unicode="&#xe930;" glyph-name="resource" d="M515.567-49.505c-275.806 0-500.226 224.42-500.226 500.203 0 275.84 224.42 500.226 500.226 500.226s500.237-224.386 500.237-500.226c-0.011-275.783-224.431-500.203-500.237-500.203zM515.567 853.863c-222.309 0-403.177-180.845-403.177-403.165 0-222.286 180.857-403.143 403.177-403.143 222.298 0 403.177 180.857 403.177 403.143 0 222.32-180.879 403.165-403.177 403.165zM477.332 133.214l-0.045 73.456-6.739 0.689c-97.647 9.911-172.288 52.131-193.252 108.53l81.753 20.004c13.874-17.565 54.31-38.054 109.783-45.448l8.478-1.151v128.522l-6.288 1.039c-75.939 12.192-118.701 30.57-137.474 40.493l-3.138 1.682c-38.811 26.224-59.3 59.153-59.3 95.277 0.023 71.3 82.058 129.414 199.449 141.256l6.751 0.643v71.627h82.080l0.023-72.112 6.626-0.779c87.883-10.047 156.812-46.656 182.618-96.394l-79.529-28.052c-15.206 15.804-50.664 33.742-101.113 41.328l-8.613 1.298v-134.155l6.175-1.14c54.412-9.697 98.957-22.352 128.782-36.609 13.501-6.502 23.718-12.869 31.089-19.462 2.743-2.54 5.136-5.080 7.383-7.462 17.915-20.5 27.127-43.27 27.127-67.597 0-69.821-79.732-127.709-193.929-140.703l-6.638-0.745-0.034-74.088-82.024 0.056zM559.413 290.048l8.625 1.321c64.718 9.832 109.839 38.122 109.839 57.347 0.102 19.123-44.997 47.266-109.839 57.042l-8.625 1.309v-117.019zM468.821 614.475c-71.514-9.528-115.551-40.244-115.664-58.069 0-17.825 44.037-48.462 115.664-58.013l8.478-1.129v118.351l-8.478-1.14z" />
<glyph unicode="&#xe931;" glyph-name="QS" d="M601.949 90.588c192.45 43.033 336.336 214.858 336.336 420.279 0 237.82-192.857 430.687-430.687 430.687-237.82 0-430.687-192.857-430.687-430.687 0-162.727 90.31-304.344 223.505-377.619-61.885-21.708-106.577-57.189-122.934-74.043 95.333 14.314 143.152 21.844 282.602-69.076 104.974-68.432 360.596-33.494 439.888 49.546-116.071-42.965-186.919-2.258-298.022 50.912zM367.042 215.87c-27.973 15.025-60.858 46.126-68.568-2.077l-34.261 1.479v170.776h32.726c39.781-140.714 91.54-163.607 200.804-172.029 32.037-2.495 70.453 10.374 90.716 36.203 13.885 17.644 18.367 54.039 12.892 77.35-8.794 37.253-59.559 70.769-143.66 115.010-138.829 73.061-201.323 108.722-209.078 188.86-12.44 128.364 104.432 201.605 258.658 208.841 47.909 2.224 93.933-9.934 139.653-32.929 20.692-10.442 69.437-38.009 75.657-5.667h39.793v-165.267l-35.593 1.389c-13.287 115.179-117.335 167.942-210.478 167.942-77.204 0-101.519-43.394-93.064-97.817 5.78-37.298 36.372-66.841 135.815-117.787 134.392-68.872 210.106-123.465 212.623-215.773 3.398-124.323-92.895-185.056-247.121-191.897-58.442-2.608-111.013 8.489-157.512 33.392z" />
<glyph unicode="&#xe932;" glyph-name="ok" d="M469.317 249.307c-8.737-0.034-17.114 2.043-23.379 4.696v0c-6.322 2.63-10.815 5.633-14.325 8.184v0c-6.468 4.832-10.216 8.647-14.066 12.418v0l-143.649 133.207c-21.37 19.789-22.645 53.102-2.845 74.449v0c19.744 21.358 53.147 22.634 74.404 2.845v0l122.483-113.565 234.422 246.049c20.083 21.087 53.418 21.878 74.551 1.84v0c20.997-20.083 21.844-53.43 1.772-74.494v0l-256.694-269.507c-3.116-3.014-6.062-5.994-10.273-9.528v0c-4.177-3.42-9.539-7.834-19.021-11.898v0c-6.164-2.63-14.495-4.696-23.164-4.696v0c-0.102 0-0.102 0-0.214 0v0zM513.682-46.728c-275.896 0-500.361 224.51-500.361 500.35 0 275.919 224.488 500.361 500.361 500.361 275.908 0 500.373-224.454 500.373-500.361 0-275.84-224.476-500.35-500.373-500.35zM513.682 856.911c-222.377 0-403.278-180.902-403.278-403.29 0-222.331 180.902-403.256 403.278-403.256 222.365 0 403.301 180.913 403.301 403.256 0 222.388-180.936 403.29-403.301 403.29z" />
<glyph unicode="&#xe933;" glyph-name="manger" d="M901.111 880.415h-515.646c7.247-17.181 11.819-35.718 13.501-55.055h502.156c30.355 0 55.055-24.7 55.055-55.055v-389.393c0-30.355-24.7-55.066-55.055-55.066h-438.533v-55.044h438.522c60.553 0 110.121 49.535 110.121 110.11v389.393c0.011 60.575-49.569 110.11-110.121 110.11zM297.616 623.235h-163.020c-61.332 0-111.487-50.167-111.487-111.465v-212.77c0-50.844 34.543-93.933 81.324-107.186v-238.542h55.055l0.169 289.33h-25.061c-31.112 0-56.432 25.275-56.432 56.398v212.77c0 31.112 25.332 56.421 56.432 56.421h163.009c31.112 0 56.421-25.309 56.421-56.421v-212.77c0-10.329-2.98-19.868-7.846-28.188-9.787-16.786-27.804-28.211-48.575-28.211h-25.084l0.124-289.319h55.055v238.779c37.749 10.736 67.574 40.662 77.61 78.739 2.371 9.042 3.782 18.446 3.782 28.199v212.77c-0.011 61.298-50.156 111.465-111.476 111.465zM216.089 679.87c71.582 0 129.595 58.024 129.595 129.606 0 71.559-58.013 129.595-129.595 129.595-71.57 0-129.583-58.035-129.583-129.595-0.011-71.582 58.013-129.606 129.583-129.606zM216.089 884.004c41.091 0 74.539-33.437 74.539-74.539s-33.437-74.539-74.539-74.539c-41.102 0-74.539 33.437-74.539 74.539s33.448 74.539 74.539 74.539zM493.746 401.152c-4.245 0-8.433 1.174-12.113 3.42-10.95 6.694-14.416 21.053-7.733 32.015l96.462 157.974c4.199 6.875 11.526 11.052 19.597 11.153 0.011 0 0.045 0 0.045 0 8.139 0 15.669-4.199 19.834-10.713l44.771-69.809 58.882 61.986c4.448 4.662 10.431 7.247 16.899 7.247 5.588 0 10.984-2.009 15.172-5.644l36.079-31.112 72.146 186.998c3.466 8.907 12.181 14.901 21.765 14.901 2.833 0 5.633-0.531 8.342-1.547 11.977-4.64 17.949-18.13 13.343-30.107l-84.033-217.838c-2.721-7.067-8.726-12.372-16.086-14.224-1.829-0.463-3.748-0.7-5.633-0.7-5.61 0-10.973 2.021-15.195 5.667l-44.297 38.212-64.052-67.405c-4.403-4.628-10.532-7.247-16.831-7.247-0.722 0-1.468 0.023-2.213 0.102-7.213 0.677-13.524 4.549-17.43 10.611l-40.707 63.476-77.057-126.23c-4.312-7.010-11.752-11.187-19.958-11.187z" />
<glyph unicode="&#xe934;" glyph-name="logo" d="M995.981 317.265c34.814 132.789 21.629 323.941-131.085 475.255-145.974 144.846-328.999 138.106-328.999 138.106s200.138-87.296 281.281-274.248c53.057-121.546 66.795-233.27-13.456-361.849-1.151-1.671-2.551-3.635-3.658-5.622l-336.855 337.702 121.546 117.617-66.547 66.536c-98.528-60.632-167.017-20.783-167.017-20.783l-226.249-214.734 140.635-138.648 78.050 62.585 326.188-328.152c-137.531-73.828-337.126-70.442-535.323 112.007l-80.85-66.242c0 0 21.9-38.178 65.971-83.943-7.022 2.246-14.314 3.364-22.171 3.364-42.671 0-77.475-34.792-77.475-77.463 0-42.965 34.803-77.768 77.475-77.768 42.942 0 77.757 34.803 77.757 77.768 0 10.081-2.246 19.925-5.904 28.91 48.846-39.014 113.136-76.368 193.692-94.329 100.21-22.431 216.134-33.403 332.904 6.435 33.437 11.255 66.276 26.675 97.997 46.329l79.721-80.285 125.474 123.521-76.075 76.357c30.875 42.671 57.55 92.613 72.97 151.574z" />
<glyph unicode="&#xe935;" glyph-name="law" d="M853.371 716.536v-40.007l-0.44-0.034 133.5-314.515h22.927c0-184.492-335.512-184.492-335.512 0h12.282l131.785 310.44-259.979-30.084v-498.747h112.402l24.372-87.725h-353.551l29.249 87.725h112.684v497.268l-272.815 31.552 131.785-310.44h12.282c0-184.492-335.49-184.492-335.49 0h22.927l133.5 314.515-0.429 0.034v40.007c226.158 0.011 452.328 0.011 678.52 0.011v0zM965.276 361.969l-129.008 303.904-128.985-303.904h257.992zM471.191 746.146h96.090l-47.164 93.403-48.925-93.403zM320.927 361.969l-129.019 303.904-128.996-303.904h258.015z" />
<glyph unicode="&#xe936;" glyph-name="knowledg" d="M787.467 355.037l55.631 26.856c0.282 0.643 0.542 1.264 0.813 1.874v139.867l-55.27-26.63-1.174-141.967zM187.122 512.346v-141.357c98.946-47.413 197.914-94.825 296.871-142.238 16.99-6.198 33.448-5.069 49.704 0l182.482 88.12v141.448l-208.458-100.424-320.6 154.452zM763.569 524.041l-4.854 3.217-195.396 107.751c1.174 3.996 1.784 8.252 1.784 12.666 0 25.287-20.512 45.821-45.844 45.821-25.264 0-45.81-20.512-45.81-45.821 0-25.321 20.523-45.81 45.81-45.81 12.102 0 23.074 4.64 31.247 12.26l193.308-107.164 19.755 17.080zM1012.711 647.675l-505.012 247.945-490.529-236.296v-22.036l490.529-236.307 208.458 101.824v6.502l-168.586 88.752c-9.618-6.356-20.929-9.753-32.647-9.753-32.737 0-59.345 26.562-59.345 59.345 0 32.794 26.585 59.356 59.345 59.356 32.805 0 59.401-26.562 59.401-59.356 0-1.772-0.079-3.533-0.237-5.272l199.28-111.634 239.343 116.929zM763.569 524.041l3.68-211.054h-20.387l-3.059 193.963zM757.067 291.324c14.924 0 27.082 12.147 27.082 27.059s-12.158 27.082-27.082 27.082c-14.89 0-27.048-12.169-27.048-27.082s12.158-27.059 27.048-27.059v0zM739.242 271.264h49.58l24.801-285.447h-99.228z" />
<glyph unicode="&#xe937;" glyph-name="IDEA" d="M819.042 858.898c-4.832 3.375-119.92 82.712-286.587 82.712-96.699 0-190.825-26.811-278.459-78.965-6.152-3.229-149.643-81.234-104.59-296.927 0.316-27.872-3.093-58.837-7.484-68.41l-100.154-117.764c-2.066-2.416-3.691-5.17-4.798-8.15-1.795-4.707-10.002-29.238 3.917-51.352 6.367-10.103 19.326-22.521 45.155-25.219l47.074-9.674c7.778-17.452 18.581-45.787 20.015-67.055 2.055-30.57-4.109-68.714-5.723-77.949-10.431-29.757-16.527-84.575 23.052-113.892 2.021-1.49 4.233-2.709 6.57-3.612 0.023 0 0.045-0.023 0.090-0.056 7.913-4.087 26.382-13.671 72.383-13.671 35.311 0 81.030 5.543 136.153 16.561 4.504-13.038 10.69-37.388 15.793-79.585h56.139c-10.51 92.635-27.68 122.246-37.614 131.559-6.672 6.243-15.985 8.873-24.925 6.909-60.812-13.106-109.783-19.71-145.557-19.71-32.387 0-42.762 5.407-46.679 7.417-0.282 0.135-0.587 0.282-0.903 0.463-12.068 12.011-4.256 42.66-1.411 50.461 0.576 1.513 1.016 3.071 1.309 4.662 0.305 1.569 5.565 29.78 7.055 61.456l57.403-0.937c0.158 0 0.305 0 0.474 0 15.183 0 27.635 12.169 27.872 27.409 0.248 15.375-12.011 28.075-27.409 28.335l-61.851 1.027c-7.823 36.824-25.795 72.699-28.211 77.418-3.849 7.53-10.905 12.88-19.18 14.596l-62.19 12.779c-1.095 0.248-2.213 0.395-3.319 0.485-0.858 0.102-1.592 0.181-2.224 0.282l95.965 112.831c0.914 1.072 1.75 2.213 2.506 3.443 16.572 26.935 16.73 85.377 16.403 102.66-0.034 1.772-0.248 3.533-0.621 5.283-37.614 174.941 70.938 236.126 76.684 239.276 80.206 47.706 164.748 71.875 251.287 71.875 148.39 0 253.59-71.909 254.041-72.214 230.188-169.59 89.079-428.305 77.858-447.982-56.387-81.651-83.966-203.953-85.117-209.157-0.305-1.411-0.519-2.856-0.598-4.324-4.583-74.393 6.164-156.992 14.359-206.301h56.624c-7.744 44.579-19.586 127.924-15.511 200.589 3.793 15.974 29.768 120.925 76.639 188.296 0.429 0.61 0.801 1.219 1.185 1.851 1.919 3.15 182.652 319.279-92.895 522.273zM604.624 306.304h-119.107c-7.281 0-13.174-5.904-13.174-13.174 0-7.293 5.893-13.174 13.174-13.174h119.107c7.27 0 13.174 5.881 13.174 13.174 0 7.27-5.904 13.174-13.174 13.174zM574.494 254.331h-58.826c-7.293 0-13.174-5.893-13.174-13.174s5.904-13.163 13.174-13.163h58.826c7.281 0 13.174 5.881 13.174 13.163s-5.893 13.174-13.174 13.174zM545.031 678.019c-87.521 0-158.505-69.663-158.505-155.592 0-40.741 12.519-69.516 29.486-90.355 29.136-31.518 58.713-45.347 63.747-99.318h130.543c5.046 53.971 34.6 67.8 63.894 99.318 19.676 23.255 29.452 49.614 29.452 90.355-0.011 85.93-71.074 155.592-158.618 155.592zM654.43 449.58c-5.712-6.141-11.718-11.74-17.486-17.181-19.642-18.491-39.86-37.479-48.891-73.264h-28.978v106.52l41.114 41.249c5.125 5.148 5.103 13.501-0.034 18.638-5.193 5.148-13.524 5.136-18.66-0.034l-36.417-36.542-36.406 36.53c-5.159 5.17-13.49 5.193-18.66 0.034-5.159-5.148-5.17-13.49-0.023-18.638l42.717-42.863v-104.872h-30.705c-9.008 35.695-29.136 54.683-48.688 73.128-5.746 5.407-11.684 11.018-17.373 17.102-15.511 19.36-23.052 43.281-23.052 73.072 0 71.254 59.277 129.222 132.134 129.222 72.914 0 132.259-57.968 132.259-129.222-0.023-32.399-6.638-53.554-22.848-72.88zM544.41 705.259c7.293 0 13.174 5.893 13.174 13.185v33.798c0 7.281-5.881 13.174-13.174 13.174-7.304 0-13.185-5.904-13.185-13.174v-33.798c0-7.27 5.893-13.185 13.185-13.185zM740.213 681.959c-5.159 5.125-13.524 5.114-18.649-0.045l-27.353-27.477c-5.125-5.159-5.125-13.501 0.056-18.649 2.563-2.563 5.938-3.838 9.279-3.838 3.398 0 6.785 1.287 9.347 3.872l27.364 27.477c5.136 5.17 5.103 13.513-0.045 18.66zM395.918 635.788c5.159 5.125 5.17 13.467 0.034 18.649l-27.353 27.477c-5.125 5.159-13.49 5.17-18.649 0.023-5.17-5.136-5.182-13.479-0.034-18.638l27.375-27.477c2.574-2.585 5.938-3.872 9.324-3.872 3.364 0 6.728 1.276 9.302 3.838z" />
<glyph unicode="&#xe938;" glyph-name="netdisk" d="M510.607 109.548c-241.684 0-412.846 73.825-445.44 169.651-3.052-9.789-5.197-19.471-5.197-28.826 0-9.6 0-103.060 0-112.655 0-108.897 186.204-197.156 450.637-197.156 264.428 0 450.637 88.259 450.637 197.156 0 9.595 0 103.055 0 112.655 0 9.354-2.145 19.036-5.202 28.826-32.599-95.826-203.756-169.651-445.435-169.651zM510.607 363.039c-241.132 0-411.94 73.492-445.189 168.986-3.215-9.216-5.443-18.565-5.443-28.165s0-103.060 0-112.66c0-108.892 186.204-197.151 450.637-197.151 264.428 0 450.637 88.259 450.637 197.151 0 9.6 0 103.060 0 112.66s-2.232 18.949-5.443 28.165c-33.265-95.493-204.073-168.986-445.199-168.986zM510.607 954.496c-264.428 0-450.637-88.264-450.637-197.151 0-9.6 0-103.060 0-112.66 0-108.892 186.204-197.151 450.637-197.151 264.428 0 450.637 88.264 450.637 197.151 0 9.6 0 103.060 0 112.66-0.005 108.887-186.214 197.151-450.637 197.151z" />
<glyph unicode="&#xe939;" glyph-name="date" d="M922.68 759.772c-14.746 53.565-63.775 93.763-122.148 93.763h-58.511v-78.003c0-53.893-43.74-97.69-97.551-97.69s-97.628 43.796-97.628 97.69v78.008h-164.859v-78.003c0-53.893-43.807-97.69-97.536-97.69-53.852 0-97.659 43.796-97.659 97.69v78.003h-56.494c-69.965 0-127.171-57.221-127.171-127.114v-560.282c0-64.148 48.374-116.966 110.331-125.317 39.675-56.438 104.95-93.389 178.872-93.389h508.257c120.561 0 218.675 98.196 218.675 218.706v412.273c0 75.295-38.339 141.962-96.579 181.356zM55.967 166.164v453.12c20.997-15.171 46.546-24.515 74.327-24.515h670.239c27.822 0 53.381 9.344 74.378 24.622v-453.228c0-40.975-33.403-74.373-74.327-74.373h-670.29c-41.057 0-74.327 33.398-74.327 74.373zM973.455 166.139c0-95.319-77.522-172.815-172.872-172.815h-508.257c-44.872 0-85.432 17.587-116.239 45.701h624.44c69.893 0 127.171 57.221 127.171 127.114v528.384c28.196-30.746 45.757-71.291 45.757-116.106v-412.278zM284.431 951.035c-28.247 0-51.057-22.932-51.057-51.098v-124.401c0-28.221 22.81-51.046 51.057-51.046 28.073 0 50.964 22.825 50.964 51.046v124.401c0 28.17-22.892 51.098-50.964 51.098zM644.495 951.035c-28.221 0-51.046-22.932-51.046-51.098v-124.401c0-28.221 22.825-51.046 51.046-51.046 28.114 0 50.995 22.825 50.995 51.046v124.401c0 28.17-22.881 51.098-50.995 51.098zM330.819 323.005c-30.597 2.284-41.057 13.24-41.057 28.759 0 24.141 15.964 31.442 37.443 31.442 15.452 0 31.416 9.103 31.416 30.531 0 23.286-18.673 31.017-42.44 31.017-17.306 0-26.89-5.448-40.115-25.964-9.559-14.582-17.777-18.739-31.954-18.739-27.791 0-40.105 21.478-40.105 40.627 0 39.122 44.211 72.499 123.556 72.499 70.292 0 119.475-34.637 119.475-89.871 0-30.556-13.588-53.325-38.733-62.024 30.638-10.388 46.577-36.92 46.577-68.874 0-41.508-21.427-109.501-138.22-109.501-72.98 0-119.572 39.716-119.572 79.831 0 25.615 15.575 43.822 42.035 43.822 49.249 0 24.648-55.229 74.757-55.229 32.005 0 47.017 11.412 47.017 42.020 0.005 22.779-11.407 28.206-30.080 29.655zM634.214 513.167c88.499 0 135.117-62.991 135.117-163.768 0-120.909-56.632-166.508-135.117-166.508-78.408 0-134.973 45.594-134.973 166.508 0 100.777 46.551 163.768 134.973 163.768zM634.214 442.040c-29.645 0-40.98-29.619-40.98-93.978 0-76.554 14.556-93.957 40.98-93.957 26.476 0 41.027 17.398 41.027 93.957 0 64.358-11.331 93.978-41.027 93.978z" />
<glyph unicode="&#xe93a;" glyph-name="goodideal" d="M622.479 89.211h-224.722c-13.737 0-24.873-11.136-24.873-24.868 0-13.742 11.136-24.868 24.873-24.868h224.722c13.732 0 24.868 11.131 24.868 24.868 0.005 13.732-11.136 24.868-24.868 24.868zM565.617-8.863h-110.981c-13.742 0-24.868-11.131-24.868-24.873 0-13.727 11.126-24.868 24.868-24.868h110.976c13.722 0 24.873 11.146 24.873 24.868 0.005 13.742-11.151 24.873-24.868 24.873zM509.998 790.487c-165.125 0-299.023-131.395-299.023-293.55 0-76.836 23.624-131.164 55.619-170.47 54.973-59.428 110.787-85.524 120.253-187.392h246.292c9.533 101.868 65.275 127.959 120.545 187.392 37.176 43.889 55.578 93.635 55.578 170.47 0.005 162.156-134.077 293.55-299.264 293.55zM716.436 359.491c-10.798-11.561-22.098-22.17-33.009-32.435-37.059-34.857-75.172-70.717-92.227-138.235h-54.692v200.934l77.548 77.839c9.702 9.733 9.672 25.482-0.061 35.174-9.743 9.713-25.477 9.672-35.169-0.056l-68.7-68.956-68.7 68.956c-9.718 9.743-25.457 9.769-35.185 0.056-9.733-9.692-9.759-25.441-0.072-35.174l80.599-80.891v-197.878h-57.948c-16.988 67.359-54.932 103.158-91.853 137.979-10.824 10.214-22.026 20.762-32.753 32.271-29.256 36.531-43.489 81.649-43.489 137.866 0 134.436 111.831 243.809 249.277 243.809 137.574 0 249.518-109.368 249.518-243.809 0-61.046-12.498-100.966-43.085-137.452zM508.851 841.912c13.747 0 24.873 11.146 24.873 24.873v63.775c0 13.742-11.131 24.873-24.873 24.873s-24.873-11.131-24.873-24.873v-63.78c0-13.722 11.131-24.868 24.873-24.868zM878.269 797.901c-9.728 9.702-25.498 9.661-35.185-0.072l-51.62-51.825c-9.687-9.728-9.661-25.482 0.087-35.19 4.859-4.828 11.203-7.245 17.546-7.245 6.385 0 12.769 2.442 17.623 7.327l51.635 51.825c9.682 9.754 9.656 25.487-0.087 35.18zM228.705 710.835c9.728 9.687 9.759 25.441 0.056 35.169l-51.604 51.825c-9.692 9.728-25.457 9.769-35.174 0.072-9.743-9.692-9.769-25.441-0.087-35.174l51.63-51.825c4.859-4.884 11.228-7.327 17.613-7.327 6.354 0 12.708 2.412 17.567 7.26z" />
<glyph unicode="&#xe93b;" glyph-name="arrow-right-1" d="M289.367 960c18.514 0 35.948-7.137 48.712-20.219l436.362-441.083c26.394-26.813 26.332-70.344-0.323-97.075l-436.265-436.070c-12.959-13.051-30.285-20.188-48.486-20.188-18.483 0-35.717 7.142-48.829 20.188-12.897 12.918-20.065 30.28-20.065 48.681 0 18.248 7.168 35.61 20.163 48.671l373.99 373.842c7.557 7.685 7.619 19.907 0 27.622l-374.349 378.388c-12.861 13.179-20.060 30.413-19.804 48.896 0.128 18.299 7.363 35.589 20.444 48.486 12.928 12.851 30.065 19.86 48.451 19.86v0z" />
<glyph unicode="&#xe93c;" glyph-name="arrow-left-1" d="M725.268-55.66c-18.514 0-35.948 7.137-48.712 20.219l-436.362 441.083c-26.394 26.813-26.332 70.344 0.323 97.070l436.265 436.070c12.959 13.056 30.285 20.188 48.486 20.188 18.483 0 35.717-7.137 48.829-20.188 12.897-12.918 20.065-30.28 20.065-48.676 0-18.253-7.168-35.615-20.163-48.671l-373.99-373.837c-7.557-7.685-7.619-19.901 0-27.617l374.349-378.394c12.861-13.179 20.060-30.413 19.804-48.896-0.128-18.299-7.363-35.589-20.444-48.486-12.923-12.856-30.065-19.866-48.451-19.866v0z" />
<glyph unicode="&#xe93d;" glyph-name="arrow-up-1" d="M0 233.708c0 18.514 7.137 35.948 20.224 48.712l441.083 436.357c26.813 26.394 70.344 26.332 97.070-0.323l436.070-436.265c13.056-12.959 20.188-30.285 20.188-48.486 0-18.483-7.137-35.717-20.188-48.829-12.918-12.897-30.28-20.065-48.676-20.065-18.253 0-35.615 7.168-48.671 20.163l-373.847 373.99c-7.685 7.557-19.901 7.619-27.617 0l-378.388-374.344c-13.179-12.861-30.413-20.060-48.896-19.804-18.294 0.128-35.589 7.363-48.481 20.444-12.861 12.923-19.871 30.065-19.871 48.451v0z" />
<glyph unicode="&#xe93e;" glyph-name="arrow-down-1" d="M6.17 668.744c0 18.447 7.030 35.635 19.932 48.599 12.933 13.128 30.285 20.383 48.635 20.511 18.545 0.256 35.83-6.963 49.055-19.866l379.587-375.521c7.741-7.639 19.999-7.572 27.699 0l375.030 375.168c13.092 13.025 30.5 20.219 48.819 20.219 18.452 0 35.86-7.194 48.829-20.127 13.092-13.158 20.25-30.444 20.25-48.988 0-18.253-7.158-35.635-20.25-48.635l-437.432-437.637c-26.829-26.737-70.497-26.798-97.393-0.323l-442.476 437.74c-13.123 12.805-20.285 30.285-20.285 48.86v0z" />
<glyph unicode="&#xe93f;" glyph-name="paper-clip" d="M294.369-55.731c-60.918 0-124.14 23.332-183.163 82.355-94.259 94.264-94.587 189.322-78.259 252.467 19.635 75.95 69.217 133.929 97.024 161.741 29.256 29.266 132.659 133.12 230.845 231.747 89.16 89.559 174.019 174.802 195.282 196.055 51.712 51.712 109.978 79.068 168.54 78.167 54.518-0.527 107.013-24.499 151.813-69.309 39.875-39.869 58.737-94.218 53.115-153.016-5.299-55.501-32.2-110.049-75.74-153.58l-322.191-322.212c-90.112-90.107-169.062-75.392-212.895-31.555-28.534 28.529-82.98 106.793 27.325 217.124l269.64 269.635c15.882 15.887 41.62 15.887 57.498 0 15.892-15.872 15.892-41.62 0-57.492l-269.635-269.64c-64.727-64.742-39.47-89.984-27.336-102.129 28.851-28.815 73.718 7.393 97.889 31.57l322.196 322.202c30.203 30.208 48.778 67.077 52.296 103.813 2.299 24.202-0.963 59.069-29.686 87.788-20.526 20.526-53.683 45.087-95.094 45.496-0.348 0-0.707 0-1.055 0-36.393 0-73.124-18.284-109.194-54.359-21.243-21.243-106.056-106.429-195.154-195.922-98.227-98.693-201.687-202.619-230.963-231.88-17.669-17.684-60.431-65.193-75.791-124.595-16.256-62.868 2.401-119.982 57.037-174.612 31.872-31.877 147.333-124.385 294.83 23.122 55.25 55.25 455.665 451.84 459.689 455.844 15.949 15.811 41.697 15.683 57.498-0.276 15.805-15.954 15.683-41.697-0.271-57.498-4.035-4.004-404.306-400.456-459.412-455.572-58.557-58.573-140.303-105.477-226.678-105.477z" />
<glyph unicode="&#xe940;" glyph-name="picture" d="M961.802 875.628h-902.395c-31.145 0-56.402-25.252-56.402-56.402v-733.179c0-31.176 25.257-56.402 56.402-56.402h902.395c31.15 0 56.402 25.226 56.402 56.402v733.179c-0.005 31.145-25.252 56.402-56.402 56.402zM933.601 114.243h-845.993v676.782h845.993v-676.782zM666.614 505.421l-184.207-221.983-125.414 140.989-212.987-253.783h733.199zM285.010 509.025c46.705 0 84.598 37.893 84.598 84.598s-37.893 84.598-84.598 84.598c-46.71 0-84.598-37.893-84.598-84.598-0.005-46.705 37.888-84.598 84.598-84.598z" />
<glyph unicode="&#xe941;" glyph-name="notebook-2" d="M938.353 94.925v795.223c0 35.133-28.457 63.621-63.621 63.621h-63.616v-572.554l-109.343 63.601-113.326-63.601v572.554h-445.322c-35.103 0-63.616-28.488-63.616-63.621v-127.237h63.616v-63.621h-63.621v-190.853h63.616v-63.621h-63.616v-190.843h63.616v-63.621h-63.616v-190.848c0-35.169 28.513-63.621 63.616-63.621h731.612c35.164 0 63.621 28.452 63.621 63.621v31.811h-763.418v63.611h763.418z" />
<glyph unicode="&#xe942;" glyph-name="cabinet-1" d="M732.237 20.49h137.277v-81.853h-137.277v81.853zM146.181 20.49h137.277v-81.853h-137.277v81.853zM51.891 956.918v-885.852h911.918v885.852h-911.918zM881.27 164.516h-746.849v300.887h746.849v-300.887zM881.27 562.591h-746.849v300.892h746.849v-300.892zM387.384 748.278h240.937v-70.461h-240.937v70.461zM387.384 350.213h240.937v-70.487h-240.937v70.487z" />
<glyph unicode="&#xe943;" glyph-name="books" d="M561.244 197.944c7.772-1.234 15.734 0.85 20.060 3.123l419.625 220.959c14.198 7.47 19.64 25.062 12.175 39.255-7.485 14.193-25.057 19.676-39.255 12.17l-410.772-216.837-455.7 97.572c-26.906 5.786-44.037 32.251-38.272 59.136 5.786 26.936 32.215 44.058 59.162 38.277 0 0 438.861-93.44 439.537-93.44 4.552 0 9.175 1.080 13.501 3.354l419.625 220.964c14.198 7.47 19.64 25.047 12.175 39.255-7.485 14.188-25.057 19.666-39.255 12.17l-411.315-216.586-455.158 97.347c-26.906 5.765-44.037 32.251-38.272 59.151 5.786 26.895 32.215 44.017 59.162 38.257 0 0 410.429-87.572 412.452-87.572 4.941 0 9.472 1.618 13.66 3.917 0.036-0.097 421.069 218.117 421.069 218.117 28.375 14.71 25.923 31.78-5.443 37.944l-408.535 80.169c-31.365 6.164-80.497-0.358-109.158-14.479l-377.533-185.892c-6.154-3.036-10.609-6.2-13.947-9.354-23.977-14.92-42.148-39.112-48.553-68.895-8.407-39.168 5.673-77.901 33.469-102.902-16.379-14.7-28.488-34.452-33.469-57.6-8.412-39.194 5.709-77.932 33.546-102.932-16.415-14.7-28.57-34.452-33.546-57.677-12.498-58.255 24.637-115.666 82.924-128.123 0 0 467.098-99.881 469.125-99.651 5.069 0.543 12.652 1.080 16.973 3.359l419.625 220.979c14.198 7.444 19.64 25.037 12.175 39.235-7.485 14.193-25.057 19.676-39.255 12.191l-411.315-216.627-455.158 97.341c-26.906 5.745-44.037 32.256-38.272 59.141 5.786 26.89 32.215 44.027 59.162 38.272 0.005 0.005 432.328-92.969 432.983-93.087zM536.975 768.845l195.523-39.465-86.036-40.74-195.476 39.424 85.99 40.781z" />
<glyph unicode="&#xe944;" glyph-name="flag" d="M992.645 491.402l-118.902 430.126c-1.014 3.615-2.637 7.040-4.818 10.081-5.453 7.736-19.528 20.705-52.634 20.705-29.932 0-71.209-10.685-122.737-31.739-45.117-18.452-67.502-25.651-79.739-25.651-5.453 0-10.307 1.49-20.772 4.849-16.266 5.233-40.806 13.128-85.924 17.818-6.564 0.696-13.123 1.014-19.692 1.014-127.903 0-252.795-125.716-258.028-131.072-8.115-8.243-11.223-20.198-8.151-31.36l118.298-428.785c3.077-11.162 11.858-19.845 23.081-22.83 2.729-0.696 5.453-1.009 8.212-1.009 8.53 0 16.865 3.359 23.050 9.574 1.044 1.075 109.389 108.611 209.772 108.611 4.439 0 8.909-0.225 13.343-0.671 34.596-3.61 54.886-7.793 71.245-11.162 14.868-3.062 26.634-5.468 40.709-5.468 24.955 0 51.62 7.849 105.805 26.685 61.128 21.212 90.936 24.381 103.27 24.381 2.98 0 5.012-0.189 6.216-0.379 5.166-3.169 11.095-4.849 17.121-4.849 4.982 0 10.020 1.142 14.71 3.517 13.768 7.014 20.685 22.743 16.563 37.612zM147.922 743.977c-7.48 26.762-31.739 45.148-59.039 45.148-5.647 0-11.259-0.758-16.676-2.314-32.466-9.098-51.553-42.993-42.424-75.525l193.029-720.159c7.547-26.762 31.8-45.148 59.162-45.148 5.55 0 11.095 0.758 16.522 2.278 32.532 9.134 51.589 42.993 42.516 75.525l-193.091 720.195z" />
<glyph unicode="&#xe945;" glyph-name="computer-notebook" d="M964.68 820.219c0 31.314-25.385 56.699-56.694 56.699h-793.779c-31.314 0-56.699-25.385-56.699-56.699v-595.318h907.172v595.318zM879.636 309.949h-737.080v481.925h737.080v-481.925zM596.142 168.207v-28.349l-28.344-28.349h-113.398l-28.349 28.349v28.349h-425.242v-85.048c0-31.34 25.385-56.694 56.699-56.694h907.172c31.314 0 56.699 25.354 56.699 56.694v85.048h-425.236z" />
<glyph unicode="&#xe946;" glyph-name="mobil-phone-1" d="M772.511 952.607h-522.829c-32.082 0-58.092-26.010-58.092-58.092v-900.413c0-32.113 26.010-58.102 58.092-58.102h522.829c32.087 0 58.097 25.984 58.097 58.102v900.413c0 32.082-26.015 58.092-58.097 58.092zM394.911 894.515h232.371v-58.097h-232.371v58.097zM569.185-5.898l-29.041-29.051h-58.097l-29.046 29.051v58.092l29.046 29.046h58.097l29.041-29.046v-58.092zM743.465 110.28h-464.742v668.052h464.742v-668.052z" />
<glyph unicode="&#xe947;" glyph-name="notebook-1" d="M792.448 222.474h112.538v-112.538h-112.538v112.538zM792.448-58.88h56.269c31.073 0 56.269 25.17 56.269 56.269v56.269h-112.538v-112.538zM848.722 953.979h-675.251c-31.073 0-56.274-25.196-56.274-56.269v-900.321c0-31.099 25.196-56.269 56.274-56.269h562.703v506.419h168.812v450.166c0.005 31.078-25.19 56.274-56.264 56.274zM708.040 588.221h-393.892v56.269h393.892v-56.269zM708.040 700.759h-393.892v56.269h393.892v-56.269zM792.448 391.286h112.538v-112.538h-112.538v112.538z" />
<glyph unicode="&#xe948;" glyph-name="find" d="M638.479 951.409c-208.108 0-376.812-168.704-376.812-376.812 0-208.123 168.704-376.822 376.812-376.822s376.812 168.699 376.812 376.822c0 208.108-168.704 376.812-376.812 376.812zM638.479 284.728c-159.816 0-289.853 130.048-289.853 289.869 0 159.816 130.038 289.853 289.853 289.853s289.853-130.038 289.853-289.853c0-159.816-130.038-289.869-289.853-289.869zM304.696 296.73c-22.641 22.646-59.356 22.646-81.971 0l-204.938-204.933c-22.646-22.646-22.646-59.331-0.031-81.976l40.986-41.042c22.646-22.646 59.356-22.646 82.002 0l204.933 204.933c22.615 22.702 22.615 59.387 0 82.028l-40.98 40.991z" />
<glyph unicode="&#xe949;" glyph-name="time" d="M511.094 956.554c-282.214 0-511.831-229.617-511.831-511.831 0-282.225 229.617-511.816 511.831-511.816 282.209 0 511.831 229.591 511.831 511.816 0 282.209-229.622 511.831-511.831 511.831zM511.094 18.212c-235.53 0-426.527 190.996-426.527 426.511 0 235.535 190.991 426.527 426.527 426.527 235.561 0 426.527-190.991 426.527-426.527 0-235.52-190.966-426.511-426.527-426.511zM767.012 444.718h-255.918v255.918c0 31.406-25.462 56.868-56.868 56.868s-56.868-25.462-56.868-56.868v-312.771c0-31.432 25.462-56.868 56.868-56.868h312.786c31.406 0 56.868 25.441 56.868 56.868 0 31.396-25.467 56.852-56.868 56.852z" />
<glyph unicode="&#xe94a;" glyph-name="forkleft" d="M627.879 302.669c-60.609 0-109.76-48.169-109.76-107.57 0-59.435 49.151-107.593 109.76-107.593 60.632 0 109.794 48.169 109.794 107.593 0 59.401-49.162 107.57-109.794 107.57zM627.879 246.429c28.967 0 52.504-22.961 52.504-51.341 0-28.402-23.537-51.431-52.504-51.431-28.933 0-52.357 23.029-52.357 51.431 0 28.38 23.424 51.341 52.357 51.341zM197.259 283.049c-52.809 0-95.717-41.994-95.717-93.764 0-51.759 42.931-93.742 95.717-93.742 52.775 0 95.525 41.983 95.525 93.742s-42.75 93.764-95.525 93.764zM197.259 234.056c25.219 0 45.64-20.037 45.64-44.771 0-24.711-20.421-44.76-45.64-44.76s-45.798 20.037-45.798 44.76c0 24.734 20.579 44.771 45.798 44.771zM713.696 231.945v580.331h50.201v-475.052l245.993-19.778v-12.056h-245.993v-73.456l-50.201 0.011zM162.67 767.606l-87.634-330.308h-59.221v-59.492h403.583v59.492h-41.068c0.237 0.655 0.508 1.276 0.508 1.953v46.961c0 4.775-6.649 8.67-14.811 8.67h-88.662c0 0-13.874 77.554-30.954 91.382s-55.191 2.811-55.191 2.811l45.11-151.766h-101.44l79.552 300.257h247.787l39.702-149.722c-0.429-0.147-0.801-0.248-1.185-0.44l-95.853-49.862c-3.59-1.851-2.754-5.306 1.84-7.71l5.554-2.879c4.595-2.393 11.232-2.822 14.811-0.96l37.851 19.8 75.691-104.172 7.891-29.531c-35.051-18.514-70.645-37.038-106.306-55.541h-406.879l16.651-161.474h26.246c-0.034 1.084-0.169 2.167-0.169 3.229 0 62.494 53.192 113.124 118.735 113.124 65.554 0 118.78-50.619 118.78-113.124 0-1.061-0.135-2.145-0.169-3.229h177.289c-0.96 6.152-1.671 12.35-1.671 18.739 0 69.539 59.142 125.881 132.078 125.881 28.583 0 55.078-8.658 76.684-23.39v450.589h-57.358v-345.198h-38.528l-89.147 336.37v9.37h-2.529v0.181l-2.348-0.181-345.22 0.169zM505.351 567.864l16.493-62.562-37.512 51.589 21.020 10.973z" />
<glyph unicode="&#xe94b;" glyph-name="fist" d="M517.362 924.971c34.532 3.24 65.587 30.355 101.023 22.013 29.915-26.878 47.514-63.973 72.541-94.78-29.915-17.385-56.308-41.926-89.452-53.531-57.708 16.459-64.673 79.484-84.112 126.298zM430.913 861.461c56.082 45.889 87.815-28.267 126.998-58.634-27.578-36.384-66.062-62.799-92.24-100.334-31.281 44.037-107.288 113.79-34.758 158.968zM271.945 734.948c31.055 14.133 55.157 47.966 90.829 48.429 62.81-49.343 96.18-123.961 141.346-187.698-24.113-17.373-47.729-51.228-81.787-38.935-69.279 41.249-108.665 112.379-150.388 178.204zM199.201 620.695c15.748 22.95 32.895 44.737 51.443 65.576 48.891-50.054 112.402-90.366 141.132-156.879-6.717-27.341-30.13-61.399-60.485-36.835-54.005 29.43-107.525 70.453-132.089 128.138zM681.184 287.937c44.94 110.302 152.94 189.323 173.801 310.745-18.073 77.158-70.927 143.435-126.332 198.117-63.251 12.982-124.176-25.479-174.693-59.085-50.517-28.956-52.594-108.225 1.366-134.641 34.081 19.925 66.524 42.4 97.58 66.276 13.422-15.77 27.33-31.281 41.475-46.577-121.884-49.117-244.243-101.497-349.431-182.132-38.483 29.407-75.318 61.388-118.43 84.101-23.074-10.95-44.5-24.959-65.249-40.222l134.212-160.909-1.309-1.118c74.404-107.548 33.877-250.779 54.017-374.718 55.382 5.825 175.585-0.237 350.842-0.237 1.614 113.756-31.044 227.084-17.847 340.4z" />
<glyph unicode="&#xe94c;" glyph-name="factory" d="M271.787 387.492c-5.046 131.92-15.454 340.829-34.871 517.543h7.778c7.225 0 13.095 5.87 13.095 13.084s-5.881 13.095-13.095 13.095h-96.677c-7.213 0-13.095-5.881-13.095-13.095s5.881-13.084 13.095-13.084h7.789c-19.417-176.714-29.825-385.623-34.893-517.543h150.874zM929.773 390.777l-266.47 102.073-266.47-102.073v-33.471h-370.259v-392.215h968.967v392.215h-65.768v33.471zM206.538 32.022h-101.508v101.474h101.508v-101.474zM206.538 188.89h-101.508v101.508h101.508v-101.508zM384.167 32.022h-101.508v101.474h101.508v-101.474zM384.167 188.89h-101.508v101.508h101.508v-101.508zM561.817 32.022h-101.497v101.474h101.497v-101.474zM561.817 188.89h-101.497v101.508h101.497v-101.508zM739.434 32.022h-101.508v101.474h101.508v-101.474zM739.434 188.89h-101.508v101.508h101.508v-101.508zM917.085 32.022h-101.508v101.474h101.508v-101.474zM917.085 188.89h-101.508v101.508h101.508v-101.508z" />
<glyph unicode="&#xe94d;" glyph-name="cooperate" d="M615.89 196.487c-13.75-5.475-24.135-7.044-35.176 5.949l-65.475 115.551c-6.536 11.526-21.178 15.601-32.737 9.054-11.537-6.525-15.601-21.189-9.065-32.737l48.022-84.733 20.918-35.39 1.321-2.292c1.908-2.28 3.816-4.504 5.78-6.457 16.132-16.098 33.482-21.132 48.858-21.132 17.599 0 32.636 6.356 40.436 9.652 1.343 0.598 2.45 1.061 3.5 1.422l-9.257 14.438-17.125 26.675zM497.855 168.604c-1.468-0.801-13.908-6.638-27.556 10.103l-0.248 0.452-39.996 69.64c-6.593 11.503-21.279 15.477-32.782 8.873-11.526-6.593-15.488-21.302-8.884-32.794l38.867-67.665-0.181-0.113 1.456-2.461 1.039-1.738c18.728-25.851 41.238-33.956 60.27-33.956 12.722 0 23.853 3.522 31.191 7.563l-19.992 36.338-3.183 5.757zM381.356 153.489c-12.022 0.090-27.522 4.628-38.89 23.853l-105.967 181.376h-52.865v293.608h154.102l38.099 48.045h-192.19v56.161h-164.003v-48.034l-1.050-412.445v-48.056h165.052v62.427h25.422l91.981-157.421c21.776-36.903 54.287-47.435 81.064-47.435 9.516 0 18.231 1.366 25.569 3.33l-26.325 44.59zM1016.753 668.841v48.045h-164.33v-48.056l-150.377 65.576v0.745l-186.772-0.124c-5.317-0.068-53.317-2.404-99.691-60.688l-129.369-168.642 6.468-13.332c2.438-5.046 25.208-49.58 70.713-60.372 6.491-1.558 13.005-2.303 19.575-2.303 22.002 0 44.41 8.613 66.852 25.75l88.278 89.328c13.975-1.208 38.19-3.308 57.595-4.933l149.688-286.056c-0.056-0.102-0.102-0.203-0.169-0.282-7.293-13.705-15.635-25.377-22.916-30.886-1.874-1.445-3.68-2.404-5.362-2.89-0.553-0.181-1.14-0.553-1.637-0.643-2.224-0.181-7.315 1.976-14.224 9.494l-96.936 151.608c-7.134 11.165-22.002 14.45-33.178 7.293-11.176-7.134-14.461-21.979-7.293-33.155l55.608-86.98 44.071-68.545c0.621-0.711 1.208-1.343 1.817-2.021 0.237-0.26 0.452-0.519 0.711-0.768 8.478-9.245 17.328-15.928 26.551-20.015 7.168-3.195 14.551-4.978 22.137-4.978 0.779 0 1.58 0.102 2.337 0.124 1.084 0.056 2.134 0.056 3.217 0.169 9.742 1.005 18.581 4.606 26.641 9.889 25.354 16.628 42.231 49.828 50.867 70.69l54.795 0.192v-43.631h165.368v48.011l-1.039 412.388zM852.423 300.027l-76.91-0.248-149.169 285.085 0.056 0.7c-13.050 0.835-94.566 7.959-95.401 8.026l-11.266 0.993-100.379-101.948c-16.515-12.293-31.496-17.023-44.669-13.953-13.129 3.048-24.079 13.648-31.134 22.826l109.918 143.254c31.857 40.019 61.738 42.175 62.19 42.242l175.009 0.124 161.779-70.69-0.023-316.412zM983.214 245.548h-92.409v430.8h92.409v-430.8z" />
<glyph unicode="&#xe94e;" glyph-name="contract" d="M188.894 244.589c-10.86-0.102-20.128 8.986-20.613 20.184-0.508 11.39 8.083 20.568 18.942 20.681 52.504 0.497 105.008 0.993 157.523 1.501 10.961 0 20.139-8.884 20.613-20.060 0.497-11.119-7.891-20.286-18.739-20.387-52.628-0.711-105.222-1.197-157.726-1.919v0zM185.541 331.489c-10.848-0.113-20.026 8.975-20.241 20.173-0.294 11.311 8.297 20.579 19.146 20.692 58.916 0.192 117.945 0.44 176.759 0.711 58.916 0.237 117.945 0.485 176.86 0.711 10.973 0.102 20.139-8.783 20.444-19.902 0.294-10.882-8.207-19.97-19.134-20.060-59.017-0.406-118.035-0.711-176.951-1.106-58.938-0.429-117.967-0.835-176.883-1.219v0zM183.668 418.943c-10.86 0-19.744 9.189-19.936 20.41 0 11.402 8.783 20.591 19.642 20.591 91.879-0.102 183.871-0.158 275.75-0.214 91.868-0.056 183.859-0.214 275.84-0.214 10.758-0.102 19.767-8.884 19.654-19.879 0.192-10.905-8.591-19.767-19.36-19.767-91.969-0.113-183.972-0.248-275.851-0.406-91.868-0.135-183.848-0.305-275.738-0.519v0zM922.401 266.003c16.38 3.533 32.67 7.202 49.027 10.905 17.091 3.861 35.142-7.078 39.985-24.226v0c5.023-17.046-5.023-34.363-22.216-38.337-16.278-3.77-32.455-7.462-48.745-11.097-6.209 20.771-12.226 41.768-18.051 62.754v0zM402.974 156.311c-13.919-9.686-27.070-22.792-41.057-32.602-13.953-9.765-28.865-16.233-42.92-26.122-2.404-1.716-3.161-4.651-2.472-7.078 0.711-2.517 2.879-4.764 5.814-5.136 17.385-2.246 33.866-1.174 51.24-3.42 17.362-2.28 35.627-7.676 53.001-9.9-7.925 27.951-15.815 56.082-23.605 84.259v0zM453.491 157.225c72.948 17.148 145.862 34.194 218.708 51.048 72.812 16.831 145.783 33.482 218.719 50.054 0.79-3.229 1.659-6.265 2.563-9.381-72.824-16.662-145.794-33.166-218.595-50.077-72.846-16.899-145.771-34.013-218.719-51.262-0.892 3.15-1.784 6.389-2.675 9.618v0zM418.857 160.025c80.929 18.976 161.745 38.145 242.606 56.703 80.703 18.559 161.643 36.925 242.493 55.292 7.496-27.443 15.375-54.784 23.39-82.035-80.545-18.66-161.406-37.4-242.188-56.297-80.782-18.931-161.677-38.449-242.606-57.81-8.004 27.962-16.007 56.015-23.695 84.146v0zM593.742 228.57c50.54 11.492 101.068 23.187 151.608 34.589s101.158 22.803 151.788 34.194c1.4-5.441 2.867-10.882 4.256-16.335-50.551-11.323-101.158-22.848-151.608-34.318-50.427-11.435-101.057-23.198-151.517-34.803-1.659 5.452-3.15 11.018-4.527 16.673v0zM893.073-8.471c-6.118 56.116-11.932 112.3-17.069 168.495-13.038-3.025-25.953-6.051-38.991-9.087 4.245-46.995 8.896-94.035 13.817-140.951-122.776-3.206-245.462-6.547-368.249-9.787-122.686-3.206-245.349-6.547-368.035-9.765-6.999 119.954-14.167 239.897-17.069 360.11-2.901 120.259 0.203 240.563 5.34 360.833 56.173-0.813 112.413-1.727 168.676-2.619 9.076-0.102 16.865 7.462 17.362 16.741 3.951 61.445 8.478 122.9 13.524 184.458 90.795-2.54 181.579-5.001 272.397-7.473 90.784-2.472 181.613-4.944 272.498-7.462-9.573-99.397-18.683-198.828-22.476-298.587-3.816-99.544-1.58-199.28 2.055-298.971 13.117 2.833 26.054 5.848 39.194 8.681-3.669 101.316-5.498 202.87-1.197 303.926 4.301 101.282 14.021 202.418 24.079 303.305 1.287 10.815-6.706 19.879-17.656 20.184-97.038 2.924-194.132 5.904-291.159 8.783-96.914 2.879-193.94 5.769-290.956 8.692-0.102-0.090-0.102-0.090-0.102-0.090-5.215 0.214-10.544-1.716-14.901-5.96-68.432-66.4-136.040-133.286-202.858-200.793-4.132-3.635-6.807-8.884-7.089-14.946-5.531-126.829-9.189-253.782-6.231-380.498 2.969-126.671 10.668-253.353 17.881-379.888 0.677-11.311 10.070-20.286 21.121-19.981 129.685 3.827 259.471 7.609 389.156 11.39s259.46 7.575 389.246 11.311c11.007 0.282 18.999 9.133 17.689 19.947zM262.305 880.843l-10.024-136.3-125.508 1.964 135.532 134.336zM707.904 689.669v34.058l-20.275 5.046c-2.021 7.699-5.069 14.958-8.975 21.652l10.758 17.915-24.056 24.079-17.915-10.769c-6.717 3.917-13.975 6.954-21.674 8.975l-5.046 20.263h-34.047l-5.035-20.275c-7.688-2.021-14.969-5.069-21.652-8.975l-17.926 10.781-24.056-24.079 10.758-17.915c-3.906-6.694-6.943-13.964-8.975-21.64l-20.275-5.057v-34.047l20.275-5.057c2.032-7.676 5.069-14.946 8.975-21.64l-10.758-17.915 24.079-24.079 17.904 10.781c6.717-3.906 13.964-6.965 21.652-8.975l5.035-20.275h34.069l5.023 20.275c7.699 2.021 14.958 5.069 21.64 8.975l17.915-10.781 24.090 24.079-10.758 17.915c3.917 6.694 6.954 13.964 8.975 21.64l20.275 5.046zM603.71 650.779c-73.625 0-73.625 111.871 0 111.871 73.636 0 73.636-111.871 0-111.871zM188.894 525.158c-10.86-0.102-20.128 8.975-20.613 20.184-0.508 11.402 8.083 20.591 18.942 20.692 52.504 0.497 105.008 1.005 157.523 1.513 10.961 0 20.139-8.884 20.613-20.083 0.497-11.097-7.891-20.275-18.739-20.387-52.628-0.711-105.222-1.219-157.726-1.919v0z" />
<glyph unicode="&#xe94f;" glyph-name="email-close" d="M967.532 796.682h-907.628c-61.742 0-52.736-69.591-52.736-81.92v-538.706c0-41.436 33.715-75.151 75.151-75.151h857.288c41.436 0 75.151 33.715 75.151 75.151l0.067 561.792c0.046 24.791-10.245 58.834-47.293 58.834zM57.267 196.685v483.953l347.976-244.27-347.976-239.683zM449.249 466.678l-369.633 259.482c-3.185 2.207-6.723 6.144-9.871 10.24 3.717 2.156 7.992 3.41 12.575 3.41h857.288c4.582 0 8.858-1.254 12.554-3.395-3.185-4.132-6.748-8.105-10.015-10.373l-369.475-259.364-21.801 15.017c-22.753 15.437-57.078 15.437-79.98-0.097l-21.642-14.92zM964.654 680.637v-483.953l-347.976 239.683 347.976 244.27zM82.319 151.004c-0.563 0-1.091 0.051-1.638 0.102 1.623 1.654 3.267 3.133 4.823 4.193l413.655 284.928c5.74 3.891 17.864 3.891 23.439 0.113l413.967-285.158c1.51-1.009 3.103-2.458 4.695-4.081-0.543-0.051-1.096-0.102-1.654-0.102h-857.288z" />
<glyph unicode="&#xe950;" glyph-name="paper-clip-2" d="M510.259 955.075c-116.229 0-210.755-94.577-210.755-210.801v-573.763h63.939v573.763c0 80.932 65.859 146.867 146.816 146.867s146.821-65.935 146.821-146.867v-651.274c0-51.794-40.212-89.334-95.585-89.334-43.29 0-93.563 35.62-93.563 81.592v496.43c0 23.311 18.975 42.378 42.332 42.378 22.723 0 39.869-18.232 39.869-42.378v-415.764h63.933v415.764c0 59.617-45.563 106.317-103.803 106.317-58.563 0-106.266-47.703-106.266-106.317v-496.43c0-85.745 83-145.531 157.501-145.531 90.921 0 159.519 65.859 159.519 153.277v651.269c-0.005 116.224-94.577 210.801-210.76 210.801z" />
<glyph unicode="&#xe951;" glyph-name="msg-pop-1" d="M804.413 956.974h-588.339c-116.669 0-211.543-94.95-211.543-211.671l-0.558-337.116c0-110.546 85.176-201.564 193.321-210.831l2.575-257.756 339.569 256.963h264.417c116.669 0 211.594 94.925 211.594 211.62l0.558 337.116c0 116.726-94.925 211.676-211.594 211.676zM948.644 408.187c0-79.846-64.968-144.758-144.788-144.758h-289.987l-248.955-186.056-1.224 186.056h-48.179c-79.821 0-144.737 64.916-144.737 144.758l0.563 337.116c0 79.795 64.916 144.763 144.737 144.763h588.339c79.821 0 144.788-64.968 144.788-144.763l-0.558-337.116zM314.22 592.195c0-34.166-27.638-61.778-61.757-61.778-34.14 0-61.778 27.612-61.778 61.778 0 34.12 27.633 61.778 61.778 61.778 34.12 0 61.757-27.658 61.757-61.778zM571.489 592.195c0-34.166-27.663-61.778-61.804-61.778-34.12 0-61.757 27.612-61.757 61.778 0 34.12 27.638 61.778 61.757 61.778 34.14 0 61.804-27.658 61.804-61.778zM828.708 592.195c0-34.166-27.658-61.778-61.757-61.778-34.14 0-61.757 27.612-61.757 61.778 0 34.12 27.617 61.778 61.757 61.778 34.099 0 61.757-27.658 61.757-61.778z" />
<glyph unicode="&#xe952;" glyph-name="catalog-tree" d="M638.787 360.515h358.267c13.921 0 25.185 11.223 25.185 25.062v204.227c0 13.834-11.264 25.098-25.185 25.098h-187.617v16.942c0 14.484-11.745 26.209-26.143 26.209h-143.462c-14.444 0-26.23-11.725-26.23-26.209v-106.291h-82.13v199.777c0 12.682-10.312 22.902-22.835 22.902h-98.048v86.236c0 13.875-11.31 25.124-25.098 25.124h-187.817v17.009c0 14.377-11.791 26.102-26.143 26.102h-143.442c-14.418 0-26.122-11.725-26.122-26.102v-246.41c0-13.747 11.244-25.037 25.124-25.037h358.395c13.788 0 25.098 11.29 25.098 25.037v72.366h75.167v-570.716c0-12.575 10.245-22.748 22.881-22.748h104.965v-94.356c0-13.921 11.331-25.185 25.185-25.185h358.267c13.921 0 25.185 11.264 25.185 25.185v204.145c0 13.88-11.264 25.078-25.185 25.078h-187.617v17.075c0 14.31-11.745 26.076-26.143 26.076h-143.462c-14.444 0-26.23-11.766-26.23-26.076v-106.337h-82.13v325.14h82.13v-94.264c0.005-13.834 11.336-25.057 25.19-25.057z" />
<glyph unicode="&#xe953;" glyph-name="gear-1" d="M1013.048 411.597v68.352c0 19.067-12.923 35.62-31.524 39.987l-86.671 21.299-4.372 15.252c-7.9 28.273-18.877 54.963-32.64 80.348l-8.274 14.971 9.856 14.044 34.412 48.543c11.812 16.461 9.948 38.687-4.372 53.012l-48.543 48.543c-7.808 7.532-17.951 11.812-28.918 11.812-7.537 0-14.792-2.135-21.668-6.139l-54.308-32.922-13.763-8.182-13.855 7.808c-26.875 15.16-55.793 27.156-85.74 35.712l-16.65 4.649-3.067 17.111-11.812 70.4c-2.237 13.112-10.788 23.342-21.949 29.199v1.203h-105.743v-1.116c-10.419-5.304-18.601-14.413-21.484-26.414l-18.785-77.65-3.907-15.16-14.787-4.741c-27.156-8.279-53.289-19.717-78.397-33.848l-14.044-8.279-13.763 8.648-77.655 47.242c-6.415 3.814-13.763 5.955-21.294 5.955-10.972 0-21.391-4.183-29.107-12.088l-48.358-48.358c-14.044-14.044-15.903-36.823-4.372-52.915l52.357-73.743 9.487-13.486-7.439-14.879c-10.414-20.552-19.062-42.87-25.943-66.586l-4.465-15.155-15.529-3.722-82.862-20.183c-18.509-4.557-31.437-21.11-31.437-40.177v-68.352c0-20.178 14.413-37.294 34.222-40.55l96.251-16.456 4.925-16.276c7.629-25.103 17.761-49.193 29.947-71.7l7.629-13.855-8.371-13.67-49.475-81.096c-9.856-16.179-7.439-36.915 6.139-50.493l48.174-48.358c7.813-7.808 18.227-12.18 29.199-12.18 8.463 0 16.835 2.79 23.9 7.537l86.953 61.839 14.971-7.808c21.391-11.438 44.078-20.925 67.61-27.899l15.16-4.557 3.625-15.16 19.625-80.532c4.372-18.417 20.833-31.34 39.987-31.34h68.26c20.178 0 37.202 14.413 40.735 34.13l12.365 73.093 2.79 17.203 16.742 4.649c26.506 7.347 51.149 17.111 73.559 28.733l14.879 7.808 13.763-9.764 51.891-36.639c7.071-5.207 15.252-7.721 23.9-7.721 10.977 0 21.294 4.372 29.015 12.001l48.451 48.353c13.389 13.67 15.811 34.314 5.862 50.591l-33.014 54.036-8.458 13.947 8.371 14.326c16.179 27.244 28.918 56.259 37.852 86.579l4.925 16.087 16.835 2.975 67.978 11.72c19.799 3.251 34.212 20.27 34.212 40.453zM516.265 281.866c-93.368 0-169.16 75.694-169.16 169.068 0 93.46 75.791 169.252 169.16 169.252s169.16-75.791 169.16-169.252c0-93.373-75.791-169.068-169.16-169.068z" />
<glyph unicode="&#xe954;" glyph-name="email-open" d="M997.53 581.832c-4.936 15.299-22.845 38.349-34.207 46.828l-412.795 313.385c-23.117 17.275-57.969 17.275-81.229-0.108l-412.493-313.165c-11.484-8.576-29.394-31.642-34.345-46.94-5.187-10.112-8.177-21.535-8.177-33.669v-530.063c0-40.771 33.172-73.943 73.943-73.943h843.54c40.771 0 73.943 33.172 73.943 73.943v530.063c0 12.14-2.99 23.562-8.182 33.669zM498.97 902.554c5.458 4.081 16.579 4.081 21.898 0.113l427.812-330.516-12.211 0.031c2.719-0.538 5.33-1.362 7.654-2.703-3.128-4.065-6.646-7.972-9.856-10.204l-363.551-255.206-21.453 14.776c-22.385 15.191-56.161 15.191-78.689-0.097l-21.294-14.679-363.715 255.314c-3.133 2.166-6.615 6.042-9.713 10.076 3.651 2.12 6.103 4.797 12.37 3.354l-20.772 1.393 431.519 328.351zM63.575 514.591l342.395-240.353-342.395-235.837v476.191zM931.763-6.543h-843.54c-0.553 0-1.075 0.046-1.613 0.097 1.597 1.623 3.21 3.087 4.746 4.127l407.025 280.366c5.647 3.83 17.577 3.83 23.066 0.108l407.327-280.586c1.485-0.993 3.057-2.422 4.618-4.014-0.538-0.056-1.070-0.097-1.628-0.097zM956.416 38.4l-342.4 235.843 342.4 240.348v-476.191z" />
<glyph unicode="&#xe955;" glyph-name="list-type-2" d="M10.337 941.251h424.494v-424.499h-424.494v424.499zM10.337 371.154h424.494v-424.494h-424.494v424.494zM591.805 945.613h424.545v-424.453h-424.545v424.453zM591.805 375.521h424.545v-424.448h-424.545v424.448z" />
<glyph unicode="&#xe956;" glyph-name="checkbox-ok" d="M931.732 950.636h-840.556c-50.56 0-91.761-41.139-91.761-91.74v-818.268c0-50.601 41.196-91.802 91.761-91.802h840.556c50.56 0 91.761 41.201 91.761 91.802v818.268c-0.005 50.606-41.201 91.74-91.761 91.74zM943.468 40.632c0-6.508-5.228-11.776-11.735-11.776h-840.556c-6.508 0-11.735 5.263-11.735 11.776v818.263c0 6.472 5.228 11.796 11.735 11.796h840.556c6.508 0 11.735-5.325 11.735-11.796v-818.263zM807.854 739.021c-18.125 13.804-44.012 10.348-57.795-7.757l-353.336-462.659-131.553 155.566c-14.71 17.388-40.755 19.574-58.117 4.864-17.403-14.71-19.574-40.735-4.905-58.102l164.71-194.775c7.88-9.283 19.374-14.628 31.514-14.628 0.323 0 0.681 0 1.004 0 12.498 0.323 24.197 6.272 31.754 16.241l384.481 503.434c13.829 18.104 10.368 43.971-7.757 57.815z" />
<glyph unicode="&#xe957;" glyph-name="checkbox-empty" d="M930.949 950.676h-840.658c-50.524 0-91.725-41.139-91.725-91.75v-818.33c0-50.606 41.201-91.812 91.73-91.812h840.658c50.565 0 91.725 41.206 91.725 91.812v818.33c-0.005 50.611-41.165 91.75-91.73 91.75zM942.684 40.602c0-6.508-5.228-11.781-11.735-11.781h-840.658c-6.472 0-11.699 5.268-11.699 11.781v818.324c0 6.472 5.228 11.796 11.699 11.796h840.658c6.508 0 11.735-5.325 11.735-11.796v-818.324z" />
<glyph unicode="&#xe958;" glyph-name="checkbox-ng" d="M930.949 950.676h-840.658c-50.524 0-91.725-41.139-91.725-91.75v-818.33c0-50.606 41.201-91.812 91.73-91.812h840.658c50.565 0 91.725 41.206 91.725 91.812v818.33c-0.005 50.611-41.165 91.75-91.73 91.75zM942.684 40.602c0-6.508-5.228-11.781-11.735-11.781h-840.658c-6.472 0-11.699 5.268-11.699 11.781v818.324c0 6.472 5.228 11.796 11.699 11.796h840.658c6.508 0 11.735-5.325 11.735-11.796v-818.324zM798.1 725.033c-16.118 16.097-42.245 16.097-58.327 0l-229.356-229.356-229.396 229.356c-16.077 16.097-42.204 16.097-58.322 0-16.082-16.118-16.082-42.225 0-58.348l229.356-229.335-229.356-229.376c-16.082-16.082-16.082-42.204 0-58.286 8.079-8.079 18.611-12.099 29.184-12.099 10.532 0 21.105 4.019 29.138 12.099l229.402 229.361 229.356-229.361c8.038-8.079 18.57-12.099 29.143-12.099 10.568 0 21.1 4.019 29.179 12.099 16.082 16.082 16.082 42.204 0 58.286l-229.356 229.381 229.356 229.335c16.082 16.118 16.082 42.225 0 58.342z" />
<glyph unicode="&#xe959;" glyph-name="star-1" d="M1019.372 568.827c-7.578 22.979-27.735 39.757-52.065 43.249l-274.611 39.316-122.854 245.14c-10.87 21.714-33.29 35.436-57.82 35.436-24.535 0-46.956-13.722-57.825-35.436l-122.854-245.14-274.668-39.316c-24.269-3.497-44.457-20.27-52.040-43.249s-1.265-48.215 16.307-65.116l198.743-190.843-46.894-269.471c-4.173-23.798 5.76-47.923 25.62-62.116 11.223-8.049 24.535-12.134 37.903-12.134 10.281 0 20.598 2.412 30.029 7.286l245.673 127.232 245.673-127.232c9.4-4.874 19.743-7.286 29.998-7.286 13.363 0 26.675 4.086 37.929 12.134 19.835 14.188 29.793 38.313 25.626 62.116l-46.894 269.471 198.743 190.843c17.546 16.901 23.864 42.138 16.282 65.116z" />
<glyph unicode="&#xe95a;" glyph-name="log-mark" d="M510.72 957.747c-277.647 0-502.82-228.229-502.82-509.681 0-281.441 225.172-509.64 502.82-509.64 277.699 0 502.825 228.198 502.825 509.64-0.005 281.452-225.132 509.681-502.825 509.681zM282.757 268.385c-11.822 0-22.364 8.474-24.668 20.695-2.611 13.85 6.323 27.182 19.978 29.814 97.434 18.893 201.856 50.038 207.468 181.222 0.609 14.054 12.334 24.673 26.225 24.346 13.875-0.62 24.632-12.513 24.023-26.552-7.823-182.436-176.323-215.122-248.274-229.043-1.587-0.343-3.174-0.481-4.751-0.481zM340.255 205.394c-11.453 0-21.811 7.982-24.484 19.753-3.118 13.732 5.33 27.392 18.867 30.556 110.459 25.795 228.833 68.014 234.977 243.569 0.522 14.73-6.692 25.518-12.836 31.985-11.397 11.96-28.083 18.836-45.788 18.836-17.219 0-33.106-6.339-44.308-17.377-8.576-8.479-11.955-22.328-15.488-39.532-13.788-67.149-59.848-148.352-200.863-154.281-13.788-0.517-25.569 10.378-26.158 24.412-0.573 14.080 10.214 25.948 24.084 26.532 88.468 3.702 138.742 40.914 153.708 113.71 3.948 19.261 9.349 45.609 29.624 65.654 20.521 20.255 49.198 31.846 78.72 31.846 31.954 0 61.819-12.534 82.652-34.391 18.237-19.164 27.822-43.761 26.906-69.197-8.013-229.325-187.628-271.263-273.94-291.42-1.91-0.461-3.809-0.655-5.673-0.655zM628.925 175.447c-5.832-12.764-20.787-18.345-33.403-12.421-16.563 7.808-30.203 12.989-42.798 12.989-15.273 0-40.289-7.363-74.9-17.531l-21.1-6.154c-2.294-0.681-4.628-1.014-6.917-1.014-10.936 0-21.012 7.316-24.151 18.488-3.835 13.537 3.896 27.663 17.244 31.503l20.92 6.113c40.018 11.776 66.463 19.548 88.899 19.548 21.806 0 41.344-7.086 63.959-17.705 12.59-5.908 18.068-21.059 12.247-33.818zM710.595 225.239c-3.845-10.148-13.389-16.374-23.501-16.374-2.985 0-6.031 0.532-8.98 1.684l-4.951 1.956c-27.177 10.68-56.074 30.566-77.261 53.13-9.569 10.173-9.16 26.317 0.876 36.014 10.051 9.713 25.948 9.313 35.533-0.886 16.082-17.121 38.753-32.748 59.172-40.801l4.603-1.802c12.969-5.043 19.466-19.779 14.51-32.922zM765.957 288.118c-3.932-9.933-13.358-15.949-23.306-15.949-3.149 0-6.333 0.594-9.421 1.879-56.98 23.337-85.612 67.057-85.043 129.91 0.169 16.527 1.244 27.617 2.258 38.364 1.3 13.558 2.642 27.551 2.217 55.173-1.065 71.296-64.773 129.316-141.998 129.316-71.772 0-125.844-43.699-141.133-114.084-10.132-46.72-40.3-100.808-125.937-92.8l-10.035 1.331c-13.747 1.925-23.398 14.771-21.509 28.698 1.879 13.957 14.531 23.813 28.298 21.811l8.356-1.172c28.692-2.488 60.078-0.553 71.721 53.084 20.306 93.609 94.991 154.097 190.234 154.097 104.55 0 190.807-80.532 192.287-179.512 0.451-30.464-1.111-46.618-2.452-60.861-0.973-10.086-1.889-19.64-2.028-33.94-0.358-41.472 16.164-66.857 53.606-82.186 12.872-5.258 19.087-20.127 13.885-33.157zM795.162 353.587c-4.915-6.825-12.59-10.445-20.352-10.445-5.14 0-10.317 1.582-14.787 4.895-10.23 7.557-33.49 29.804-28.467 72.95 3.277 27.986 5.074 76.554 5.12 77.030-0.046 112.701-101.396 205.179-226.017 205.179-92.575 0-177.3-53.084-210.816-132.157-3.599-8.479-6.856-20.419-9.718-30.956-2.596-9.574-4.659-17.142-7.091-22.845-5.494-12.923-20.306-18.872-33.039-13.317-12.759 5.555-18.637 20.562-13.138 33.49 1.060 2.488 3.149 10.107 4.797 16.241 3.149 11.5 7.055 25.846 11.996 37.519 41.339 97.495 144.625 163 257.014 163 152.351 0 276.265-115.333 276.265-257.101-0.092-3.031-1.93-52.070-5.437-82.058-1.828-15.852 4.326-22.968 8.182-25.8 11.218-8.289 13.65-24.243 5.489-35.625z" />
<glyph unicode="&#xe95b;" glyph-name="permission-control" d="M627.313 609.085c0-62.95-51.011-113.925-113.92-113.925-62.925 0-113.946 50.98-113.946 113.925 0 62.868 51.021 113.889 113.946 113.889 62.915 0 113.92-51.021 113.92-113.889zM280.494 283.971c16.502 97.843 80.507 176.855 164.326 205.204l68.577-78.213 68.5 78.213c83.758-28.344 147.927-107.356 164.332-205.204h-465.736zM858.614 812.918c-122.742 2.821-207.13 32.814-326.001 135.532-4.27 3.692-9.81 5.545-15.34 5.545-5.535 0-11.059-1.843-15.329-5.535-118.851-102.728-203.244-132.721-325.99-135.542-11.279-0.256-20.429-9.375-20.429-20.649 0-58.936 0-234.732 0-385.091 0-187.203 125.271-308.357 344.776-455.859 4.675-3.149 10.829-4.726 16.973-4.726 6.164 0 12.303 1.577 16.993 4.726 219.489 147.507 344.765 268.657 344.765 455.859 0 150.359 0 326.154 0 385.091 0.005 11.279-9.134 20.393-20.419 20.649zM797.353 407.178c0-129.311-71.409-224.584-280.079-368.614-208.66 144.020-280.069 239.293-280.069 368.614v327.828c103.777 11.197 186.839 47.032 280.069 120.218 93.251-73.185 176.323-109.020 280.079-120.207v-327.839z" />
<glyph unicode="&#xe95c;" glyph-name="china" d="M769.97 135.020l-6.141 1.411-1.185-1.411 1.501-6.288 8.433-0.621 6.694 3.24-3.025 8.297zM914.601 226.662l-11.469-9.708-9.731-25.524-0.655-14.021 5.825-15.578 6.717-5.193 6.277-9.302 2.585 2.585v9.302l3.014 11.029 5.836 34.792-1.061 18.164zM77.441 446.273l-3.285-0.813 14.529-2.427-7.146 2.585zM697.779 74.705l-2.585-3.025-1.84-0.158c-0.361 0.214-0.7 0.474-1.129 0.474-0.655 0-1.23-0.26-1.648-0.711l-3.161-0.248-17.057-3.048-3.68-3.025-10.397-10.374-1.084-6.277 3.691-13.637 19.225-6.683 18.581 15.149v7.112l9.291 16.233-2.585 6.683-5.622 1.535zM1015.296 777.202l5.193 10.374-5.814 6.706 1.072 4.098-2.608 3.68-6.717-2.596-7.778-8.873-7.767-3.669-7.767-10.815-19.236-6.706-8.862 6.706 1.084 4.109-4.561 6.706-2.134 6.92-7.36 0.44-12.948 6.694-5.204-1.93-6.051 3.025-8.839-1.524-7.778 2.596-4.775 6.706-4.527 5.182-1.727 5.193-6.051 6.265-3.669 5.622-8.433 11.458-2.585 6.694-9.291 11.887-2.585 6.277-11.91 5.836-7.801-2.596-6.683 1.524-15.138 3.025-20.094-7.134-3.714-3.262h-3.68l-9.279-6.694-7.767-11.447 3.025-1.964 5.848-0.643 4.527-11.887-2.585-4.741-4.549-6.706-8.433-31.134 3.251-5.17-2.596-4.549-19.225-14.054-10.374 1.942-5.848 2.145-0.858-3.025-8.444-33.708-4.087-4.324 2.156-6.062 2.585-2.145 2.596-2.167 8.636 4.753 14.043-1.084 4.098 6.706 7.372 1.727 14.043-5.182 17.080-17.723v-3.68l-3.669-2.585-19.688-1.095-6.683-5.182-5.193 0.643-3.669-5.848-9.291-1.942-6.277-9.291-1.084-6.909-13.411-8.658-8.433-1.084-9.302-12.53-8.85-5.193-17.057 3.691-5.633 2.585-6.717-6.694-3.24-11.887 9.291-13.625-6.051-6.265-8.421-5.193-12.327-15.545-16.211-7.146-26.37-2.596-4.109 0.44-30.705-12.971-14.021-8.862-4.132 2.167-1.501 4.109-18.807 1.072-21.607 6.694-5.836 6.717-31.575 3.669-5.814-2.596-38.257 3.68-12.982 2.145-3.251 0.44-6.051 10.815-4.73 12.959-4.764 9.945-0.44 4.098-7.349 2.596-22.724 15.556-21.821 3.262-20.331 8.636-1.479 7.778 5.836 9.945-0.666 3.669 3.251 9.731-6.277 16.211-6.277 13.411h-2.585l-4.764 4.109-10.815 0.643-2.145 6.265-8.229 8.229-0.418 3.025-3.658 4.324 2.585 8.218-4.233-0.023-9.392 2.179-4.098-2.156-1.942-6.277-5.193-6.254-7.349-0.44-6.254-4.109-3.691-24-14.483-4.515-3.025 4.098h-6.683l-15.138 7.349-2.608-1.738-16.617-33.708 4.087-4.109-3.025-4.109-2.179 0.429-7.767 1.727-3.466 4.538-22.465-1.953-8.658-2.585 0.44-2.156 8.229-3.025-1.547-5.836-0.406-28.752v-3.454h-2.608l-8.421-6.717-2.585-11.447-1.942-4.109-30.039-6.694-10.374-7.349-20.331 4.324-9.934-11.040-8.681-0.418-3.658 1.513-0.643 5.182-1.535 1.095-4.098-1.535-5.633 1.524-6.92-2.596-7.755-1.513-7.789-3.68v-4.753l-2.269-2.145-5.52-4.99 1.716-5.848-3.229-6.265 2.145-6.051 5.633 1.513 8.421-8.433-1.061-10.363 1.072-12.316-3.68-3.691-3.669 2.179-6.277-2.619v-2.145l12.982-7.349 2.145-4.109 6.254-4.109 0.869-4.098-2.585-8.421v-0.011l3.691-8.218 4.73-0.44 17.091-12.519 8.218-2.179 19.868 6.277 7.789-1.953 7.789-12.102 5.193-0.429 1.942-2.167-8.862-6.039-3.454-9.516-6.909-4.098-1.524-5.633-4.527-1.513-5.182 0.429-2.179-4.087-1.072-5.848-2.258 0.214-0.339-5.825 6.243-6.265 0.474-8.873-1.976-3.454-9.268-1.072-4.753 5.17-4.764-0.643-0.881-4.109 2.585-6.683 0.869-4.775v-6.039l-1.513-4.335 0.643-3.488 6.073-0.61 3.251-5.633 14.043-11.018v-3.488l10.363-11.447 3.454-4.109 3.262-1.095 6.277 6.277 5.61-5.182 23.785-20.331 4.301-10.374h5.193l3.025 3.048 2.585-2.585v-9.313l14.054-7.778 3.025 0.689 2.145-7.789 11.91-6.92 0.44-4.549 2.145-1.501 10.397 0.418h5.61l8.421-6.265 18.593 0.666 9.934 0.429 2.585-4.109-1.050-4.436-1.106-4.448 2.585-3.014 10.397 8.625 12.959 9.539 9.302-1.738 9.494-5.61 12.339-1.513 4.098-5.848 2.145-0.858 18.581 3.454 1.084 3.251 3.68 1.942 8.862 7.349 7.789 1.084 7.112 4.527 14.054 7.778 1.513-2.585 10.363-3.454 15.138 7.778 4.753-3.251-4.324-6.277 1.716-1.513h6.073l0.643-2.585-5.204-9.291 1.513-1.513h3.059l15.127-4.087 6.717 5.565 9.934-7.767 3.025-13.388h3.658l3.048-2.145 1.084-8.252-1.535-28.527-19.665-17.701-1.084-6.717-3.68-3.217-0.406-3.466 3.014-8.433-2.608-6.265 1.535-0.869 9.934 2.585 14.066 0.881-1.513-5.61 2.585-5.215 0.869-7.778 1.716-2.585 8.218-0.418 3.658-2.585-4.087-5.204-0.643-6.254-3.048-7.338 1.953-2.608 5.193-0.44 8.862-3.217-1.072-3.037 5.836-8.862h8.218l10.374 5.848 3.251-1.727v-3.466l1.49-5.204 2.619-2.585 5.61 0.869 2.179-1.524 1.919 2.145v8.229l-3.454 15.138 2.608 4.538h10.803l4.764 5.836 12.305-4.12 5.193 4.561 2.585-2.596 5.193 3.24 4.741-4.753h1.976l1.716 2.585 4.087 4.109 1.942-1.535 5.87 1.084 5.599 4.561 4.775 6.909 6.683 1.49 1.84-1.817 1.851-1.851 6.683-4.73 6.706 1.716 1.524-1.716h6.277l4.764-3.488-4.12-8.41 3.048-8.229 16.617-9.268 7.383 0.406 7.552 0.452 7.36 7.326 7.326-3.014 7.134-5.182 13.614 1.964v-4.561l-1.727-9.505 7.36-13.4 6.265-0.463 5.193 4.549-7.778 12.542 4.109 4.109 8.207 5.61 16.64 5.825 6.288 6.288h9.291l4.741 1.953 8.896 2.134 4.493 6.288 8.444 3.466-3.229 8.85 0.621 5.848 9.324-7.36 11.447 4.775 4.527 3.014 3.691-2.134 5.17 3.658h8.862v1.524l2.596 4.324 4.109-2.145 10.397 5.17 3.003 6.277 3.24 1.106 3.669 6.683 4.109 3.025 5.61 5.836 2.167-0.632 5.182 6.683 4.109 6.277-1.174 0.813c1.287 0 2.303 1.039 2.303 2.314s-1.005 2.28-2.292 2.28c-0.248 0-0.429-0.192-0.643-0.271l2.89 2.596h7.778l1.964 2.156-0.881 4.12 5.599 2.992v0.034l-1.061 2.156 5.836 5.622-2.145 4.346 3.025 3.025 4.764-1.084 1.072 1.479-1.072 5.204 1.072 16.222-4.109 4.549 0.44 1.716 3.025 1.513 4.324-2.145 7.394 17.712 1.253 3.025 8.421 21.415 2.585-3.262 5.61 6.683-3.658 5.848 3.251 3.691-3.691 6.051 0.44 4.324h6.897l-1.705 14.461-17.091 7.146-10.363-4.527-5.633 3.014 1.953 1.524 5.836 1.705 3.68 5.633 3.15 2.404 7.665 5.825 2.608 3.669-3.691 5.193-7.778 3.251-7.146 3.037-6.909 3.014-7.157 2.145 1.547 1.298 1.524 1.321 3.861-1.321 3.895-1.298h8.444l6.051-2.145 3.68 1.738-2.608 5.17-5.61 2.585-3.24 5.193-11.898 5.61 0.655 3.059-17.723 29.61-9.291 3.658-12.959 8.85 14.461 24.429-2.585 4.132 2.585 2.585 2.337-0.847c0-0.090-0.102-0.147-0.102-0.248 0-1.287 1.039-2.303 2.303-2.303 1.287 0 2.325 1.016 2.325 2.303 0 0.677-0.316 1.253-0.79 1.671l1.716 0.937 2.585 5.622 11.932 11.029 9.291 3.014 4.301 4.109-1.084 8.862-6.254 0.655-14.043-1.727-9.742 4.741-5.836-1.084-14.506-18.581-4.087-2.596-9.291 4.098-0.655 4.753-1.942 8.229-5.193 3.025-8.433-1.942-5.215 3.579-3.014 2.043-2.833 7.055-1.93 4.798 1.501 6.897 4.312 3.037 6.073-2.596 15.138 8.218v4.764l8.85 12.959 4.538 2.608 7.338 8.862 7.349 12.327 12.327 2.585 7.778-7.789-5.622-12.316-7.326-11.447v-0.011l6.706-4.741-0.474-5.644-5.17-5.17 1.084-2.167 3.895 2.1c0.418-0.429 1.005-0.7 1.648-0.7 1.276 0 2.303 1.027 2.303 2.303 0 0.158-0.147 0.26-0.147 0.406l1.174 0.643 12.959 17.091 19.654 11.029 6.31 1.513 12.316 18.152 5.407 6.164 2.359 2.698 7.383 4.527 6.683 19.236 3.037 1.095 7.338-4.12 11.876 1.513 4.109 3.669v0.011l-5.599 8.625 1.49 2.179 11.040 3.669 4.527 8.862 5.848 2.596 0.44 8.647 1.501 5.836 3.24 1.084 3.048-3.24 3.014-2.596 7.778 10.363 2.156 7.789-1.422 2.427-2.235 3.849-1.084 12.53-9.313 14.483 5.193 5.193 4.764 8.862h17.531l3.217 3.025-1.084 6.683 3.669 6.717-1.084 3.691 1.535 6.254v0.011l-0.474 32.195zM841.958 194.015l0.203 0.485c0.023-0.361 0.237-0.621 0.395-0.892l-0.598 0.406z" />
<glyph unicode="&#xe95d;" glyph-name="chemistry" d="M314.493 92.417h396.279l-87.375 252.732h-221.473zM667.197 685.808v148.729h24.034c25.671 0 46.431 20.071 46.431 45.731 0 25.625-20.771 45.697-46.431 45.697h-357.198c-25.648 0-46.431-20.071-46.431-45.697 0-25.659 20.783-45.731 46.431-45.731h28.436v-148.729l-228.563-656.507v-2.382c0-24.677 15.928-44.207 32.726-57.324 16.978-13.411 41.272-18.863 64.165-18.863h563.702c22.848 0 41.813 5.441 58.747 18.863 16.831 13.117 27.307 32.658 27.307 57.324v2.427l-213.357 656.462zM214.429 26.942l224.205 658.866v148.729h152.398v-148.729l222.444-658.923-599.047 0.056z" />
<glyph unicode="&#xe95e;" glyph-name="link" d="M324.562 799.785l251.556-251.402c9.175 23.613 14.822 48.451 16.123 73.697 3.272 60.052-17.224 115.2-57.477 155.474l-122.854 122.839c-83.031 83.026-231.603 69.612-323.748-22.636-92.175-92.175-105.62-240.701-22.646-323.702l122.788-122.967c59.387-59.336 149.161-72.212 229.171-41.042l-251.249 251.382c-32.886 33.019-20.828 98.412 19.523 138.808 40.3 40.3 105.825 52.465 138.813 19.548zM964.465 347.884l-123.448 123.377c-40.402 40.504-95.698 61.076-155.904 57.953-25.298-1.28-50.063-6.871-73.83-15.995l251.428-251.761c32.916-32.916 20.803-98.386-19.523-138.604-40.325-40.504-105.82-52.588-138.737-19.625l-251.525 251.3c-30.945-80.138-17.915-170.040 41.702-229.678l123.453-123.479c83.379-83.282 232.212-70.093 324.434 22.026 92.175 92.252 105.416 241.075 21.949 324.485zM712.12 344.663c10.296-10.373 15.206-24.786 14.054-40.678-1.331-15.892-8.714-31.304-20.854-43.397-24.991-25.042-62.684-28.052-83.994-6.743l-289.434 289.48c-21.361 21.315-18.319 58.982 6.62 83.968 25.093 25.047 62.787 28.14 84.152 6.774l289.454-289.403z" />
<glyph unicode="&#xe95f;" glyph-name="car" d="M1018.22 648.793c0 0-3.861 7.71-7.281 14.145-3.432 5.994-24.88 5.159-24.88 5.159s-56.207-2.574-72.090-4.719c-15.443-2.585-11.56-19.304-11.56-19.304l6.875-41.633-17.181-12.451c-2.574 2.156-4.278 3.432-4.278 3.432l-69.087 160.469c-59.627 33.471-278.436 33.471-307.618 33.471-28.741 0-247.55 0-307.189-33.471l-69.076-160.469c0 0-1.705-1.276-4.278-3.432l-17.17 12.451 6.852 41.633c0 0 3.872 16.719-11.582 19.304-15.861 2.145-72.067 4.719-72.067 4.719s-21.449 0.847-24.88-5.159c-3.432-6.446-7.293-14.145-7.293-14.145s-6.864-9.437 9.449-15.872c15.861-6.435 71.638-30.897 71.638-30.897s15.872-15.432 13.727-30.886c-4.719-2.134-10.307-4.29-15.861-6.435-34.329-11.582-57.922-86.652-57.922-177.605v-185.767l-0.429-0.44 15.443-2.145v-63.939c0-14.156 12-26.167 26.596-26.167h176.759c14.596 0 26.167 12.011 26.167 26.167v34.34c20.591-1.298 34.747-1.298 38.596 1.298 9.878 6.412 37.772 19.721 61.365 30.446h282.297c23.605-10.736 51.488-24.034 61.365-30.446 3.861-2.596 17.159-2.596 36.463-1.298v-34.34c0-14.156 12.022-26.167 26.167-26.167h177.188c14.179 0 26.167 12.011 26.167 26.167v63.465c11.165 1.727 17.599 2.596 17.599 2.596s0 94.803 0 186.207c0 90.953-23.605 166.023-57.945 177.605-5.565 2.145-11.153 4.301-15.849 6.435-2.179 15.466 13.705 30.886 13.705 30.886s55.789 24.463 71.683 30.897c16.301 6.457 9.415 15.895 9.415 15.895zM229.669 724.743c18.457 48.034 544.884 48.034 563.33 0l54.050-141.154c-149.293-21.878-522.126-21.878-671.442 0l54.062 141.154zM274.305 386.646c-28.73 0-130.848 7.733-130.848 7.733s-16.73 1.705-30.886 15.883c-14.167 14.156-41.622 74.63-41.622 74.63s-6.006 18.863 2.585 30.897c8.579 11.582 36.022-2.122 36.022-2.122l130.012-45.482c21.426-7.304 28.719-7.744 36.892-27.917l14.585-34.747c-0.011 0 12.429-18.875-16.741-18.875zM716.202 431.71l-18.017-36.485c0 0-4.301-9.878-20.162-9.878-111.149 0-222.252 0-333.367 0-15.872 0-20.162 9.878-20.162 9.878l-18.006 36.485c-3.861 9.832-4.719 14.585-2.596 17.159 2.574 3.003 9.437 0.429 9.437 0.429 71.65-22.295 324.325-22.295 396.008 0 0 0 6.864 2.574 9.426-0.429 2.156-2.574 1.298-7.326-2.563-17.159zM949.19 515.789c8.579-12.022 2.574-30.897 2.574-30.897s-27.443-60.474-41.599-74.63c-14.145-14.179-30.909-15.883-30.909-15.883s-102.095-7.733-130.848-7.733c-29.17 0-16.73 18.875-16.73 18.875l14.585 34.747c8.139 20.173 15.42 20.602 36.892 27.917l130.001 45.482c-0.023 0 27.454 13.705 36.034 2.122z" />
<glyph unicode="&#xe960;" glyph-name="select" d="M770.241-18.202h-586.697c-43.71 0-84.812 17.012-115.709 47.875-30.909 30.875-47.932 71.932-47.932 115.597v586.11c0 43.665 17.012 84.711 47.921 115.585 30.92 30.886 72.011 47.887 115.721 47.887h293.349c44.094 0 79.823-35.695 79.823-79.744 0-44.037-35.729-79.732-79.823-79.732h-293.349c-0.452 0-1.659 0-2.833-1.174-1.163-1.163-1.163-2.359-1.163-2.822v-586.099c0-0.452 0-1.648 1.174-2.822s2.371-1.174 2.822-1.174h586.709c0.452 0 1.648 0 2.822 1.174s1.174 2.371 1.174 2.822v293.033c0 44.049 35.74 79.744 79.834 79.744 44.071 0 79.811-35.706 79.811-79.744v-293.044c0-43.665-17.023-84.722-47.932-115.597-30.92-30.863-71.999-47.875-115.721-47.875zM1000.757 767.087l-110.121 109.986-407.963-407.534-141.515 141.369-110.121-109.986 223.833-223.618 0.914 0.914 27.815-27.759z" />
</font>
</defs>
</svg>
