<?xml version="1.0" standalone="no"?>
<!DOCTYPE svg PUBLIC "-//W3C//DTD SVG 1.1//EN" "http://www.w3.org/Graphics/SVG/1.1/DTD/svg11.dtd" >
<svg xmlns="http://www.w3.org/2000/svg">
<metadata>Generated by IcoMoon</metadata>
<defs>
<font id="mobox-wms" horiz-adv-x="1024">
<font-face units-per-em="1024" ascent="960" descent="-64" />
<missing-glyph horiz-adv-x="1024" />
<glyph unicode="&#x20;" horiz-adv-x="512" d="" />
<glyph unicode="&#xe900;" glyph-name="warehouse3" d="M920 604.8l-388.8 277.6c-11.2 8-26.4 8-36.8 0l-390.4-277.6c-12.8-8.8-6.4-28.8 9.6-28.8h78.4v-496c0-8.8 7.2-16 16-16h608c8.8 0 16 7.2 16 16v496h78.4c15.2 0 21.6 20 9.6 28.8zM640 192h-256v64h256v-64zM640 320h-256v64h256v-64zM640 448h-256v64h256v-64z" />
<glyph unicode="&#xe901;" glyph-name="warehouse4" d="M512.8 817.6l255.2-183.2v-506.4h-512v506.4l256.8 183.2zM512.8 888.8c-6.4 0-12.8-1.6-18.4-5.6l-390.4-278.4c-12.8-8.8-6.4-28.8 9.6-28.8h78.4v-496c0-8.8 7.2-16 16-16h608c8.8 0 16 7.2 16 16v496h78.4c15.2 0 21.6 20 9.6 28.8l-388.8 277.6c-5.6 4-12 6.4-18.4 6.4zM640 512h-256v-64h256v64zM640 384h-256v-64h256v64zM640 256h-256v-64h256v64z" />
<glyph unicode="&#xe902;" glyph-name="warehouse5" d="M919.2 604.8l-388 277.6c-11.2 8-26.4 8-36.8 0l-390.4-277.6c-12.8-8.8-6.4-28.8 9.6-28.8h78.4v-496c0-8.8 7.2-16 16-16h608c8.8 0 16 7.2 16 16v496h78.4c15.2 0 21.6 20 8.8 28.8zM280.8 448h51.2c26.4 74.4 97.6 127.2 180.8 127.2 56.8 0 107.2-24.8 142.4-64l-57.6-32.8c-22.4 20-52.8 32.8-84.8 32.8-47.2 0-88-25.6-110.4-63.2h51.2l-86.4-85.6-86.4 85.6zM692.8 320c-27.2-74.4-97.6-127.2-180.8-127.2-56 0-106.4 24-141.6 63.2l57.6 32.8c22.4-20 52-32 84-32 47.2 0 88 25.6 110.4 63.2h-51.2l86.4 85.6 85.6-85.6h-50.4z" />
<glyph unicode="&#xe903;" glyph-name="warehouse6" d="M512.8 817.6l255.2-183.2v-506.4h-512v506.4l256.8 183.2zM512.8 888.8c-6.4 0-12.8-1.6-18.4-5.6l-390.4-278.4c-12.8-8.8-6.4-28.8 9.6-28.8h78.4v-496c0-8.8 7.2-16 16-16h608c8.8 0 16 7.2 16 16v496h78.4c15.2 0 21.6 20 9.6 28.8l-388.8 277.6c-5.6 4-12 6.4-18.4 6.4zM656.8 405.6l-86.4-85.6h52c-22.4-38.4-63.2-64-110.4-64-32 0-61.6 12-84 32l-57.6-32.8c35.2-39.2 85.6-63.2 141.6-63.2 83.2 0 154.4 53.6 180.8 128h50.4l-86.4 85.6zM401.6 448c22.4 38.4 63.2 64 110.4 64 32.8 0 62.4-12.8 84.8-32.8l57.6 32.8c-35.2 39.2-85.6 64-142.4 64-83.2 0-154.4-53.6-180.8-128h-50.4l86.4-85.6 86.4 85.6h-52z" />
<glyph unicode="&#xe904;" glyph-name="warehouse7" d="M919.2 604.8l-388 277.6c-11.2 8-26.4 8-36.8 0l-390.4-277.6c-12.8-8.8-6.4-28.8 9.6-28.8h78.4v-496c0-8.8 7.2-16 16-16h608c8.8 0 16 7.2 16 16v496h78.4c15.2 0 21.6 20 8.8 28.8zM448 192h-128v128h128v-128zM448 512h128v-128h-128v128zM704 192h-128v128h128v-128z" />
<glyph unicode="&#xe905;" glyph-name="warehouse8" d="M512.8 817.6l255.2-183.2v-506.4h-512v506.4l256.8 183.2zM512.8 888.8c-6.4 0-12.8-1.6-18.4-5.6l-390.4-278.4c-12.8-8.8-6.4-28.8 9.6-28.8h78.4v-496c0-8.8 7.2-16 16-16h608c8.8 0 16 7.2 16 16v496h78.4c15.2 0 21.6 20 9.6 28.8l-388.8 277.6c-5.6 4-12 6.4-18.4 6.4zM704 320h-128v-128h128v128zM448 320h-128v-128h128v128zM576 512h-128v-128h128v128z" />
<glyph unicode="&#xe906;" glyph-name="warehouse9" d="M526.272 860.608l5.184-3.2 416.896-320c7.744-5.903 12.69-15.133 12.69-25.517 0-17.673-14.327-32-32-32-5.411 0-10.508 1.343-14.976 3.713l0.173-0.084-4.864 3.072-44.416 34.112v-446.4c0-0.017 0-0.038 0-0.059 0-17.673-14.327-32-32-32-15.658 0-28.689 11.246-31.457 26.101l-0.031 0.198-0.512 5.76v495.552l-288.96 221.824-287.040-221.312v-496c0-0.017 0-0.038 0-0.059 0-17.673-14.327-32-32-32-15.658 0-28.689 11.246-31.457 26.101l-0.031 0.198-0.512 5.76v446.592l-44.416-34.368c-5.348-4.162-12.16-6.673-19.559-6.673-8.242 0-15.756 3.116-21.429 8.234l0.028-0.025-3.968 4.288c-4.144 5.341-6.644 12.139-6.644 19.521 0 8.26 3.13 15.79 8.268 21.467l-0.024-0.027 4.224 3.904 415.040 320c5.338 4.136 12.13 6.631 19.504 6.631 5.208 0 10.125-1.244 14.47-3.451l-0.182 0.084zM678.656 192c0.017 0 0.038 0 0.059 0 17.673 0 32-14.327 32-32 0-15.658-11.246-28.689-26.101-31.457l-0.198-0.031-5.76-0.512h-288c-0.017 0-0.038 0-0.059 0-17.673 0-32 14.327-32 32 0 15.658 11.246 28.689 26.101 31.457l0.198 0.031 5.76 0.512h288zM678.656 320c0.017 0 0.038 0 0.059 0 17.673 0 32-14.327 32-32 0-15.658-11.246-28.689-26.101-31.457l-0.198-0.031-5.76-0.512h-288c-0.017 0-0.038 0-0.059 0-17.673 0-32 14.327-32 32 0 15.658 11.246 28.689 26.101 31.457l0.198 0.031 5.76 0.512h288z" />
<glyph unicode="&#xe907;" glyph-name="warehouse-find" d="M997.846 697.193l-460.709 255.949c-7.342 4.312-16.171 6.858-25.595 6.858s-18.253-2.546-25.836-6.989l0.242 0.131-460.709-255.949c-15.204-9.062-25.231-25.42-25.231-44.12 0-9.385 2.525-18.18 6.934-25.742l-0.131 0.243c8.931-15.671 25.515-26.073 44.53-26.107h0.005v-614.278c0-28.271 22.918-51.19 51.19-51.19h563.088c28.271 0 51.19 22.918 51.19 51.19s-22.918 51.19-51.19 51.19h-511.898v614.278l358.329 199.128 358.329-199.128v-307.139c0-28.271 22.918-51.19 51.19-51.19s51.19 22.918 51.19 51.19v0 255.949c28.204 0.089 51.034 22.973 51.034 51.19 0 18.992-10.342 35.568-25.702 44.404l-0.249 0.132zM783.361 197.58c22.394 34.621 35.741 76.914 35.833 122.319v0.025c0 127.221-103.133 230.354-230.354 230.354s-230.354-103.133-230.354-230.354c0-127.221 103.133-230.354 230.354-230.354v0c45.429 0.092 87.723 13.438 123.241 36.376l-0.897-0.543 174.557-174.557c8.893-7.65 20.551-12.309 33.297-12.309 28.271 0 51.19 22.918 51.19 51.19 0 12.746-4.658 24.404-12.366 33.364l0.057-0.067zM460.865 319.924c0 70.678 57.296 127.975 127.975 127.975s127.975-57.296 127.975-127.975c0-70.678-57.296-127.975-127.975-127.975v0c-70.678 0-127.975 57.296-127.975 127.975v0z" />
<glyph unicode="&#xe908;" glyph-name="wh-count" horiz-adv-x="1030" d="M563.2 645.632h-310.784c-15.36 0-28.16 12.8-28.16 28.16s12.8 28.16 28.16 28.16h310.784c15.36 0 28.16-12.8 28.16-28.16s-12.8-28.16-28.16-28.16zM563.2 502.272h-310.784c-15.36 0-28.16 12.8-28.16 28.16s12.8 28.16 28.16 28.16h310.784c15.36 0 28.16-12.8 28.16-28.16s-12.8-28.16-28.16-28.16zM630.784 59.904c-103.936 0-188.928 84.992-188.928 188.928s84.992 188.928 188.928 188.928 188.928-84.992 188.928-188.928-84.992-188.928-188.928-188.928zM630.784 381.44c-73.216 0-132.608-59.392-132.608-132.608s59.392-132.608 132.608-132.608 132.608 59.392 132.608 132.608-59.392 132.608-132.608 132.608zM875.52-39.424c-7.68 0-15.36 3.072-20.992 9.216l-130.56 145.92c-10.24 11.776-9.216 29.184 2.048 39.936 11.776 10.24 29.184 9.216 39.936-2.048l130.56-145.92c10.24-11.776 9.216-29.184-2.048-39.936-5.632-4.608-12.288-7.168-18.944-7.168zM322.56-45.056h-279.040c-14.336 0-25.6 11.264-25.6 25.6v943.616c0 14.336 11.264 25.6 25.6 25.6h733.696c14.336 0 25.6-11.264 25.6-25.6v-276.992c0-14.336-11.264-25.6-25.6-25.6s-25.6 11.264-25.6 25.6v251.392h-682.496v-892.416h253.44c14.336 0 25.6-11.264 25.6-25.6s-11.264-25.6-25.6-25.6z" />
<glyph unicode="&#xe909;" glyph-name="wh-count2" horiz-adv-x="1030" d="M493.056-43.52h-420.864c-14.336 0-25.6 11.264-25.6 25.6v741.376c0 14.336 11.264 25.6 25.6 25.6h843.776c14.336 0 25.6-11.264 25.6-25.6v-256c0-14.336-11.264-25.6-25.6-25.6s-25.6 11.264-25.6 25.6v230.4h-792.576v-690.176h395.264c14.336 0 25.6-11.264 25.6-25.6s-11.264-25.6-25.6-25.6zM915.968 697.856h-843.776c-9.728 0-18.432 5.12-22.528 13.824-4.608 8.192-3.584 18.432 1.536 26.624l128 184.832c4.608 7.168 12.8 11.264 20.992 11.264h578.048c8.192 0 15.872-3.584 20.48-10.24l137.728-185.344c5.632-7.68 6.656-17.92 2.56-26.624-4.608-8.704-13.312-14.336-23.040-14.336zM120.832 749.056h744.448l-99.84 134.144h-551.936l-92.672-134.144zM740.864 56.832c-97.792 0-177.152 79.36-177.152 177.152s79.36 177.152 177.152 177.152 177.152-79.36 177.152-177.152-79.36-177.152-177.152-177.152zM740.864 359.936c-69.632 0-125.952-56.32-125.952-125.952s56.32-125.952 125.952-125.952 125.952 56.32 125.952 125.952-56.32 125.952-125.952 125.952zM970.752-35.84c-7.168 0-14.336 3.072-18.944 8.704l-122.368 137.728c-9.216 10.752-8.192 26.624 2.048 36.352 10.752 9.216 26.624 8.192 36.352-2.048l122.368-137.728c9.216-10.752 8.192-26.624-2.048-36.352-5.12-4.608-11.264-6.656-17.408-6.656zM655.36 487.936h-322.048c-14.336 0-25.6 11.264-25.6 25.6s11.264 25.6 25.6 25.6h322.048c14.336 0 25.6-11.264 25.6-25.6s-11.264-25.6-25.6-25.6z" />
<glyph unicode="&#xe90a;" glyph-name="wh-in" d="M927.1 479.1c-7.3 0-14.7 2.5-20.7 7.6l-395.2 335.2-395.2-335.2c-13.5-11.4-33.7-9.8-45.1 3.7s-9.8 33.7 3.7 45.1l415.9 352.8c11.9 10.1 29.5 10.1 41.4 0l415.9-352.8c13.5-11.4 15.1-31.6 3.7-45.1-6.4-7.5-15.4-11.3-24.4-11.3zM159.1 0.4c-17.7 0-32 14.3-32 32v517.4c0 17.7 14.3 32 32 32s32-14.3 32-32v-517.4c0-17.7-14.3-32-32-32zM863.4 320.1c-17.7 0-32 14.3-32 32v197.7c0 17.7 14.3 32 32 32s32-14.3 32-32v-197.8c0-17.6-14.4-31.9-32-31.9zM595.2 0.7h-72c-6.6 0-12 5.4-12 12v72c0 6.6 5.4 12 12 12h72c6.6 0 12-5.4 12-12v-72c0-6.6-5.4-12-12-12zM739.2 0.7h-72c-6.6 0-12 5.4-12 12v72c0 6.6 5.4 12 12 12h72c6.6 0 12-5.4 12-12v-72c0-6.6-5.4-12-12-12zM595.9 127.8h-72c-6.6 0-12 5.4-12 12v72c0 6.6 5.4 12 12 12h72c6.6 0 12-5.4 12-12v-72c0-6.6-5.4-12-12-12zM595.9 255.3h-72c-6.6 0-12 5.4-12 12v72c0 6.6 5.4 12 12 12h72c6.6 0 12-5.4 12-12v-72c0-6.6-5.4-12-12-12zM739.2 128.5h-72c-6.6 0-12 5.4-12 12v72c0 6.6 5.4 12 12 12h72c6.6 0 12-5.4 12-12v-72c0-6.6-5.4-12-12-12zM883.2 0.7h-72c-6.6 0-12 5.4-12 12v72c0 6.6 5.4 12 12 12h72c6.6 0 12-5.4 12-12v-72c0-6.6-5.4-12-12-12zM447.1 151.2h-192.1c-13.8 0-25 11.2-25 25s11.2 25 25 25h192c13.8 0 25-11.2 25-25s-11.1-25-24.9-25zM255 151.2c-6.4 0-12.8 2.4-17.7 7.3-9.8 9.8-9.7 25.6 0 35.4l64.1 63.9c9.8 9.8 25.6 9.7 35.4 0 9.8-9.8 9.7-25.6 0-35.4l-64.1-63.9c-4.9-4.9-11.3-7.3-17.7-7.3zM319.1 87.5c-6.4 0-12.8 2.4-17.6 7.3l-64 63.7c-9.8 9.7-9.8 25.6-0.1 35.4s25.6 9.8 35.4 0.1l64-63.7c9.8-9.7 9.8-25.6 0.1-35.4-5-4.9-11.4-7.4-17.8-7.4z" />
<glyph unicode="&#xe90b;" glyph-name="wh-in2" d="M545 269.84h-90.78c-15.859 0-28.715-12.856-28.715-28.715s12.856-28.715 28.715-28.715h90.78c15.859 0 28.715 12.856 28.715 28.715s-12.856 28.715-28.715 28.715v0zM946.87 445.34l-285.62 181.41v113.83c0 15.856-12.854 28.71-28.71 28.71v0h-539.81c-0.006 0-0.013 0-0.020 0-15.856 0-28.71-12.854-28.71-28.71v0-499.45c0-15.856 12.854-28.71 28.71-28.71v0h59.1c15.859 0 28.715 12.856 28.715 28.715s-12.856 28.715-28.715 28.715h-30.37v442h482.39v-100.85c0-0.001 0-0.002 0-0.003 0-10.145 5.262-19.061 13.206-24.168l0.114-0.069 285.61-181.44v-135.48h-58.060c-15.859 0-28.715-12.856-28.715-28.715s12.856-28.715 28.715-28.715h86.77c15.856 0 28.71 12.854 28.71 28.71v0 180c-0.004 10.137-5.261 19.046-13.196 24.151l-0.114 0.069zM302.090 355.060c-0.006 0-0.013 0-0.020 0-62.922 0-113.93-51.008-113.93-113.93s51.008-113.93 113.93-113.93c62.922 0 113.93 51.008 113.93 113.93v0c-0.074 62.885-51.027 113.845-113.902 113.93h-0.008zM302.090 184.63c-31.204 0-56.5 25.296-56.5 56.5s25.296 56.5 56.5 56.5c31.204 0 56.5-25.296 56.5-56.5v0c-0.040-31.188-25.312-56.46-56.496-56.5h-0.004zM695 355.060c-62.913-0.011-113.91-51.015-113.91-113.93 0-62.922 51.008-113.93 113.93-113.93s113.93 51.008 113.93 113.93v0c-0.074 62.899-51.049 113.867-113.944 113.93h-0.006zM695 184.63c-31.204 0-56.5 25.296-56.5 56.5s25.296 56.5 56.5 56.5c31.204 0 56.5-25.296 56.5-56.5v0c-0.040-31.188-25.312-56.46-56.496-56.5h-0.004zM319.92 559.24h25.91v-50.59h-25.91zM370.57 559.24h25.91v-50.59h-25.91zM238.050 604.46l-63.29-56.35c-8.74-7.79-8.74-20.41 0-28.18l63.29-56.35c8.69-7.74 22.77-7.74 31.51-0.080v45.15h25.91v50.59h-25.91v45.3c-4.211 3.568-9.706 5.738-15.708 5.738-6.045 0-11.576-2.201-15.835-5.846l0.033 0.028z" />
<glyph unicode="&#xe90c;" glyph-name="wh-in3" d="M614.4-64h358.4c28.278 0 51.2 22.922 51.2 51.2v614.4c-0.092 17.126-8.735 33.075-23.040 42.496l-460.8 307.2c-17.203 11.479-39.629 11.479-56.832 0l-460.8-307.2c-14.111-9.539-22.554-25.467-22.528-42.496v-204.8c0-28.278 22.922-51.2 51.2-51.2s51.2 22.922 51.2 51.2v177.152l409.6 273.408 409.6-272.896v-536.064h-307.2c-28.278 0-51.2-22.922-51.2-51.2s22.922-51.2 51.2-51.2v0zM512 140.18l-205.169-153.103 0.246 102.4-307.2 0.748 0.246 102.4 307.2-0.748 0.246 102.4 204.431-154.097z" />
<glyph unicode="&#xe90d;" glyph-name="wh-io" d="M174.682 613.647h367.435v60.235h-367.435zM174.682 487.153h228.894v60.235h-228.894zM174.682 354.635h228.894v60.235h-228.894zM174.682 222.118h228.894v60.235h-228.894zM530.071 354.635h349.365v-54.212h-355.388l72.282-72.282-42.165-42.165-138.541 138.541 138.541 138.541 42.165-42.165-66.259-66.259zM879.435 577.506h-349.365v-54.212h355.388l-72.282-72.282 42.165-42.165 138.541 138.541-138.541 138.541-42.165-42.165 66.259-66.259zM764.988 758.212c0 60.235-48.188 114.447-114.447 114.447h-505.976c-60.235 0-114.447-48.188-114.447-114.447v-620.424c0-60.235 48.188-114.447 114.447-114.447h505.976c60.235 0 114.447 48.188 114.447 114.447v84.329h-60.235v-84.329c0-30.118-24.094-54.212-54.212-54.212h-505.976c-30.118 0-54.212 24.094-54.212 54.212v620.424c0 30.118 24.094 54.212 54.212 54.212h505.976c30.118 0 54.212-24.094 54.212-54.212v-96.376h60.235v96.376z" />
<glyph unicode="&#xe90e;" glyph-name="wh-io2" d="M523.21 383.47c11.353 0.224 20.472 9.48 20.472 20.866 0 11.347-9.056 20.58-20.335 20.863l-0.026 0.001-211 1 64 67.33c3.549 3.737 5.732 8.801 5.732 14.375 0 11.538-9.354 20.892-20.892 20.892-5.964 0-11.345-2.499-15.151-6.508l-0.009-0.009-97.22-102.28c-3.553-3.733-5.739-8.797-5.739-14.37 0-11.478 9.271-20.791 20.733-20.86l259.317-1.26zM263.82 332.19h-0.11c-11.353-0.224-20.472-9.48-20.472-20.866 0-11.347 9.056-20.58 20.335-20.863l0.026-0.001 193.28-1c0.018 0 0.039 0 0.060 0 11.526 0 20.87 9.344 20.87 20.87 0 11.505-9.31 20.836-20.807 20.87h-0.003zM569.54 81.75h-365.75c-29.469 0.034-53.347 23.92-53.37 53.388v413.062c-0.094 2.294-0.556 4.453-1.327 6.459l0.047-0.139 319.86 253.79c10.315 8.294 23.572 13.313 38 13.313s27.685-5.018 38.118-13.405l-0.118 0.092 319.82-253.79c-0.716-1.867-1.174-4.026-1.269-6.278l-0.001-0.042v-82.41c0.256-11.328 9.499-20.413 20.865-20.413s20.609 9.085 20.865 20.389v56.644l13.72-10.85c3.467-2.661 7.866-4.264 12.64-4.264 11.526 0 20.87 9.344 20.87 20.87 0 6.456-2.932 12.228-7.536 16.056l-0.034 0.028-374.020 296.75c-17.36 13.967-39.673 22.418-63.96 22.418s-46.6-8.451-64.159-22.573l0.199 0.155-374-296.75c-4.822-3.859-7.884-9.745-7.884-16.345 0-11.534 9.35-20.884 20.884-20.884 4.934 0 9.468 1.711 13.041 4.571l-0.041-0.032 13.67 10.85v-387.27c0.046-52.519 42.602-95.083 95.114-95.14h365.756c11.526 0 20.87 9.344 20.87 20.87s-9.344 20.87-20.87 20.87v0zM843 333.7c-0.488 0.082-1.050 0.129-1.623 0.129-2.863 0-5.452-1.17-7.316-3.058l-22.001-22.001c-1.446-1.438-3.439-2.326-5.64-2.326s-4.194 0.889-5.64 2.327v0c-1.435 1.446-2.321 3.437-2.321 5.635s0.887 4.189 2.322 5.635v0l22 22c1.885 1.89 3.051 4.499 3.051 7.38 0 3.979-2.223 7.438-5.495 9.203l-0.055 0.027c-9.827 5.294-21.506 8.405-33.911 8.405-40.101 0-72.61-32.509-72.61-72.61 0-8.153 1.344-15.991 3.821-23.307l-0.15 0.512-82-82c-3.337-3.345-5.401-7.961-5.401-13.060s2.064-9.715 5.402-13.060v0l20.15-20.16c3.345-3.337 7.961-5.401 13.060-5.401s9.715 2.064 13.060 5.402v0l82 82c6.74-2.262 14.501-3.567 22.566-3.567 20.089 0 38.286 8.095 51.509 21.202l-0.005-0.005c13.197 13.102 21.365 31.253 21.365 51.312 0 12.425-3.134 24.117-8.655 34.33l0.189-0.383c-1.54 2.883-4.322 4.93-7.612 5.433l-0.058 0.007zM823 257.7c-9.291-9.385-22.177-15.196-36.419-15.196-6.212 0-12.166 1.105-17.676 3.13l0.355-0.114c-1.852 0.684-3.99 1.079-6.221 1.079-5.035 0-9.6-2.015-12.932-5.282l-81.417-81.417-16.77 16.77 81.47 81.45c3.27 3.308 5.291 7.857 5.291 12.879 0 2.254-0.407 4.413-1.152 6.408l0.041-0.127c-1.849 5.105-2.919 10.997-2.919 17.138 0 28.597 23.183 51.78 51.78 51.78 3.545 0 7.006-0.356 10.351-1.035l-0.333 0.056-10.45-10.44c-5.216-5.219-8.441-12.428-8.441-20.39 0-15.931 12.915-28.846 28.846-28.846 7.969 0 15.184 3.232 20.405 8.456l10.43 10.43c0.633-3.032 0.996-6.516 0.996-10.084 0-14.306-5.825-27.251-15.233-36.593l-0.003-0.003zM744.56 466c-117.72 0-213.48-95.76-213.48-213.46s95.76-213.48 213.48-213.48 213.44 95.75 213.44 213.48-95.73 213.46-213.44 213.46zM744.56 85.68c-92 0-166.83 74.85-166.83 166.86s74.83 166.83 166.83 166.83 166.84-74.85 166.84-166.83-74.85-166.86-166.84-166.86z" />
<glyph unicode="&#xe90f;" glyph-name="wh-out1" d="M409.6-64h-358.4c-28.277 0-51.2 22.923-51.2 51.2v0 614.4c0.094 17.693 9.148 33.251 22.852 42.378l0.188 0.118 460.8 307.2c7.984 5.393 17.824 8.609 28.416 8.609s20.432-3.216 28.598-8.725l-0.182 0.116 460.8-307.2c13.671-9.333 22.528-24.842 22.528-42.419 0-0.027 0-0.054 0-0.081v0.004-204.8c0-28.277-22.923-51.2-51.2-51.2s-51.2 22.923-51.2 51.2v0 177.152l-409.6 273.408-409.6-273.408v-535.552h307.2c28.277 0 51.2-22.923 51.2-51.2s-22.923-51.2-51.2-51.2v0zM1024 140.8l-204.8 153.6v-102.4h-307.2v-102.4h307.2v-102.4l204.8 153.6z" />
<glyph unicode="&#xe910;" glyph-name="wh-police" d="M672.7 143.5h-321.3c-12.3 0-23.4 7.5-27.9 19-0.8 1.9-18.9 47.7-37.3 103-25.4 76.1-38.2 131.2-38.2 163.6 0 70.5 27.5 136.8 77.3 186.7 49.9 49.9 116.2 77.3 186.7 77.3s136.8-27.5 186.7-77.3c49.9-49.9 77.3-116.2 77.3-186.7 0-32.4-12.9-87.5-38.2-163.6-18.4-55.3-36.5-101.1-37.3-103-4.5-11.5-15.5-19-27.8-19zM371.9 203.5h280.2c22.9 60.3 63.9 178.3 63.9 225.6 0 112.5-91.5 204-204 204s-204-91.5-204-204c0-47.4 41-165.3 63.9-225.6zM652.7 44.4h-281.4c-33.1 0-60 26.9-60 60v39.1c0 33.1 26.9 60 60 60h281.3c33.1 0 60-26.9 60-60v-39.1c0.1-33-26.9-60-59.9-60zM371.3 104.5c0.1 0 0.1-0.1 0 0h281.3v39.1h-281.3v-39.1zM613.2 344.2h-202.3c-16.6 0-30 13.4-30 30s13.4 30 30 30h202.3c16.6 0 30-13.4 30-30s-13.4-30-30-30zM512 153c-16.6 0-30 13.4-30 30v162.3c0 16.6 13.4 30 30 30s30-13.4 30-30v-162.3c0-16.6-13.4-30-30-30zM512 723.3c-16.6 0-30 13.4-30 30v92.3c0 16.6 13.4 30 30 30s30-13.4 30-30v-92.3c0-16.6-13.4-30-30-30zM756.8 643.8c-7.7 0-15.4 2.9-21.2 8.8-11.7 11.7-11.7 30.7 0 42.4l65.3 65.3c11.7 11.7 30.7 11.7 42.4 0s11.7-30.7 0-42.4l-65.3-65.3c-5.9-5.9-13.5-8.8-21.2-8.8zM268.3 643.8c-7.7 0-15.4 2.9-21.2 8.8l-65.3 65.3c-11.7 11.7-11.7 30.7 0 42.4s30.7 11.7 42.4 0l65.3-65.3c11.7-11.7 11.7-30.7 0-42.4-5.8-5.9-13.5-8.8-21.2-8.8zM928.5 399.1h-92.3c-16.6 0-30 13.4-30 30s13.4 30 30 30h92.3c16.6 0 30-13.4 30-30s-13.5-30-30-30zM187.8 399.1h-92.3c-16.6 0-30 13.4-30 30s13.4 30 30 30h92.3c16.6 0 30-13.4 30-30s-13.4-30-30-30z" />
<glyph unicode="&#xe911;" glyph-name="wh-query" d="M759.147 430.333c0.013 0 0.029 0 0.044 0 126.727 0 229.46-102.733 229.46-229.46 0-52.735-17.79-101.316-47.696-140.067l0.396 0.534 82.639-79.935-42.377-45.345-84.137 81.669c-37.999-28.945-86.132-46.374-138.336-46.374-126.76 0-229.519 102.759-229.519 229.519s102.759 229.519 229.519 229.519c0.013 0 0.026 0 0.039 0h-0.002zM502.327 960.020c0.257 0.005 0.561 0.008 0.865 0.008 10.303 0 19.856-3.214 27.711-8.693l-0.158 0.104 464.828-320.915c3.056-2.115 5.033-5.602 5.033-9.551 0-1.523-0.294-2.978-0.829-4.31l0.028 0.078-1.352-2.469-41.349-58.452c-2.296-3.073-5.923-5.041-10.011-5.041-1.369 0-2.687 0.221-3.919 0.629l0.088-0.025-2.38 1.205-64.653 41.995v-85.46c-24.419 6.013-52.454 9.463-81.294 9.463-0.121 0-0.243 0-0.364 0h0.019c-185.143 0-335.462-142.296-335.462-317.8 0.095-73.244 25.928-140.436 68.936-193.036l-0.433 0.546h-348.569c-27.742 0-54.72 38.968-54.72 66.417v519.812l-64.653-41.936c-1.78-1.171-3.962-1.869-6.307-1.869-2.148 0-4.16 0.585-5.884 1.604l0.054-0.029c-1.131 0.573-2.1 1.279-2.939 2.116v0l-1.205 1.411-41.378 58.57c-1.282 1.837-2.049 4.117-2.049 6.577 0 2.992 1.135 5.719 2.998 7.774l-0.009-0.010 1.998 1.763 464.828 320.915c6.61 4.622 14.644 7.658 23.333 8.393l0.177 0.012 9.022 0.206zM759.147 364.798c-90.55 0-163.955-73.405-163.955-163.955s73.405-163.955 163.955-163.955c90.55 0 163.955 73.405 163.955 163.955v0c-0.1 90.509-73.445 163.855-163.945 163.955h-0.010zM368.876 191.028h-139.298c-6.395 0-11.579-5.184-11.579-11.579v0-61.332c0-6.395 5.184-11.579 11.579-11.579v0h139.298c6.395 0 11.579 5.184 11.579 11.579v0 61.303c0 6.395-5.184 11.579-11.579 11.579v0zM368.553 324.419h-138.975c-6.395 0-11.579-5.184-11.579-11.579v0-56.131c0 0 0-0.001 0-0.001 0-6.43 5.163-11.655 11.57-11.754h138.984c6.395 0 11.579 5.184 11.579 11.579v0 56.131c0.001 0.052 0.001 0.114 0.001 0.176 0 6.395-5.184 11.579-11.579 11.579 0 0-0.001 0-0.001 0v0z" />
<glyph unicode="&#xe912;" glyph-name="wh-query2" d="M526.272 860.608l5.184-3.2 416.896-320c7.744-5.903 12.69-15.133 12.69-25.517 0-17.673-14.327-32-32-32-5.411 0-10.508 1.343-14.976 3.713l0.173-0.084-4.864 3.072-41.6 32v-457.92c0-0.017 0-0.038 0-0.059 0-17.673-14.327-32-32-32-15.658 0-28.689 11.246-31.457 26.101l-0.031 0.198-0.512 5.76v501.632l0.384 5.056-292.16 224.32-287.552-221.824 0.384-1.792 0.512-5.76v-501.632c0-0.017 0-0.038 0-0.059 0-17.673-14.327-32-32-32-15.658 0-28.689 11.246-31.457 26.101l-0.031 0.198-0.512 5.76v460.608l-44.8-34.624c-5.348-4.162-12.16-6.673-19.559-6.673-8.242 0-15.756 3.116-21.429 8.234l0.028-0.025-3.968 4.288c-4.144 5.341-6.644 12.139-6.644 19.521 0 8.26 3.13 15.79 8.268 21.467l-0.024-0.027 4.224 3.904 415.040 320c5.338 4.136 12.13 6.631 19.504 6.631 5.208 0 10.125-1.244 14.47-3.451l-0.182 0.084zM337.92 216.448c26.51 0 48-21.49 48-48s-21.49-48-48-48v0c-26.51 0-48 21.49-48 48s21.49 48 48 48v0zM579.84 464.832c70.692-0.001 127.998-57.308 127.998-128 0-26.344-7.958-50.829-21.602-71.182l0.291 0.462 59.072-59.008c5.821-5.796 9.423-13.816 9.423-22.678 0-17.673-14.327-32-32-32-6.83 0-13.161 2.14-18.358 5.786l0.102-0.068-4.48 3.712-61.44 61.44c-17.122-9.073-37.431-14.4-58.983-14.4-70.692 0-128 57.308-128 128 0 70.684 57.294 127.986 127.974 128h0.001zM337.92 344.512c26.51 0 48-21.49 48-48s-21.49-48-48-48v0c-26.51 0-48 21.49-48 48s21.49 48 48 48v0zM579.84 400.832c-35.346 0-64-28.654-64-64s28.654-64 64-64v0c35.346 0 64 28.654 64 64s-28.654 64-64 64v0zM337.92 472.512c26.51 0 48-21.49 48-48s-21.49-48-48-48v0c-26.51 0-48 21.49-48 48s21.49 48 48 48v0z" />
<glyph unicode="&#xe913;" glyph-name="wh-trans" horiz-adv-x="1092" d="M545.314 960l545.314-408.439v-166.571l-545.314 408.576-545.314-408.508v166.571l545.314 408.371zM136.533 373.589l409.6 316.962 409.6-317.030v-437.521h-819.2v437.589zM766.293 248.32c0.172 3.174 0.271 6.897 0.273 10.642v0.007c0 118.647-98.987 214.835-221.047 214.835-0.136 0-0.297 0-0.458 0-42.636 0-82.498-11.88-116.455-32.511l0.996 0.562c-8.003-4.162-13.389-12.368-13.448-21.837v-0.008c0-13.653 11.401-24.781 25.532-24.781 5.456 0 10.519 1.685 14.696 4.562l-0.087-0.057c25.941 15.565 56.525 24.576 89.225 24.576 93.935 0 170.121-74.001 170.121-165.342 0-3.55-0.137-7.168-0.41-10.65h-49.425l76.117-105.95 76.049 105.95h-51.678zM649.421 122.368c-0.020 0-0.043 0-0.067 0-5.457 0-10.52-1.685-14.698-4.563l0.087 0.057c-25.941-15.565-56.457-24.576-89.225-24.576-93.935 0-170.052 74.001-170.052 165.274 0 3.618 0.137 7.168 0.341 10.718h49.425l-76.049 105.882-76.117-105.882h51.678c-0.133-2.805-0.209-6.092-0.209-9.397 0-0.464 0.001-0.929 0.004-1.392v0.071c0-118.579 98.987-214.767 220.979-214.767 0.156 0 0.341-0.001 0.526-0.001 42.636 0 82.498 11.88 116.455 32.512l-0.996-0.562c8.003 4.162 13.389 12.368 13.448 21.837v0.008c0 13.653-11.469 24.781-25.532 24.781z" />
<glyph unicode="&#xe914;" glyph-name="wms" d="M997.846 697.193l-460.709 255.949c-7.342 4.312-16.171 6.858-25.595 6.858s-18.253-2.546-25.836-6.989l0.242 0.131-460.709-255.949c-15.204-9.062-25.231-25.42-25.231-44.12 0-9.385 2.525-18.18 6.934-25.742l-0.131 0.243c8.931-15.671 25.515-26.073 44.53-26.107h0.005v-614.278c0-28.271 22.918-51.19 51.19-51.19h819.037c28.271 0 51.19 22.918 51.19 51.19v0 614.278c28.204 0.089 51.034 22.973 51.034 51.19 0 18.992-10.342 35.568-25.702 44.404l-0.249 0.132zM153.726 38.38v614.278l358.329 199.128 358.329-199.128v-614.278zM204.916 191.949h102.38v-102.38h-102.38zM204.916 345.519h102.38v-102.38h-102.38zM204.916 499.088h102.38v-102.38h-102.38zM358.485 345.519h102.38v-102.38h-102.38zM358.485 191.949h102.38v-102.38h-102.38zM512.055 191.949h102.38v-102.38h-102.38z" />
<glyph unicode="&#xe915;" glyph-name="zone" d="M109.715 448c-14.409 0-28.672-1.902-41.984-5.559-13.535-3.673-25.39-9.108-36.084-16.159l0.464 0.287c-10.167-6.802-18.286-14.848-23.771-23.698-5.147-7.926-8.243-17.599-8.338-27.988v-0.025c0-9.582 2.853-19.090 8.338-28.014 5.559-8.85 13.605-16.896 23.771-23.698 10.24-6.802 22.309-12.215 35.621-15.872s27.575-5.559 41.984-5.559c29.111 0 57.051 7.68 77.531 21.431 20.699 13.678 32.183 32.329 32.183 51.712s-11.557 38.034-32.183 51.712c-20.48 13.751-48.347 21.431-77.531 21.431zM525.24 957.513l-4.169 2.487c8.777-12.069 8.777-6.363 4.169-2.56zM992.037 720.75c17.554 0 31.817 14.117 31.963 31.671v167.936c-0.165 17.542-14.404 31.703-31.96 31.744h-169.257c-17.56-0.041-31.798-14.202-31.963-31.728v-52.094h-103.863c-1.473 0.244-3.171 0.384-4.901 0.384s-3.428-0.14-5.082-0.408l0.181 0.024h-444.123v52.078c-0.124 17.533-14.346 31.703-31.886 31.744h-169.183c0 0 0 0-0.001 0-17.576 0-31.838-14.186-31.963-31.732v-167.802c0.166-17.527 14.412-31.671 31.962-31.671 0 0 0.001 0 0.001 0h52.663v-553.691h-52.663c-17.56-0.041-31.798-14.202-31.963-31.728v-167.806c0.166-17.527 14.412-31.671 31.962-31.671 0 0 0.001 0 0.001 0h169.179c17.554 0 31.89 14.19 32.037 31.744v52.151h557.714v-52.151c0.146-17.554 14.482-31.744 32.037-31.744h169.033c17.554 0 31.89 14.19 32.037 31.744v167.643c-0.166 17.527-14.412 31.671-31.962 31.671-0.026 0-0.052 0-0.079 0h-52.586v445.733c0.046 0.482 0.072 1.043 0.072 1.609s-0.026 1.127-0.078 1.68l0.005-0.071v104.814h52.663v-0.146zM148.7 497.445c2.005 1.314 3.752 2.736 5.341 4.317l-0.001-0.001 305.006 302.811h145.554l-456.046-452.462v145.335zM201.217 720.75c0.065 0 0.143-0.001 0.22-0.001 17.521 0 31.734 14.162 31.817 31.664v52.378h135.387l-219.941-218.478v134.583h52.663l-0.073-0.073zM148.627 262.29l546.377 542.427h95.963v-38.985l-603.209-598.601h-39.278v95.378h0.146v-0.219zM875.448 394.971l-306.469-304.128c-2.207-2.194-4.103-4.696-5.619-7.438l-0.086-0.169h-145.554l457.728 454.29v-142.555zM822.858 167.058c0 0 0 0-0.001 0-17.576 0-31.838-14.186-31.963-31.732v-52.163h-138.971l223.525 221.989v-138.094h-52.59zM875.521 627.346l-548.352-544.037h-94.135v39.131l602.99 598.309h39.497v-93.403z" />
<glyph unicode="&#xe916;" glyph-name="rejection" d="M583.424 896c0.008 0 0.018 0 0.027 0 8.4 0 16.044-3.237 21.753-8.531l-0.021 0.019 312.512-289.088c6.337-5.858 10.294-14.21 10.304-23.486v-542.914c0-17.673-14.327-32-32-32v0h-768c-17.673 0-32 14.327-32 32v0 832c0 17.673 14.327 32 32 32v0zM570.88 832h-410.88v-768h704v496.96l-293.12 271.040zM522.88 619.84c123.712 0 224-100.288 224-224s-100.288-224-224-224v0c-17.673 0-32 14.327-32 32s14.327 32 32 32v0c0.003 0 0.007 0 0.011 0 88.366 0 160 71.634 160 160s-71.634 160-160 160c-78.184 0-143.271-56.078-157.231-130.206l-0.156-0.994 21.312 22.208c5.835 6.080 14.028 9.858 23.104 9.858 17.674 0 32.002-14.328 32.002-32.002 0-8.599-3.391-16.405-8.909-22.155l0.011 0.011-78.976-82.56-0.64-0.512-0.64-0.704c-0.42-0.443-0.837-0.86-1.265-1.266l-0.015-0.014 2.56 2.56c-5.853-6.070-14.056-9.84-23.14-9.84-9.177 0-17.456 3.848-23.31 10.018l-0.013 0.014 2.496-2.368c-0.47 0.402-0.887 0.778-1.294 1.165l0.014-0.013-0.576 0.64-0.64 0.64-77.184 82.496-3.584 4.48c-3.215 4.906-5.127 10.917-5.127 17.374 0 17.673 14.327 32 32 32 9.244 0 17.572-3.919 23.414-10.187l0.018-0.019 23.296-24.832c13.37 112.098 107.86 198.184 222.462 198.208h0.002z" />
<glyph unicode="&#xe917;" glyph-name="robot" d="M981.333 341.333h-106.667v21.333c0.039 1.797 0.061 3.916 0.061 6.039 0 96.838-46.088 182.912-117.525 237.484l-0.723 0.53 103.893 162.987c4.342-1.051 9.328-1.654 14.454-1.654 35.346 0 64 28.654 64 64s-28.654 64-64 64c-35.346 0-64-28.654-64-64 0-14.881 5.079-28.576 13.598-39.446l-0.105 0.14-103.040-162.133c-58.138 32.799-127.648 52.123-201.672 52.123-2.675 0-5.344-0.025-8.007-0.075l0.399 0.006c-2.264 0.044-4.933 0.070-7.608 0.070-74.024 0-143.534-19.324-203.761-53.203l2.089 1.080-103.040 162.133c8.414 10.73 13.493 24.425 13.493 39.306 0 35.346-28.654 64-64 64s-64-28.654-64-64c0-35.346 28.654-64 64-64 5.126 0 10.112 0.603 14.889 1.741l-0.435-0.088 103.893-162.987c-72.16-55.102-118.248-141.176-118.248-238.014 0-2.123 0.022-4.242 0.066-6.355l-0.005 0.316v-21.333h-106.667v-256h106.667v-85.333h725.333v85.333h106.667zM85.333 128v170.667h64v-170.667zM832 42.667h-640v320c0 192 160.64 277.333 320 277.333s320-85.333 320-277.333v-320zM938.667 128h-64v170.667h64zM362.667 298.667c0-0.002 0-0.004 0-0.007 0-23.564 19.103-42.667 42.667-42.667s42.667 19.103 42.667 42.667c0 0.002 0 0.005 0 0.007v0c0 0.002 0 0.004 0 0.007 0 23.564-19.103 42.667-42.667 42.667s-42.667-19.103-42.667-42.667c0-0.002 0-0.005 0-0.007v0zM576 298.667c0-0.002 0-0.004 0-0.007 0-23.564 19.103-42.667 42.667-42.667s42.667 19.103 42.667 42.667c0 0.002 0 0.005 0 0.007v0c0 0.002 0 0.004 0 0.007 0 23.564-19.103 42.667-42.667 42.667s-42.667-19.103-42.667-42.667c0-0.002 0-0.005 0-0.007v0zM661.333 426.667h-298.667c-70.692 0-128-57.308-128-128s57.308-128 128-128v0h298.667c70.692 0 128 57.308 128 128s-57.308 128-128 128v0zM661.333 213.333h-298.667c-47.128 0-85.333 38.205-85.333 85.333s38.205 85.333 85.333 85.333v0h298.667c47.128 0 85.333-38.205 85.333-85.333s-38.205-85.333-85.333-85.333v0z" />
<glyph unicode="&#xe918;" glyph-name="robot2" d="M972.429 77.605h-34.632v34.631c0 8.693-7.047 15.742-15.742 15.742h-309.712v168.963c0 8.694-7.046 15.742-15.741 15.742h-94.633v191.618l-31.484 9.22v-268.003h-177.179v598.59c0 0.579 0.472 1.050 1.049 1.050h175.080c0.577 0 1.049-0.471 1.049-1.050v-195.947l31.484-9.22v205.166c0 17.939-14.593 32.534-32.533 32.534h-175.080c-17.938 0-32.533-14.594-32.533-32.534v-531.424h-34.632c-8.696 0-15.743-7.048-15.743-15.742v-168.963h-45.005c-8.696 0-15.742-7.049-15.742-15.742v-34.631h-35.683v252.919c0 8.694-7.046 15.743-15.741 15.743h-67.165c-8.697 0-15.742-7.049-15.742-15.743v-337.324c0-8.695 7.045-15.741 15.742-15.741l940.318 1.494c8.696 0 15.741 7.050 15.741 15.745v67.165c0 8.693-7.045 15.742-15.741 15.742zM83.535 8.942h-35.683v305.84h35.683v-305.84zM242.933 281.199h18.89v-51.423c0-8.694 7.046-15.743 15.742-15.743h208.661c8.697 0 15.743 7.049 15.743 15.743v51.423h78.891v-153.221h-337.927v153.221zM182.184 96.494h724.129v-18.889h-724.129v18.889zM956.688 10.439h-841.67v35.68h841.669v-35.68zM383.864 673.528c-2.272 0.692-4.883 1.090-7.587 1.091v0c-11.91 0-22.569-7.994-25.92-19.439l-21.124-72.131c-4.188-14.301 4.028-29.341 18.316-33.525l182.197-53.358c15.825-18.21 39.126-29.757 65.089-29.757 47.557 0 86.246 38.69 86.246 86.247s-38.689 86.246-86.246 86.246c-17.060 0-32.963-4.999-46.364-13.579l-164.607 48.205zM594.834 608.901c31.015 0 56.246-25.232 56.246-56.246s-25.231-56.247-56.246-56.247-56.246 25.232-56.246 56.247c0 31.014 25.232 56.246 56.246 56.246zM523.679 601.323c-9.511-13.862-15.091-30.623-15.091-48.667 0-6.781 0.812-13.372 2.298-19.706l-152.028 44.522 19.453 66.423 145.368-42.572zM976.17 646.402h-230.987c-14.888 0-27-12.112-27-27v-172.49c0-14.888 12.112-27 27-27h230.987c14.888 0 27 12.112 27 27v172.49c0 14.888-12.112 27-27 27zM973.17 449.912h-224.987v24.497h224.987v-24.497zM973.17 498.869h-224.987v117.533h224.987v-117.533zM778.759 518.727c4.276-5.063 10.934-6.473 14.869-3.149l69.468 58.674c3.936 3.324 3.657 10.123-0.619 15.187l-0.967 1.145c-4.276 5.063-10.934 6.473-14.869 3.149l-69.467-58.675c-3.935-3.324-3.658-10.123 0.618-15.185l0.967-1.146zM884.087 515.479l27.913 23.208c4.458 3.708 5.067 10.328 1.36 14.787s-10.327 5.067-14.786 1.359l-27.913-23.208c-4.458-3.707-5.067-10.327-1.36-14.785s10.328-5.068 14.786-1.361zM976.17 391.444h-230.987c-14.888 0-27-12.112-27-27v-172.49c0-14.888 12.112-27 27-27h230.987c14.888 0 27 12.112 27 27v172.49c0 14.888-12.112 27-27 27zM973.17 194.954h-224.987v24.496h224.987v-24.496zM973.17 243.911h-224.987v117.533h224.987v-117.533zM778.759 263.769c4.276-5.063 10.934-6.473 14.869-3.148l69.468 58.674c3.936 3.324 3.657 10.124-0.619 15.187l-0.967 1.145c-4.276 5.063-10.934 6.474-14.869 3.15l-69.467-58.677c-3.935-3.323-3.658-10.122 0.618-15.185l0.967-1.146zM884.087 260.521l27.913 23.208c4.458 3.708 5.067 10.328 1.36 14.787-3.707 4.458-10.327 5.067-14.786 1.359l-27.913-23.208c-4.458-3.707-5.067-10.327-1.36-14.785s10.328-5.068 14.786-1.361z" />
<glyph unicode="&#xe919;" glyph-name="rout" d="M719.2 480h-413.6c-57.6 0-108 41.6-114.4 99.2-7.2 67.2 45.6 124.8 112 124.8h424.8v-64l166.4 96-166.4 96v-64h-424.8c-97.6 0-176-78.4-176-176s78.4-176 176-176h413.6c57.6 0 108-41.6 114.4-99.2 8-67.2-45.6-124.8-111.2-124.8h-424v64l-168-98.4 168-93.6v64h423.2c97.6 0 176 78.4 176 176s-78.4 176-176 176z" />
<glyph unicode="&#xe91a;" glyph-name="sales" d="M340.992 878.080h24.576c5.632 19.968 16.896 37.888 31.744 51.712 42.496 38.912 107.52 38.912 150.016 0 12.288-11.264 22.016-25.088 28.16-40.448 100.864 91.648 256 88.064 352.256-8.704 99.84-99.328 99.84-260.608 0.512-360.448l-4.096-4.096v-467.968c0-61.952-50.688-112.128-112.128-112.128h-678.912c-29.696 0-58.368 11.776-79.36 32.768s-32.768 49.664-32.768 79.36v661.504c-0.512 61.952 50.176 112.128 112.128 112.128h132.608c4.096 12.288 10.752 23.552 19.968 32.768 14.336 15.36 34.304 23.552 55.296 23.552zM538.112 846.848l-0.512 6.656c-1.536 16.384-8.704 31.744-20.992 42.496-12.288 11.264-27.648 17.408-44.032 17.408-33.792 0-62.464-26.112-65.024-59.904l-1.536-20.992h-65.024c-8.704 0-17.408-3.584-24.064-9.728-6.144-6.144-9.728-14.848-9.728-24.064v-72.192c0-9.216 3.584-17.92 9.728-24.064s14.848-9.728 24.064-9.728h150.528c-1.536 55.296 14.848 109.056 46.592 154.112zM497.152 647.68h-156.16c-20.992 0-40.96 8.192-55.808 23.040s-23.040 34.816-23.040 55.808v49.664h-129.024c-36.864 0-66.56-30.208-67.072-67.072v-661.504c0-18.432 7.68-35.328 19.456-47.104 12.288-12.288 28.672-19.456 47.104-19.456h678.912c36.864 0 66.56 30.208 67.072 67.072v433.152c-39.936-24.064-85.504-36.864-131.584-36.864-36.352 0-70.656 7.68-101.888 20.992h-419.84c-32.256 0-32.256 45.568 0 45.568h350.208c-39.936 36.352-67.072 83.968-78.336 136.704zM225.28 184.32h494.080c32.256 0 32.256-45.568 0-45.568h-494.080c-32.256 0.512-32.256 45.568 0 45.568zM225.28 347.648h494.080c32.256 0 32.256-45.568 0-45.568h-494.080c-32.256 0.512-32.256 45.568 0 45.568zM747.008 910.336c-55.808 0-109.056-22.016-148.48-61.44s-61.44-92.672-61.44-148.48c0-55.808 22.016-109.056 61.44-148.48s92.672-61.44 148.48-61.44c115.712 0 209.92 94.208 209.92 209.92 0 57.856-23.552 110.592-61.44 148.48-39.424 38.912-92.672 61.44-148.48 61.44zM683.52 833.024c-1.536-3.072-3.584-6.144-5.12-9.728-1.536-3.072-3.584-6.144-5.632-9.728h92.16c-0.512 0.512-0.512 1.024-1.024 1.024-2.048 2.048-4.608 5.12-7.68 8.704-2.56 3.072-5.632 6.656-8.704 9.728-3.584 3.584-5.632 6.656-5.632 9.216s1.024 5.12 3.072 7.68c5.632 5.632 11.776 5.12 18.432-2.048 3.072-3.584 6.144-6.656 9.728-10.24s6.144-6.656 8.192-9.728c5.12-6.144 6.656-10.752 4.608-14.848h89.6c7.168 0 10.752-3.584 10.752-10.752 0-7.68-3.584-11.776-10.752-11.776h-97.28v-19.456h87.040c7.68 0 11.264-3.584 11.264-10.752 0-7.68-3.584-11.264-11.264-11.264h-87.040v-19.968h87.040c7.68 0 11.264-3.584 11.264-10.752 0-7.68-3.584-11.264-11.264-11.264h-86.016v-20.992h99.328c7.68 0 11.264-3.584 11.264-10.752 0-7.68-3.584-11.264-11.264-11.264h-218.112v-7.68c0-3.584-1.024-6.656-3.072-8.192-2.048-2.048-5.12-2.56-8.192-2.56-7.68 0-11.776 3.584-11.776 11.264v106.496c-3.584-4.096-6.656-8.192-10.24-11.776s-6.656-7.168-10.24-10.752c-4.096-4.096-7.68-6.144-10.24-6.656-2.56 0-5.632 1.024-8.704 4.096-2.56 2.56-3.584 5.12-3.584 8.192s2.048 6.656 6.144 10.24c5.12 5.12 10.752 11.264 16.896 18.432s11.776 14.336 17.408 22.016 11.264 15.36 15.872 23.040c5.12 7.68 9.216 15.36 12.8 23.040 2.048 4.608 4.608 7.68 7.168 8.704 2.56 1.536 5.632 1.024 9.728-1.024 3.072-1.536 4.608-3.584 5.632-6.144 1.536-2.56 0.512-6.656-2.56-11.776zM871.424 587.264c0-5.632-0.512-10.24-1.024-13.824-1.024-3.584-2.56-6.656-4.608-8.704s-5.12-3.584-9.216-4.608c-4.096-1.024-9.216-1.024-15.872-1.024h-181.76c-6.144 0-11.264 0.512-15.36 1.024-4.096 1.024-7.168 2.56-9.216 4.608s-3.584 5.12-4.096 8.704c-0.512 3.584-1.024 8.192-1.024 13.824v27.648c0 5.632 0.512 10.752 1.024 14.336s2.048 6.656 4.608 8.704c2.048 2.048 5.12 3.584 9.216 4.608s8.704 1.024 15.36 1.024h181.76c6.144 0 11.264-0.512 15.36-1.024s7.168-2.048 9.216-4.096c2.048-2.048 4.096-5.12 4.608-8.704s1.536-8.704 1.536-14.336v-28.16zM846.848 616.448c0 3.072-2.048 4.608-6.144 4.608h-182.784c-3.584 0-5.12-1.536-5.12-4.096v-30.72c0-2.048 0.512-3.072 1.536-3.584s2.048-1.024 4.096-1.024h182.784c2.048 0 3.584 0.512 4.608 1.024s1.536 2.048 1.536 3.584l-0.512 30.208zM660.48 686.592h95.744v20.992h-95.744v-20.992zM660.48 730.112h95.744v19.968h-95.744v-19.968zM660.48 772.096h95.744v19.456h-95.744v-19.456z" />
<glyph unicode="&#xe91b;" glyph-name="scan-code" d="M928 416h-832c-17.664 0-32 14.336-32 32s14.336 32 32 32h832c17.696 0 32-14.336 32-32s-14.304-32-32-32zM832 32h-192c-17.696 0-32 14.304-32 32s14.304 32 32 32h192c17.664 0 32 14.336 32 32v160c0 17.696 14.304 32 32 32s32-14.304 32-32v-160c0-52.928-43.072-96-96-96zM352 32h-160c-52.928 0-96 43.072-96 96v160c0 17.696 14.336 32 32 32s32-14.304 32-32v-160c0-17.664 14.368-32 32-32h160c17.664 0 32-14.304 32-32s-14.336-32-32-32zM128 576c-17.664 0-32 14.336-32 32v160c0 52.928 43.072 96 96 96h160c17.664 0 32-14.336 32-32s-14.336-32-32-32h-160c-17.632 0-32-14.368-32-32v-160c0-17.664-14.336-32-32-32zM896 576c-17.696 0-32 14.336-32 32v160c0 17.632-14.336 32-32 32h-192c-17.696 0-32 14.336-32 32s14.304 32 32 32h192c52.928 0 96-43.072 96-96v-160c0-17.664-14.304-32-32-32z" />
<glyph unicode="&#xe91c;" glyph-name="scan-code2" horiz-adv-x="1052" d="M995.556 30.151c0-20.579-16.683-37.262-37.262-37.262h-864.142c-20.579 0-37.262 16.683-37.262 37.262v161.849h-56.889v-161.849c0.161-51.933 42.218-93.99 94.136-94.151h864.157c51.933 0.161 93.99 42.218 94.151 94.136v161.864h-56.889zM958.293 960h-864.142c-51.933-0.161-93.99-42.218-94.151-94.136v-161.864h56.889v161.849c0 20.579 16.683 37.262 37.262 37.262v0h864.142c20.579 0 37.262-16.683 37.262-37.262v0-161.849h56.889v161.849c-0.161 51.933-42.218 93.99-94.136 94.151h-0.015zM119.751 760.889v-288.996h-77.084v-47.787h77.084v-288.996h56.889v288.996h54.898v-288.996h85.333v288.996h69.12v-288.996h28.444v288.996h83.342v-288.996h56.889v288.996h54.898v-288.996h85.333v288.996h69.12v-288.996h28.444v288.996h83.342v-288.996h56.889v288.996h77.084v47.787h-77.084v288.996h-56.889v-288.996h-83.342v288.996h-28.444v-288.996h-69.12v288.996h-85.333v-288.996h-54.898v288.996h-56.889v-288.996h-83.342v288.996h-28.444v-288.996h-69.12v288.996h-85.333v-288.996h-54.898v288.996h-56.889z" />
<glyph unicode="&#xe91d;" glyph-name="scan-qr" d="M682.667 960h341.333v-284.444h-113.778v170.667h-227.556v113.778zM341.333 960v-113.778h-227.556v-170.667h-113.778v284.444h341.333zM682.667-64v113.778h227.556v170.667h113.778v-284.444h-341.333zM341.333-64h-341.333v284.444h113.778v-170.667h227.556v-113.778zM0 504.889h1024v-113.778h-1024v113.778z" />
<glyph unicode="&#xe91e;" glyph-name="scan-qr2" d="M924.845 413.565h-825.86c-19.014 0-34.444 15.43-34.444 34.435 0 19.015 15.43 34.446 34.445 34.446h825.86c19.042 0 34.445-15.43 34.445-34.446-0.005-19.006-15.402-34.435-34.446-34.435zM856.4 0.277h-206.639c-19.042 0-34.44 15.403-34.44 34.444 0 19.045 15.398 34.443 34.44 34.443h206.64c19.010 0 34.44 15.43 34.44 34.434v172.204c0 19.043 15.392 34.44 34.446 34.44 19.043 0 34.43-15.397 34.43-34.44v-172.202c0.005-56.96-46.353-103.322-103.317-103.322zM339.802 0.277h-172.204c-56.958 0-103.317 46.364-103.317 103.322v172.203c0 19.043 15.431 34.44 34.436 34.44 19.015 0 34.444-15.397 34.444-34.44v-172.202c0-19.005 15.461-34.434 34.437-34.434h172.198c19.016 0 34.446-15.398 34.446-34.443 0-19.043-15.43-34.445-34.44-34.445zM98.722 585.767c-19.010 0-34.436 15.426-34.436 34.436v172.199c0 56.97 46.354 103.322 103.312 103.322h172.198c19.016 0 34.446-15.43 34.446-34.44 0-19.005-15.43-34.435-34.446-34.435h-172.198c-18.976 0-34.437-15.464-34.437-34.446v-172.198c0-19.012-15.43-34.437-34.44-34.437zM925.287 585.767c-19.054 0-34.445 15.426-34.445 34.436v172.199c0 18.978-15.426 34.446-34.442 34.446h-206.639c-19.042 0-34.44 15.43-34.44 34.436 0 19.009 15.398 34.44 34.44 34.44h206.64c56.963 0 103.317-46.354 103.317-103.323v-172.198c0.004-19.010-15.388-34.435-34.43-34.435z" />
<glyph unicode="&#xe91f;" glyph-name="scm" d="M359.552 815.68l4.416-3.712 147.968-148.032 148.096 148.032c5.792 5.799 13.797 9.386 22.641 9.386 6.803 0 13.11-2.123 18.295-5.742l-0.104 0.069 4.48-3.712 256-256c5.776-5.788 9.348-13.778 9.348-22.603 0-6.819-2.133-13.14-5.768-18.332l0.068 0.103-3.712-4.48-170.624-170.624c-5.792-5.799-13.797-9.386-22.641-9.386-6.803 0-13.11 2.123-18.295 5.742l0.104-0.069-4.48 3.712-148.032 148.032-105.344-105.344c-5.789-5.782-13.784-9.359-22.613-9.359-1.778 0-3.521 0.145-5.22 0.424l0.185-0.025-5.888 1.472-5.568 2.688-106.688 64c-9.376 5.693-15.544 15.848-15.544 27.444 0 6.692 2.054 12.905 5.567 18.041l-0.071-0.11 3.904 4.672 126.72 126.72-125.44 125.44-210.752-210.88 404.096-404.032c5.776-5.788 9.348-13.778 9.348-22.603 0-6.819-2.133-13.14-5.768-18.332l0.068 0.103-3.648-4.416c-5.792-5.799-13.797-9.386-22.641-9.386-6.803 0-13.11 2.123-18.295 5.742l0.104-0.069-4.48 3.712-426.624 426.752c-5.799 5.792-9.386 13.797-9.386 22.641 0 6.803 2.123 13.11 5.742 18.295l-0.069-0.104 3.712 4.416 256 256c5.792 5.799 13.797 9.386 22.641 9.386 6.803 0 13.11-2.123 18.295-5.742l-0.104 0.069zM551.552 282.304l4.416-3.648 64-64c5.821-5.796 9.423-13.816 9.423-22.678 0-17.673-14.327-32-32-32-6.83 0-13.161 2.14-18.358 5.786l0.102-0.068-4.48 3.648-64 64c-5.914 5.811-9.579 13.893-9.579 22.832 0 17.673 14.327 32 32 32 6.925 0 13.336-2.2 18.572-5.938l-0.097 0.066zM636.8 367.68l4.48-3.712 64-64c5.914-5.811 9.579-13.893 9.579-22.832 0-17.673-14.327-32-32-32-6.925 0-13.336 2.2-18.572 5.938l0.097-0.066-4.416 3.712-64 64c-5.821 5.796-9.423 13.816-9.423 22.678 0 17.673 14.327 32 32 32 6.83 0 13.161-2.14 18.358-5.786l-0.102 0.068zM682.56 744.064l-147.264-147.328c-0.213-0.219-0.421-0.427-0.633-0.633l-0.007-0.007-0.832-0.64-119.616-119.68 50.112-30.080 110.4 110.208c5.789 5.781 13.782 9.356 22.611 9.356 4.82 0 9.391-1.066 13.49-2.974l-0.197 0.082 4.928-2.752 4.416-3.712 147.968-148.032 125.44 125.44-210.752 210.688z" />
<glyph unicode="&#xe920;" glyph-name="send-out-goods" d="M1009.152 535.552l-102.4 102.4c-9.25 9.177-21.991 14.849-36.056 14.849-0.104 0-0.208 0-0.312-0.001h-102.384v153.6c0 28.277-22.923 51.2-51.2 51.2v0h-665.6c-28.277 0-51.2-22.923-51.2-51.2v0-563.2c0-28.277 22.923-51.2 51.2-51.2v0h51.2c0-84.831 68.769-153.6 153.6-153.6s153.6 68.769 153.6 153.6v0h153.6c0-84.831 68.769-153.6 153.6-153.6s153.6 68.769 153.6 153.6v0h102.4c28.277 0 51.2 22.923 51.2 51.2v0 256c0.001 0.088 0.001 0.192 0.001 0.296 0 14.065-5.671 26.806-14.852 36.059l0.003-0.003zM256 140.8c-28.277 0-51.2 22.923-51.2 51.2s22.923 51.2 51.2 51.2c28.277 0 51.2-22.923 51.2-51.2v0c0-28.277-22.923-51.2-51.2-51.2v0zM369.664 294.4c-28.202 30.945-68.674 50.288-113.664 50.288s-85.462-19.343-113.554-50.166l-0.11-0.122h-39.936v460.8h563.2v-418.816c-24.783-9.044-45.758-23.428-62.341-41.845l-0.123-0.139zM716.8 140.8c-28.277 0-51.2 22.923-51.2 51.2s22.923 51.2 51.2 51.2c28.277 0 51.2-22.923 51.2-51.2v0c0-28.277-22.923-51.2-51.2-51.2v0zM921.6 294.4h-91.136c-16.706 18.556-37.681 32.94-61.398 41.642l-1.066 0.342v214.016h81.408l72.192-72.192z" />
<glyph unicode="&#xe921;" glyph-name="shelf" d="M128 576h240v-224h-240v224zM656 319.2v-255.2h208c17.6 0 32 14.4 32 32v223.2h-240zM896 576h-240v-224.8h240v224.8zM400 480h224v352h-224v-352zM624 448h-224v-384h224v384zM656 608h240v192c0 17.6-14.4 32-32 32h-208v-224zM368 320h-240v-224c0-17.6 14.4-32 32-32h208v256zM368 608v224h-208c-17.6 0-32-14.4-32-32v-192h240z" />
<glyph unicode="&#xe922;" glyph-name="to-b" d="M768 144.384c14.912-9.984 24.896-19.968 39.808-29.888-75.552-70.289-176.951-113.687-288.477-114.495l-0.163-0.001c-109.568 0-214.144 44.8-288.768 114.496 14.912 9.92 29.888 19.904 39.808 29.888 64.704-59.776 154.304-94.592 248.96-94.592 94.528 0 184.128 34.816 248.832 94.592zM170.688 298.624c39.808 0 74.624-34.816 74.624-74.624s-34.816-74.688-74.624-74.688c-39.872 0-74.688 34.88-74.688 74.688s34.816 74.688 74.688 74.688zM867.584 298.624c39.808 0 74.624-34.816 74.624-74.624s-34.816-74.688-74.624-74.688c-39.872 0-74.688 34.88-74.688 74.688s34.816 74.688 74.688 74.688zM541.44 591.168c31.808 0 56.896-7.68 74.816-22.912 16.576-14.336 25.088-33.6 25.088-57.792 0-17.92-4.48-33.152-12.992-45.696-8.512-11.648-20.608-20.16-36.736-26.432 21.056-4.032 36.736-12.544 47.488-25.536 10.24-12.544 15.68-30.016 15.68-51.52 0-32.256-11.2-56-33.152-71.232-18.816-12.544-45.696-18.816-79.744-18.816h-147.008v319.808zM535.616 413.696h-88.32v-99.456h86.976c19.712 0 35.392 3.2 46.592 9.408 14.336 8.064 21.504 20.608 21.504 38.528 0 18.368-5.376 31.36-15.68 39.424-10.752 8.064-27.776 12.16-51.072 12.16zM643.584 826.368c174.208-54.72 298.624-214.016 298.624-403.2 0-29.888-4.992-64.704-9.92-94.592-13.379 9.384-30 14.997-47.931 14.997-0.654 0-1.307-0.007-1.957-0.022l0.097 0.002c4.992 24.896 9.92 49.728 9.92 74.624 0 164.288-109.44 303.68-258.816 353.472 4.992 19.84 9.984 34.816 9.984 49.728v4.992zM394.624 826.368v-4.992c0-14.912 4.992-29.824 9.984-44.8-149.312-49.728-258.816-189.12-258.816-353.408 0-24.896 4.992-49.792 9.92-74.688-19.84-4.928-34.816-9.92-49.728-19.84-4.992 29.76-9.984 64.512-9.984 94.4 0 189.184 124.416 353.408 298.688 403.2zM528.384 548.096h-81.024v-91.392h80.192c22.4 0 38.080 4.032 47.488 11.2 8.96 7.68 13.888 19.712 13.888 36.288 0 15.232-4.928 26.432-13.888 33.152-9.856 7.168-25.088 10.752-46.592 10.752zM519.168 896c39.808 0 74.688-34.816 74.688-74.688 0-39.808-34.88-74.624-74.688-74.624s-74.752 34.752-74.752 74.624c0 39.872 34.944 74.688 74.688 74.688z" />
<glyph unicode="&#xe923;" glyph-name="to-c" d="M768 144.384c14.912-9.984 24.896-19.968 39.808-29.888-75.552-70.289-176.951-113.687-288.477-114.495l-0.163-0.001c-109.568 0-214.144 44.8-288.768 114.496 14.912 9.92 29.888 19.904 39.808 29.888 64.704-59.776 154.304-94.592 248.96-94.592 94.528 0 184.128 34.816 248.832 94.592zM170.688 298.624c39.808 0 74.624-34.816 74.624-74.624s-34.816-74.688-74.624-74.688c-39.872 0-74.688 34.88-74.688 74.688s34.816 74.688 74.688 74.688zM867.584 298.624c39.808 0 74.624-34.816 74.624-74.624s-34.816-74.688-74.624-74.688c-39.872 0-74.688 34.88-74.688 74.688s34.816 74.688 74.688 74.688zM510.72 576c37.632 0 68.992-9.856 93.184-29.568 23.296-18.816 37.184-44.8 42.112-77.056h-51.072c-5.376 21.056-15.232 36.288-30.016 46.144-14.336 9.856-32.704 14.336-55.104 14.336-33.6 0-58.688-11.2-75.712-34.496-15.68-20.608-23.296-49.28-23.296-86.016 0-37.632 7.616-66.752 22.848-86.912 16.576-21.504 42.56-32.704 77.504-32.704 22.848 0 41.664 5.824 56 16.576 15.232 12.096 25.984 30.464 32.256 54.656h51.072c-7.168-37.632-23.744-66.752-50.176-87.808-24.64-19.712-54.208-29.568-88.704-29.568-53.312 0-93.184 17.024-119.168 50.176-22.848 28.672-34.048 67.2-34.048 115.584 0 47.488 11.648 86.464 35.392 116.032 26.88 34.048 65.856 50.624 116.928 50.624zM643.584 826.304c174.208-54.72 298.624-214.016 298.624-403.2 0-29.888-4.992-64.704-9.92-94.592-13.379 9.384-30 14.997-47.931 14.997-0.654 0-1.307-0.007-1.957-0.022l0.097 0.002c4.992 24.896 9.92 49.728 9.92 74.624 0 164.288-109.44 303.68-258.816 353.472 4.992 19.84 9.984 34.816 9.984 49.728v4.992zM394.624 826.304v-4.992c0-14.912 4.992-29.824 9.984-44.8-149.312-49.728-258.816-189.12-258.816-353.408 0-24.896 4.992-49.792 9.92-74.688-19.84-4.928-34.816-9.92-49.728-19.84-4.992 29.824-9.984 64.576-9.984 94.464 0 189.184 124.416 353.408 298.688 403.2zM519.168 896c39.808 0 74.688-34.816 74.688-74.688 0-39.808-34.88-74.624-74.688-74.624s-74.752 34.752-74.752 74.624c0 39.872 34.944 74.688 74.688 74.688z" />
<glyph unicode="&#xe924;" glyph-name="trans" d="M523.776 894.912l5.248-1.92 413.568-193.728c1.488-0.761 2.744-1.526 3.94-2.371l-0.1 0.067-4.48 2.56c6.549-3.106 11.75-8.163 14.956-14.412l0.084-0.18 0.768-1.728c0.25-0.543 0.553-1.304 0.827-2.080l0.069-0.224-1.664 4.032c1.346-2.631 2.371-5.683 2.918-8.899l0.026-0.189 0.128-0.832c0.11-0.744 0.202-1.671 0.253-2.608l0.003-0.080v-161.344c-0.157-17.553-14.423-31.722-31.999-31.722-15.537 0-28.488 11.073-31.392 25.759l-0.033 0.203-0.512 5.76-0.064 107.776-348.864-175.040v-361.408l141.888 64.832c3.903 1.827 8.474 2.893 13.295 2.893 10.827 0 20.399-5.377 26.189-13.607l0.068-0.102 2.816-4.992c1.836-3.912 2.908-8.495 2.908-13.329 0-10.806-5.357-20.362-13.56-26.156l-0.101-0.067-5.056-2.88-187.136-85.504c-3.915-1.839-8.501-2.913-13.339-2.913-2.81 0-5.535 0.362-8.132 1.042l0.223-0.050-5.12 1.856-419.52 188.608c-9.62 4.402-16.581 13.161-18.405 23.681l-0.027 0.191-0.448 5.312v450.112c0 1.472 0.192 2.944 0.384 4.48l-0.384-5.184c0 5.227 1.254 10.16 3.476 14.517l-0.084-0.181 1.088 1.92c0.481 0.867 0.905 1.557 1.353 2.229l-0.073-0.117-2.368-4.032c3.12 6.091 7.943 10.934 13.838 13.996l0.178 0.084 1.216 0.64 0.768 0.32c-0.097-0.041-0.013 0.001 0.071 0.044l0.185 0.084 418.432 192.96c3.934 1.86 8.547 2.947 13.413 2.947 2.946 0 5.799-0.398 8.508-1.143l-0.225 0.053zM128 618.688v-376.832l355.456-159.872v358.208l-355.456 178.496zM849.088 410.24l4.48-3.712 97.6-98.304c0.567-0.576 1.111-1.18 1.627-1.809l0.037-0.047-1.792 1.984c5.766-5.777 9.332-13.752 9.332-22.56 0-8.872-3.617-16.898-9.458-22.685l-0.386-0.386-97.536-93.76-4.48-3.648c-4.974-3.339-11.096-5.33-17.683-5.33-17.673 0-32 14.327-32 32 0 9.053 3.759 17.227 9.801 23.048l0.010 0.010 40.256 38.784h-175.616c-0.017 0-0.038 0-0.059 0-17.673 0-32 14.327-32 32 0 15.658 11.246 28.689 26.101 31.457l0.198 0.031 5.76 0.512h178.112l-43.264 43.648c-5.628 5.762-9.1 13.651-9.1 22.351 0 17.673 14.327 32 32 32 6.747 0 13.006-2.088 18.167-5.653l-0.107 0.070zM515.392 828.8l-345.664-159.36 342.272-171.904 342.976 172.096-339.584 159.104z" />
<glyph unicode="&#xe925;" glyph-name="truck" horiz-adv-x="1467" d="M109.875 118.84v-27.423c3.461-82.883 72.474-147.835 155.412-146.273 82.939-1.562 151.951 63.391 155.412 146.273v27.423c1.208 10.051-2.145 20.111-9.144 27.423-18.98 43.402-55.557 76.657-100.562 91.423-14.039 7.388-29.911 10.563-45.711 9.139-15.836 2.381-32.005-0.85-45.711-9.139-45.005-14.771-81.582-48.026-100.562-91.423-6.989-7.311-10.337-17.372-9.134-27.423zM201.298 91.412c-1.208 10.051 2.145 20.116 9.144 27.423l27.428 27.423c10.194 8.397 23.624 11.756 36.567 9.144 12.887 1.367 25.841-1.869 36.567-9.144l27.428-27.423c0-9.139 9.139-18.284 9.139-27.423 1.024-34.319-25.964-62.971-60.278-63.995-1.239-0.041-2.473-0.041-3.712 0-37.094-7.613-73.339 16.287-80.952 53.381-0.722 3.502-1.162 7.050-1.331 10.614zM0.174 265.108v-146.268c-1.608-13.542 8.059-25.815 21.596-27.423 1.935-0.23 3.891-0.23 5.832 0h36.567v27.423c-1.208 10.051 2.145 20.111 9.144 27.423 12.667 35.707 34.785 67.302 63.995 91.423 13.947 11.136 29.317 20.362 45.711 27.418 10.726 7.276 23.68 10.511 36.567 9.144h73.139c12.442-1.935 24.678-4.997 36.567-9.144 16.389-7.060 31.764-16.287 45.711-27.418 26.394-26.598 48.036-57.518 63.995-91.423 11.955-3.476 19.671-15.053 18.284-27.423v-27.423h438.815v27.423c-1.208 10.051 2.15 20.111 9.144 27.423 12.667 35.707 34.785 67.302 63.995 91.423 8.812 11.29 22.246 18.007 36.567 18.278h-585.098l-9.144 9.139v475.392c-3.482 11.95-15.053 19.671-27.423 18.284h-237.691c-7.388 0.963-14.623-2.657-18.284-9.144-78.3-61.384-122.486-156.544-118.845-255.974v-219.407c0 9.149-9.144 0-9.144-9.144zM73.308 539.372c4.526 63.59 34.12 122.783 82.278 164.557h201.124v-164.557h-283.402zM941.798 118.84v-27.423c0.010-85.837 69.606-155.407 155.438-155.397 85.816 0.010 155.382 69.581 155.392 155.397v27.423c1.208 10.051-2.145 20.111-9.139 27.423-18.98 43.402-55.562 76.657-100.562 91.423-14.039 7.388-29.916 10.563-45.711 9.139-15.841 2.381-32.010-0.85-45.711-9.139-45.010-14.771-81.592-48.026-100.567-91.423-6.989-7.311-10.348-17.372-9.139-27.423v0zM1033.221 91.412c-1.208 10.051 2.15 20.116 9.144 27.423l27.423 27.423c10.189 8.397 23.624 11.756 36.572 9.144 12.887 1.367 25.841-1.869 36.572-9.144l27.418-27.423c0-9.139 9.144-18.284 9.144-27.423 1.024-34.319-25.964-62.971-60.283-63.995-1.234-0.041-2.468-0.041-3.712 0-37.094-7.613-73.339 16.287-80.952 53.381-0.717 3.502-1.157 7.050-1.326 10.614v0zM1188.639 255.969c-7.020 0.671-13.542 3.932-18.289 9.139h210.268v-146.268c1.608-13.542-8.059-25.815-21.601-27.423-1.93-0.23-3.891-0.23-5.832 0h-63.99v27.423c1.208 10.051-2.145 20.111-9.139 27.423-12.672 35.707-34.79 67.302-64 91.423-4.884 10.839-15.534 17.94-27.418 18.284zM466.417 347.392v566.805c-1.567 23.68 16.358 44.145 40.038 45.711 1.889 0.123 3.784 0.123 5.673 0h895.918c23.675 1.567 44.145-16.358 45.711-40.038 0.123-1.889 0.123-3.784 0-5.673v-566.805c1.567-23.68-16.358-44.14-40.033-45.711-1.889-0.123-3.789-0.123-5.673 0h-895.923c-23.68-1.567-44.145 16.358-45.711 40.038-0.123 1.889-0.123 3.779 0 5.673z" />
<glyph unicode="&#xe926;" glyph-name="up-shelf" d="M896 861.824c0.003 0 0.007 0 0.011 0 15.637 0 28.654-11.216 31.446-26.041l0.031-0.199 0.512-5.76v-768c0-0.017 0-0.038 0-0.059 0-17.673-14.327-32-32-32-15.658 0-28.689 11.246-31.457 26.101l-0.031 0.198-0.512 5.76v130.24h-704v-130.24c0-0.003 0-0.007 0-0.011 0-15.637-11.216-28.654-26.041-31.446l-0.199-0.031-5.76-0.512c-0.003 0-0.007 0-0.011 0-15.637 0-28.654 11.216-31.446 26.041l-0.031 0.199-0.512 5.76v768c0 0.003 0 0.007 0 0.011 0 15.637 11.216 28.654 26.041 31.446l0.199 0.031 5.76 0.512h768zM864 797.824h-704v-141.44h187.648c0.017 0 0.038 0 0.059 0 17.673 0 32-14.327 32-32 0-15.658-11.246-28.689-26.101-31.457l-0.198-0.031-5.76-0.512h-187.648v-132.992h285.248c0.132 0.002 0.287 0.003 0.442 0.003 17.673 0 32-14.327 32-32 0-15.795-11.443-28.917-26.491-31.528l-0.191-0.027-5.76-0.512-285.248 0.064v-139.328h704v541.76zM669.76 712l1.536-0.128c7.291-0.701 13.765-3.737 18.775-8.341l-0.023 0.021-3.2 2.624 3.2-2.56 106.368-97.6 3.904-4.224c3.971-5.271 6.359-11.929 6.359-19.145 0-17.673-14.327-32-32-32-8.272 0-15.81 3.138-21.49 8.289l0.027-0.024-52.8 48.384v-251.712c0-0.017 0-0.038 0-0.059 0-17.673-14.327-32-32-32-15.658 0-28.689 11.246-31.457 26.101l-0.031 0.198-0.512 5.76v251.776l-52.736-48.512c-5.68-5.239-13.298-8.451-21.667-8.451-17.673 0-32 14.327-32 32 0 7.298 2.443 14.025 6.556 19.409l-0.057-0.077 3.84 4.288 106.432 97.6 1.28 1.024c0.566 0.493 1.191 0.996 1.835 1.476l0.085 0.060-3.2-2.56c5.679 5.199 13.277 8.384 21.618 8.384 0.005 0 0.010 0 0.014 0h1.343z" />
<glyph unicode="&#xe927;" glyph-name="up-shelf2" d="M810.667-21.333v170.667h-597.333v-170.667h-42.667v938.667h42.667v-128h597.333v128h42.667v-938.667zM810.667 192v256h-597.333v-256h85.333v128h128v-128zM810.667 490.667v256h-597.333v-256h85.333v128h128v-128h170.667v128h128v-128z" />
<glyph unicode="&#xe928;" glyph-name="warehouse" d="M982.369 43.899c0.44-25.687-9.897-37.53-34.299-39.491-52.419-4.188-104.607-11.382-156.82-17.838-44.18-5.54-88.3-12.022-132.475-17.695-8.33-1.085-16.993-1.044-25.416-0.517l-592.358 70.18v376.899c273.618 47.693 83.236 95.304 357.033 143.037v304.128c38.482 10.368 76.124 20.193 113.587 30.756 35.835 10.132 71.322 21.622 107.233 31.493 21.929 6.016 43.868 2.913 64.973-5.012 59.756-22.4 119.409-45.102 179.226-67.461 28.329-10.455 56.74-20.71 85.222-30.751 22.19-7.813 34.028-18.55 34.115-42.849v-734.874h-0.020v-0.005zM876.646 655.713l-116.055 14.403v91.197l116.055-27.443v-78.157zM924.8 785.096c-58.004 21.228-115.891 42.89-173.875 64.317-26.035 9.61-52.127 18.929-79.544 28.892v-863.616c12.211 1.019 22.979 1.659 33.664 2.872 18.135 2.058 36.244 4.613 54.405 6.723 0.379 0.056 0.758 0.102 1.142 0.123v244.905l116.352 6.671-0.323-237.824c14.474 1.818 29.025 3.604 43.566 5.14 19.441 2.017 19.569 1.183 19.441 20.475v702.403c-0.005 8.504-5.253 15.401-14.828 18.918v0z" />
<glyph unicode="&#xe929;" glyph-name="warehouse2" d="M927.4 480.3c-7.3 0-14.7 2.5-20.7 7.6l-395.1 335.2-395.2-335.2c-13.5-11.4-33.7-9.8-45.1 3.7s-9.8 33.7 3.7 45.1l415.9 352.8c11.9 10.1 29.5 10.1 41.4 0l415.9-352.8c13.5-11.4 15.1-31.6 3.7-45.1-6.4-7.5-15.4-11.3-24.5-11.3zM853.9 1.4h-684.5c-23.1 0-41.9 18.8-41.9 41.9v507.8c0 17.7 14.3 32 32 32s32-14.3 32-32v-485.6h640.3v485.6c0 17.7 14.3 32 32 32s32-14.3 32-32v-507.8c-0.1-23.1-18.8-41.9-41.9-41.9zM703.8 161.2h-384.3c-17.7 0-32 14.3-32 32s14.3 32 32 32h384.3c17.7 0 32-14.3 32-32s-14.3-32-32-32zM703.8 289h-384.3c-17.7 0-32 14.3-32 32s14.3 32 32 32h384.3c17.7 0 32-14.3 32-32s-14.3-32-32-32zM703.8 416h-384.3c-17.7 0-32 14.3-32 32s14.3 32 32 32h384.3c17.7 0 32-14.3 32-32s-14.3-32-32-32z" />
<glyph unicode="&#xe92a;" glyph-name="lv1" d="M957.6 387.2l-120.8 181.6c-3.2 4.8-8 7.2-13.6 7.2h-119.2v160c0 17.6-14.4 32-32 32h-576c-17.6 0-32-14.4-32-32v-448c0-17.6 14.4-32 32-32h32c0-70.4 57.6-128 128-128s128 57.6 128 128h256c0-70.4 57.6-128 128-128s128 57.6 128 128h32c17.6 0 32 14.4 32 32v90.4c0 3.2-0.8 6.4-2.4 8.8zM256 192c-35.2 0-64 28.8-64 64s28.8 64 64 64 64-28.8 64-64-28.8-64-64-64zM640 320h-273.6c-22.4 38.4-63.2 64-110.4 64s-88.8-25.6-110.4-64h-17.6v384h512v-384zM768 192c-35.2 0-64 28.8-64 64s28.8 64 64 64 64-28.8 64-64-28.8-64-64-64zM896 320h-17.6c-22.4 38.4-63.2 64-110.4 64-23.2 0-44.8-6.4-64-17.6v145.6h95.2c5.6 0 10.4-2.4 12.8-7.2l80.8-116.8c1.6-2.4 3.2-5.6 3.2-8.8v-59.2z" />
<glyph unicode="&#xe92b;" glyph-name="lv2" d="M823.2 576h-119.2v160c0 17.6-14.4 32-32 32h-576c-17.6 0-32-14.4-32-32v-448c0-17.6 14.4-32 32-32h32c0-70.4 57.6-128 128-128s128 57.6 128 128h256c0-70.4 57.6-128 128-128s128 57.6 128 128h32c17.6 0 32 14.4 32 32v90.4c0 3.2-0.8 6.4-2.4 8.8l-120.8 181.6c-3.2 4.8-8 7.2-13.6 7.2zM268.8 193.6c-44.8-8.8-84 30.4-75.2 75.2 4.8 24.8 24.8 45.6 50.4 50.4 44.8 8.8 84-30.4 75.2-75.2-5.6-25.6-25.6-45.6-50.4-50.4zM780.8 193.6c-44.8-8.8-84 30.4-75.2 75.2 4.8 24.8 24.8 45.6 50.4 50.4 44.8 8.8 84-30.4 75.2-75.2-5.6-25.6-25.6-45.6-50.4-50.4zM704 384v128h95.2c5.6 0 10.4-2.4 12.8-7.2l84-120.8h-192z" />
<glyph unicode="&#xe92c;" glyph-name="lv3" d="M208-60h-91.2c-8.8 0-16 7.2-16 16v92c0 8.8 7.2 16 16 16h91.2c8.8 0 16-7.2 16-16v-92c0-8.8-7.2-16-16-16zM132.8-28h59.2v60h-59.2v-60zM907.2-60h-91.2c-8.8 0-16 7.2-16 16v92c0 8.8 7.2 16 16 16h91.2c8.8 0 16-7.2 16-16v-92c0-8.8-7.2-16-16-16zM832-28h59.2v60h-59.2v-60zM1004 32h-984c-8.8 0-16 7.2-16 16v172.8c0 8.8 7.2 16 16 16h984c8.8 0 16-7.2 16-16v-172.8c0-8.8-7.2-16-16-16zM36 64h952v140.8h-952v-140.8zM841.6 204.8c-8.8 0-16 7.2-16 16v426.4c0 8.8 7.2 16 16 16s16-7.2 16-16v-425.6c0-9.6-7.2-16.8-16-16.8zM1004 631.2h-325.6c-8.8 0-16 7.2-16 16v292.8c0 8.8 7.2 16 16 16h325.6c8.8 0 16-7.2 16-16v-292.8c0-8.8-7.2-16-16-16zM694.4 663.2h293.6v260.8h-293.6v-260.8zM926.4 751.2h-169.6c-4.8 0-8 3.2-8 8v100.8c0 4.8 3.2 8 8 8h169.6c4.8 0 8-3.2 8-8v-100.8c0-4-4-8-8-8zM764.8 767.2h153.6v84.8h-153.6v-84.8z" />
<glyph unicode="&#xe92d;" glyph-name="lv4" d="M1004 209.6h-863.2c-8.8 0-16 7.2-16 16v98.4c0 8.8 7.2 16 16 16h863.2c8.8 0 16-7.2 16-16v-98.4c0-8.8-7.2-16-16-16zM156.8 241.6h831.2v66.4h-831.2v-66.4zM260.8 117.6c-34.4 0-62.4 28-62.4 61.6 0 34.4 28 61.6 62.4 61.6s62.4-28 62.4-61.6-28-61.6-62.4-61.6zM260.8 209.6c-16.8 0-30.4-13.6-30.4-29.6 0-16.8 13.6-29.6 30.4-29.6s30.4 13.6 30.4 29.6-13.6 29.6-30.4 29.6zM416.8 117.6c-34.4 0-62.4 28-62.4 61.6 0 34.4 28 61.6 62.4 61.6s62.4-28 62.4-61.6-28-61.6-62.4-61.6zM416.8 209.6c-16.8 0-30.4-13.6-30.4-29.6 0-16.8 13.6-29.6 30.4-29.6s30.4 13.6 30.4 29.6-13.6 29.6-30.4 29.6zM904.8 117.6c-34.4 0-62.4 28-62.4 61.6 0 34.4 28 61.6 62.4 61.6s62.4-28 62.4-61.6c-0.8-33.6-28-61.6-62.4-61.6zM904.8 209.6c-16.8 0-30.4-13.6-30.4-29.6 0-16.8 13.6-29.6 30.4-29.6s30.4 13.6 30.4 29.6c-0.8 16-14.4 29.6-30.4 29.6zM356 217.6c-4.8 0-8 3.2-8 8v98.4c0 4.8 3.2 8 8 8s8-3.2 8-8v-98.4c0-4.8-3.2-8-8-8zM703.2 217.6c-4.8 0-8 3.2-8 8v98.4c0 4.8 3.2 8 8 8s8-3.2 8-8v-98.4c0-4.8-3.2-8-8-8zM519.2 461.6h-270.4c-4.8 0-8 3.2-8 8v139.2c0 4.8 3.2 8 8 8h270.4c4.8 0 8-3.2 8-8v-139.2c0-4.8-4-8-8-8zM256.8 477.6h254.4v123.2h-254.4v-123.2zM911.2 461.6h-269.6c-4.8 0-8 3.2-8 8v139.2c0 4.8 3.2 8 8 8h270.4c4.8 0 8-3.2 8-8v-139.2c-0.8-4.8-4-8-8.8-8zM649.6 477.6h254.4v123.2h-254.4v-123.2zM140.8 308c-8.8 0-16 7.2-16 16v295.2h-104.8c-8.8 0-16 7.2-16 16s7.2 16 16 16h120.8c8.8 0 16-7.2 16-16v-311.2c0-8.8-7.2-16-16-16zM519.2 308h-270.4c-8.8 0-16 7.2-16 16v438.4c0 8.8 7.2 16 16 16h270.4c8.8 0 16-7.2 16-16v-437.6c0-9.6-7.2-16.8-16-16.8zM264.8 340h238.4v406.4h-238.4v-406.4zM911.2 308h-269.6c-8.8 0-16 7.2-16 16v438.4c0 8.8 7.2 16 16 16h270.4c8.8 0 16-7.2 16-16v-437.6c-0.8-9.6-8-16.8-16.8-16.8zM657.6 340h238.4v406.4h-238.4v-406.4z" />
<glyph unicode="&#xe92e;" glyph-name="lv5" d="M512-60h-492c-8.8 0-16 7.2-16 16v492c0 8.8 7.2 16 16 16h492c8.8 0 16-7.2 16-16v-492c0-8.8-7.2-16-16-16zM36-28h460v460h-460v-460zM758.4 432h-492c-8.8 0-16 7.2-16 16v492c0 8.8 7.2 16 16 16h492c8.8 0 16-7.2 16-16v-492c0-8.8-7.2-16-16-16zM282.4 464h460v460h-460v-460zM1004-60h-492c-8.8 0-16 7.2-16 16v492c0 8.8 7.2 16 16 16h492c8.8 0 16-7.2 16-16v-492c0-8.8-7.2-16-16-16zM528-28h460v460h-460v-460zM266.4 46.4c-4.8 0-8 3.2-8 8v120.8c0 4.8 3.2 8 8 8s8-3.2 8-8v-120.8c0-4.8-4-8-8-8zM320.8 46.4h-109.6c-4.8 0-8 3.2-8 8s3.2 8 8 8h108.8c4.8 0 8-3.2 8-8s-3.2-8-7.2-8zM534.4 531.2c-16.8 0-30.4 12.8-30.4 28v164.8c0 4.8 3.2 8 8 8s8-3.2 8-8v-164.8c0-6.4 6.4-12 14.4-12s14.4 5.6 14.4 12v16c0 4.8 3.2 8 8 8s8-3.2 8-8v-16c0-15.2-13.6-28-30.4-28zM666.4 108c-4.8 0-8 3.2-8 8v216.8c0 4.8 3.2 8 8 8s8-3.2 8-8v-216.8c0-4.8-4-8-8-8zM736.8 254.4c-2.4 0-4 0.8-5.6 2.4l-64.8 64.8-64.8-64.8c-3.2-3.2-8-3.2-11.2 0s-3.2 8 0 11.2l70.4 70.4c3.2 3.2 8 3.2 11.2 0l70.4-70.4c3.2-3.2 3.2-8 0-11.2-1.6-1.6-4-2.4-5.6-2.4zM849.6 108c-4.8 0-8 3.2-8 8v216.8c0 4.8 3.2 8 8 8s8-3.2 8-8v-216.8c0-4.8-3.2-8-8-8zM920 254.4c-2.4 0-4 0.8-5.6 2.4l-64.8 64.8-64.8-64.8c-3.2-3.2-8-3.2-11.2 0s-3.2 8 0 11.2l70.4 70.4c1.6 1.6 3.2 2.4 5.6 2.4s4-0.8 5.6-2.4l70.4-70.4c3.2-3.2 3.2-8 0-11.2-1.6-1.6-3.2-2.4-5.6-2.4zM926.4 58.4h-336.8c-4.8 0-8 3.2-8 8s3.2 8 8 8h336.8c4.8 0 8-3.2 8-8s-4-8-8-8zM266.4 167.2c-43.2 0-77.6 35.2-77.6 77.6v104.8c0 4.8 3.2 8 8 8h139.2c4.8 0 8-3.2 8-8v-104.8c0-43.2-35.2-77.6-77.6-77.6zM204 341.6v-96.8c0-34.4 28-61.6 61.6-61.6 34.4 0 61.6 28 61.6 61.6v96.8h-123.2zM580.8 686.4c-1.6 0-3.2 0.8-4.8 1.6l-20 14.4c-14.4 8.8-28.8 13.6-44.8 13.6s-31.2-4.8-45.6-13.6l-18.4-14.4c-3.2-2.4-7.2-2.4-10.4 0.8l-15.2 14.4c-16 16.8-36.8 16.8-52.8 0-2.4-2.4-5.6-3.2-8.8-1.6s-4.8 4-4.8 8c3.2 82.4 70.4 146.4 152.8 146.4h8c82.4 0 149.6-64.8 152.8-146.4 0-3.2-1.6-6.4-4.8-8s-6.4-0.8-8.8 1.6c-16 16-36.8 16-52.8 0l-15.2-14.4c-2.4-1.6-4-2.4-6.4-2.4zM512 732c18.4 0 36.8-5.6 53.6-16l14.4-11.2 10.4 9.6c16.8 17.6 40 21.6 60 12-10.4 65.6-66.4 114.4-134.4 114.4h-7.2c-68.8 0-124.8-48.8-135.2-114.4 7.2 4 14.4 5.6 22.4 5.6 13.6 0 27.2-5.6 37.6-17.6l9.6-9.6 14.4 10.4c17.6 11.2 36 16.8 54.4 16.8z" />
<glyph unicode="&#xe92f;" glyph-name="machine" d="M161.28 563.196c78.232-0.376 141.966 62.696 142.43 140.927-0.416 77.918-63.677 140.922-141.653 140.922-0.273 0-0.546-0.001-0.819-0.002h0.042c-0.252 0.002-0.55 0.003-0.849 0.003-77.979 0-141.241-63.009-141.653-140.891v-0.039c0.448-78.256 64.238-141.335 142.502-140.919zM161.28 798.147c52.394 0 94.855-42.085 94.855-94.024 0-51.867-42.452-93.952-94.855-93.952-0.15-0.001-0.327-0.001-0.505-0.001-51.998 0-94.186 41.998-94.493 93.924v0.029c-0.008 51.939 42.596 94.024 94.999 94.024zM113.849 704.124c0.038-17.321 9.477-32.428 23.485-40.494l0.227-0.12c6.814-3.95 14.993-6.281 23.716-6.281s16.901 2.331 23.946 6.404l-0.231-0.123c14.234 8.186 23.674 23.294 23.712 40.609v0.005c-0.038 17.321-9.477 32.428-23.485 40.494l-0.227 0.12c-6.814 3.95-14.993 6.281-23.716 6.281s-16.901-2.331-23.946-6.404l0.231 0.123c-14.233-8.187-23.672-23.294-23.712-40.609v-0.006zM715.783 124.846h-158.989l-253.084 438.35c-69.784-74.524-137.763-71.966-174.125-62.632-36.283 9.255-79.047 46.976-79.047 46.976l253.244-422.694h-158.997c-0.007 0-0.016 0-0.024 0-34.577 0-62.608-28.030-62.608-62.608 0-0.008 0-0.017 0-0.025v0.001-62.56c0-34.591 28.041-62.632 62.632-62.632h570.998c0.040 0 0.088 0 0.135 0 17.273 0 32.915 6.986 44.253 18.287l-0.002-0.002c11.364 11.343 18.395 27.023 18.397 44.346v0 62.56c-0.009 34.593-28.054 62.632-62.648 62.632-0.048 0-0.096 0-0.143 0h0.007zM994.545 656.389c-5.778 8.337-15.296 13.728-26.073 13.728-6.624 0-12.773-2.037-17.854-5.518l0.108 0.070-150.549-101.472-100.729 117.959v87.023l96.733 113.148 151.461-101.855c14.225-9.63 33.949-6.018 43.963 8.28 3.388 4.914 5.411 10.996 5.411 17.551 0 10.785-5.478 20.29-13.803 25.886l-0.112 0.071-183.228 123.313c-4.995 3.381-11.153 5.398-17.783 5.398-10.782 0-20.318-5.334-26.113-13.506l-0.067-0.099c-3.189-4.702-5.091-10.502-5.091-16.746 0-1.422 0.099-2.821 0.29-4.191l-0.018 0.158-95.678-111.933h-56.686c-23.101-0.004-41.838-18.685-41.933-41.764v-0.009 10.533h-205.589v-1.662c9.79-19.724 15.736-46.744 15.736-76.633 0-29.809-6.026-56.91-15.736-76.633v-1.654h205.589v10.541c0-23.040 18.821-41.861 41.933-41.861h58.948c9.719 0.074 18.631 3.468 25.672 9.103l-0.083-0.064 72.046-84.313c-0.147-1.117-0.231-2.409-0.231-3.721 0-6.312 1.945-12.171 5.268-17.008l-0.066 0.102c5.795-8.292 15.296-13.648 26.047-13.648 6.63 0 12.785 2.037 17.872 5.519l-0.108-0.070 182.029 122.706c8.39 5.624 13.839 15.069 13.839 25.787 0 6.535-2.026 12.597-5.483 17.591l0.067-0.103z" />
<glyph unicode="&#xe930;" glyph-name="move" d="M896 864c0.003 0 0.007 0 0.011 0 15.637 0 28.654-11.216 31.446-26.041l0.031-0.199 0.512-5.76v-768c0-0.003 0-0.007 0-0.011 0-15.637-11.216-28.654-26.041-31.446l-0.199-0.031-5.76-0.512h-768c-0.003 0-0.007 0-0.011 0-15.637 0-28.654 11.216-31.446 26.041l-0.031 0.199-0.512 5.76v768c0 0.003 0 0.007 0 0.011 0 15.637 11.216 28.654 26.041 31.446l0.199 0.031 5.76 0.512h768zM864 800h-704v-704h704v704zM704 413.824c0.003 0 0.007 0 0.011 0 15.637 0 28.654-11.216 31.446-26.041l0.031-0.199 0.512-5.76v-61.824c0-0.003 0-0.007 0-0.011 0-15.637-11.216-28.654-26.041-31.446l-0.199-0.031-5.76-0.512h-286.528v-52.096l-128 84.096 128 82.304v-50.304h254.528v29.824c0 0.003 0 0.007 0 0.011 0 15.637 11.216 28.654 26.041 31.446l0.199 0.031 5.76 0.512zM609.472 658.304l128-82.304-128-84.096v52.096h-257.472v-33.408c0-0.003 0-0.007 0-0.011 0-15.637-11.216-28.654-26.041-31.446l-0.199-0.031-5.76-0.512c-0.003 0-0.007 0-0.011 0-15.637 0-28.654 11.216-31.446 26.041l-0.031 0.199-0.512 5.76v65.408c0 0.003 0 0.007 0 0.011 0 15.637 11.216 28.654 26.041 31.446l0.199 0.031 5.76 0.512h289.472v50.304z" />
<glyph unicode="&#xe931;" glyph-name="notice" d="M512 896c16.576 0 30.016-13.44 30.016-30.016v-35.968c139.771-8.287 249.984-123.662 249.984-264.778 0-0.019 0-0.038 0-0.057v0.003-201.92c0-10.368 5.312-19.968 14.080-25.472l48.96-30.528c39.266-24.836 64.96-68.027 64.96-117.219 0-0.010 0-0.020 0-0.030v0.001c0-49.728-40.32-89.984-89.984-89.984h-191.488c-14.067-57.776-65.367-99.996-126.528-99.996s-112.461 42.22-126.344 99.105l-0.184 0.89h-191.488c-49.664 0-89.984 40.32-89.984 89.984 0.013 49.179 25.704 92.354 64.394 116.849l0.566 0.335 48.96 30.528c8.512 5.395 14.080 14.766 14.080 25.436 0 0.013 0 0.025 0 0.038v-0.002 201.92c0 0.054 0 0.118 0 0.182 0 141.116 110.212 256.491 249.256 264.744l0.728 0.035v35.84c0 16.64 13.44 30.016 30.016 30.016zM575.296 99.968h-126.656c11.489-23.889 35.501-40.085 63.296-40.085s51.807 16.196 63.114 39.666l0.182 0.419zM526.72 770.496h-29.44c-0.038 0-0.083 0-0.128 0-113.32 0-205.184-91.864-205.184-205.184 0-0.067 0-0.135 0-0.202v0.010-201.92c0-31.040-16-59.904-42.24-76.352l-48.96-30.528c-22.24-14.058-36.795-38.513-36.8-66.367v-0.001c0-16.64 13.44-30.016 30.080-30.016h635.968c16.576 0 30.016 13.44 30.016 30.016 0 26.944-13.952 52.032-36.8 66.368l-48.96 30.528c-25.534 16.171-42.24 44.271-42.24 76.273 0 0.028 0 0.055 0 0.083v-0.004 201.92c0 0.038 0 0.083 0 0.128 0 113.32-91.864 205.184-205.184 205.184-0.045 0-0.090 0-0.135 0h0.007z" />
<glyph unicode="&#xe932;" glyph-name="out-wh" d="M896 308.364c19.28 0 34.909 15.629 34.909 34.909v0 477.091c0 25.706-20.839 46.545-46.545 46.545v0h-139.636v46.545c0 25.706-20.839 46.545-46.545 46.545v0h-372.364c-25.706 0-46.545-20.839-46.545-46.545v0-46.545h-139.636c-25.706 0-46.545-20.839-46.545-46.545v0-837.818c0-25.706 20.839-46.545 46.545-46.545v0h744.727c25.706 0 46.545 20.839 46.545 46.545v0 151.273c0 19.28-15.629 34.909-34.909 34.909s-34.909-15.629-34.909-34.909v0-128h-698.182v791.273h116.364v-46.545c0-25.706 20.839-46.545 46.545-46.545v0h372.364c25.706 0 46.545 20.839 46.545 46.545v0 46.545h116.364v-453.818c0-19.28 15.629-34.909 34.909-34.909v0zM674.909 773.818h-325.818v116.364h325.818zM302.545 157.091c0-19.28 15.629-34.909 34.909-34.909h349.091c19.28 0 34.909 15.629 34.909 34.909s-15.629 34.909-34.909 34.909h-349.091c-19.28 0-34.909-15.629-34.909-34.909v0zM512 253.44c19.28 0 34.909 15.629 34.909 34.909v0 221.789l72.145-72.145c6.217-5.805 14.591-9.369 23.798-9.369 19.28 0 34.909 15.629 34.909 34.909 0 9.207-3.564 17.581-9.388 23.819l0.019-0.020-139.636 139.636c-4.207 4.182-10.005 6.768-16.407 6.768s-12.201-2.585-16.408-6.769l-139.635-139.635c-5.805-6.217-9.369-14.591-9.369-23.798 0-19.28 15.629-34.909 34.909-34.909 9.207 0 17.581 3.564 23.819 9.388l-0.020-0.019 72.145 72.145v-222.022c0.126-18.938 15.312-34.287 34.174-34.676l0.036-0.001z" />
<glyph unicode="&#xe933;" glyph-name="package1" d="M128 96c0-17.6 14.4-32 32-32h704c17.6 0 32 14.4 32 32v544h-768v-544zM575.2 384h192.8v-64h-192.8v64zM511.2 256h256.8v-64h-256.8v64zM495.2 672h-368l76.8 135.2c12 16 30.4 24.8 50.4 24.8h240.8v-160zM896.8 672h-368v160h240.8c20 0 38.4-9.6 50.4-24.8l76.8-135.2z" />
<glyph unicode="&#xe934;" glyph-name="package2" d="M768 192h-256v64h256v-64zM768 384h-192v-64h192v64zM896 672v-576c0-17.6-14.4-32-32-32h-704c-17.6 0-32 14.4-32 32v576h-0.8l70.4 124.8c11.2 21.6 32.8 35.2 57.6 35.2h512.8c24 0 46.4-13.6 57.6-35.2l70.4-124.8zM528 768v-96h304.8l-44.8 77.6c-4 9.6-12.8 16.8-23.2 18.4zM259.2 768c-10.4-1.6-19.2-8.8-23.2-18.4l-44.8-77.6h304.8v96zM832 640h-640v-512h640v512z" />
<glyph unicode="&#xe935;" glyph-name="package3" d="M896 640v-544c0-17.6-14.4-32-32-32h-704c-17.6 0-32 14.4-32 32v544h12.8l360 257.6 37.6-52-287.2-205.6h447.2l-181.6 65.6 21.6 60 346.4-125.6h11.2zM768 256h-256v-64h256v64zM768 384h-192v-64h192v64z" />
<glyph unicode="&#xe936;" glyph-name="pallet" d="M459.17 745.71v-65.34l8.61 8.83 1.3 1.5c7.55 6.91 19.41 6.050 25.88-1.5l23.080-25.88 12.72 11.44c6.030 5.61 15.080 6.47 21.77 2.58l12.3-7.77v76.14h-105.66zM601.49 745.71v-108.27c0-10.14-8.19-18.33-18.11-18.33-4.33 0-7.77 1.3-10.8 3.25l-27.16 16.61-16.38-15.1c-7.33-6.69-18.55-6.25-25.46 1.3l-0.42 0.42-22.86 25.46-26.74-26.74c-7.33-6.91-18.77-6.69-25.88 0-3.45 3.86-5.19 8.39-5.19 13.14v108.26h-152.68v-425.9h484.35v425.9h-152.67zM209.020 319.81v456.090c0 16.83 13.36 30.83 30.61 30.83h544.72c16.83 0 30.63-14 30.63-30.83v-456.080h62.090c16.41 0 30.21-13.8 30.21-30.63v-169.5c0-16.83-13.8-30.41-30.21-30.41h-90.78c-16.61 0-30.41 13.58-30.41 30.41v32.77h-137.15v-32.77c0-16.83-14.020-30.41-30.63-30.41h-152.23c-16.83 0-30.19 13.58-30.19 30.41v32.77h-137.59v-32.77c0-16.83-13.8-30.41-30.41-30.41h-90.78c-16.38 0-30.19 13.58-30.19 30.41v169.5c0 16.83 13.8 30.63 30.19 30.63l62.12-0.010zM846.47 258.78h-668.93v-108.69h29.55v32.77c0 16.61 14 30.63 30.6 30.63h198.19c16.83 0 30.41-14.020 30.41-30.63v-32.77h91.44v32.77c0 16.61 13.58 30.63 30.39 30.63h198.19c16.6 0 30.19-14.020 30.19-30.63v-32.77h29.99v108.69h-0.020zM544.98 350.86c-9.91 0-18.33 7.97-18.33 18.33 0 9.92 8.41 18.33 18.33 18.33h12.74c-0.22 1.3-0.66 2.58-0.66 4.75v109.54c-6.030-4.53-15.080-4.97-21.55-0.22-8.19 5.83-9.94 17.25-4.33 25.66l28.46 39.24c3.25 5.19 9.080 8.63 15.55 8.63 6.89 0 12.92-3.89 15.94-9.050l28.040-38.82c5.81-8.41 4.31-19.83-4.11-25.66-2.922-2.11-6.575-3.374-10.524-3.374-4.080 0-7.845 1.35-10.872 3.628l0.046-0.033v-109.55c0-2.16-0.42-3.44-0.86-4.75h65.15c-0.44 1.3-0.88 2.58-0.88 4.75v109.55c-6.030-4.53-14.86-4.97-21.33-0.22-7.99 5.83-10.14 17.25-4.33 25.66l28.68 39.24c3.44 5.19 9.050 8.63 15.52 8.63 6.69 0 12.52-3.89 15.96-9.050l28.040-38.82c5.59-8.41 3.86-19.83-4.33-25.66-6.47-4.75-15.080-4.31-21.55 0.22v-109.55c0-2.16-0.22-3.44-0.66-4.75h12.74c10.33 0 18.33-8.41 18.33-18.33 0-10.36-7.99-18.33-18.33-18.33l-160.88 0.010zM591.13 566.070c1.72-2.58 2.58-5.83 2.58-9.050l-2.58 9.050zM691.63 566.070c1.3-2.58 2.16-5.83 2.16-9.050l-2.16 9.050z" />
<glyph unicode="&#xe937;" glyph-name="pda1" d="M796.444 49.778v-113.778h-568.889v113.778c-62.838 0-113.778 50.94-113.778 113.778v0 682.667c0 62.838 50.94 113.778 113.778 113.778v0h568.889c62.838 0 113.778-50.94 113.778-113.778v0-682.667c0-62.838-50.94-113.778-113.778-113.778v0zM796.444 789.333c0 31.419-25.47 56.889-56.889 56.889h-455.111c-31.419 0-56.889-25.47-56.889-56.889v-284.444c0-31.419 25.47-56.889 56.889-56.889h455.111c31.419 0 56.889 25.47 56.889 56.889v284.444zM739.556 334.222h-170.667c-31.419 0-56.889-25.47-56.889-56.889s25.47-56.889 56.889-56.889h170.667c31.419 0 56.889 25.47 56.889 56.889s-25.47 56.889-56.889 56.889v0z" />
<glyph unicode="&#xe938;" glyph-name="pda2" d="M736 896h-448c-35.2 0-64-28.8-64-64v-128h-32v-128h32v-512c0-35.2 28.8-64 64-64h448c35.2 0 64 28.8 64 64v512h32v128h-32v128c0 35.2-28.8 64-64 64zM288 448v384h448v-384h-448zM288 64v320h448v-320h-448zM672 352h-64v-64h64v64zM544 352h-64v-64h64v64zM416 352h-64v-64h64v64zM672 256h-64v-64h64v64zM544 256h-64v-64h64v64zM416 256h-64v-64h64v64zM672 160h-64v-64h64v64zM544 160h-64v-64h64v64zM416 160h-64v-64h64v64z" />
<glyph unicode="&#xe939;" glyph-name="pp" d="M299.776 874.667c0.011 0 0.024 0 0.037 0 21.805 0 39.79-16.357 42.353-37.47l0.020-0.205 0.256-4.992v-195.371l244.267 122.581c5.585 2.871 12.186 4.554 19.181 4.554 21.846 0 39.858-16.419 42.368-37.59l0.019-0.202 0.256-4.907-0.043-90.027 316.672 129.536c4.778 2.010 10.331 3.178 16.158 3.178 21.827 0 39.826-16.39 42.361-37.535l0.020-0.203 0.299-4.949v-273.067c-0.027-23.544-19.119-42.619-42.667-42.619-21.788 0-39.762 16.332-42.347 37.421l-0.021 0.206-0.299 4.992v209.536l-316.629-129.579c-4.778-2.010-10.331-3.178-16.158-3.178-21.827 0-39.826 16.39-42.361 37.535l-0.020 0.203-0.299 4.949-0.043 84.48-244.224-122.624c-5.574-2.859-12.162-4.534-19.14-4.534-21.839 0-39.846 16.408-42.365 37.569l-0.020 0.202-0.299 4.907v221.867h-171.776v-682.667h384c21.803-0.003 39.784-16.359 42.348-37.47l0.020-0.205 0.299-4.992c-0.003-21.803-16.359-39.784-37.47-42.348l-0.205-0.020-4.992-0.299h-426.667c-21.803 0.003-39.784 16.359-42.348 37.47l-0.020 0.205-0.299 4.992v768c0.003 21.803 16.359 39.784 37.47 42.348l0.205 0.020 4.992 0.299h257.109zM384 448h-170.667c-23.564 0-42.667-19.103-42.667-42.667v0-170.667c0-23.564 19.103-42.667 42.667-42.667h170.667c23.564 0 42.667 19.103 42.667 42.667v0 170.667c0 23.564-19.103 42.667-42.667 42.667v0zM341.333 362.667v-85.333h-85.333v85.333h85.333zM682.667 21.333h298.667q42.667 0 42.667-42.667v0q0-42.667-42.667-42.667h-298.667q-42.667 0-42.667 42.667v0q0 42.667 42.667 42.667zM682.667 192h298.667q42.667 0 42.667-42.667v0q0-42.667-42.667-42.667h-298.667q-42.667 0-42.667 42.667v0q0 42.667 42.667 42.667zM682.667 362.667h298.667q42.667 0 42.667-42.667v0q0-42.667-42.667-42.667h-298.667q-42.667 0-42.667 42.667v0q0 42.667 42.667 42.667z" />
<glyph unicode="&#xe93a;" glyph-name="purchase" d="M808.714 765.788c-18.534-48.415-33.874-81.879-45.998-100.413 7.291 0 21.791 0.778 43.561 2.376 6.451 0 11.305 0.41 14.5 1.249-10.611 29.538-15.51 41.925-20.505 54.264l6.005-16.785c-3.195 7.27-1.188 12.534 6.042 15.749 7.27 2.417 12.493 0.41 15.749-6.042 1.597-4.854 3.195-10.056 4.854-15.749 8.888-23.388 15.34-42.332 19.354-56.832 1.597-8.888-0.84-14.561-7.27-16.937-7.291-0.819-12.083 2.785-14.5 10.834-0.819 0-2.007 3.256-3.666 9.708-12.902-0.819-28.59-2.028-47.186-3.604h-30.249c-9.646 0-15.688 2.007-18.125 6.042-1.597 4.854 0 11.305 4.854 19.354 16.118 24.986 32.625 60.498 49.623 106.455 3.195 8.11 8.458 10.895 15.688 8.458 7.27-4.035 9.687-10.076 7.27-18.125zM341.279 878.981h24.596c5.965 20.522 17.030 37.993 31.748 51.559l0.078 0.071c19.655 18.2 46.053 29.364 75.058 29.364 29.016 0 55.423-11.172 75.152-29.45l-0.072 0.066c11.971-11.049 21.487-24.567 27.764-39.764l0.273-0.746c45.162 41.301 105.557 66.603 171.862 66.603 70.617 0 134.531-28.701 180.712-75.073l0.009-0.009c46.376-46.19 75.073-110.1 75.073-180.712 0-72.264-30.055-137.509-78.347-183.915l-0.085-0.081v-468.5c-0.020-61.788-50.606-112.394-112.435-112.394h-679.752c-31.037 0.003-59.125 12.623-79.417 33.010l-0.004 0.004c-20.387 20.298-33.006 48.386-33.014 79.42v661.936c0.020 61.829 50.606 112.415 112.435 112.415h132.567c3.85 12.513 10.732 23.757 19.804 32.829l0.082 0.082c14.288 14.362 34.057 23.259 55.905 23.286h0.005zM538.522 847.749l-0.553 6.697c-1.423 16.992-9.159 31.946-20.824 42.701l-0.045 0.041c-11.586 10.738-27.153 17.326-44.257 17.326-0.022 0-0.043 0-0.065 0h0.003c-0.015 0-0.034 0-0.052 0-34.237 0-62.327-26.319-65.14-59.829l-0.016-0.239-1.72-20.972h-64.594c-9.318 0-17.756-3.768-23.839-9.851l-0.082-0.082c-6.086-6.083-9.851-14.487-9.851-23.772 0-0.024 0-0.047 0-0.071v0.004-72.315c0-9.257 3.809-17.715 9.933-23.839h-0.082c6.117-6.134 14.575-9.93 23.92-9.933h150.774c-0.068 2.202-0.107 4.791-0.107 7.389 0 54.996 17.453 105.915 47.123 147.521l-0.526-0.777zM497.439 648.151h-156.16c-21.849 0.028-41.617 8.916-55.908 23.263l-0.002 0.002h-0.082c-14.37 14.312-23.263 34.113-23.265 55.992v0 49.889h-129.106c-36.922-0.104-66.824-30.007-66.929-66.919v-661.944c0-18.391 7.537-35.123 19.681-47.268s28.877-19.681 47.268-19.681h679.752c36.922 0.104 66.824 30.007 66.929 66.919v433.51c-37.534-23.111-83.010-36.803-131.684-36.803-0.065 0-0.131 0-0.196 0h0.010c-36.147 0-70.574 7.578-101.786 21.197h-420.516c-32.399 0-32.481 45.486 0 45.486h350.331c-38.733 35.251-66.514 81.918-78.026 134.665l-0.31 1.691zM225.444 184.73h494.674c32.42 0 32.481-45.486 0-45.486h-494.674c-32.399 0-32.481 45.486 0 45.486zM225.444 348.262h494.674c32.42 0 32.481-45.486 0-45.486h-494.674c-32.399 0-32.481 45.486 0 45.486zM747.725 911.196c-0.001 0-0.002 0-0.003 0-58.051 0-110.591-23.596-148.552-61.719l-0.007-0.007c-38.139-37.97-61.74-90.515-61.74-148.572s23.601-110.603 61.732-148.565l0.008-0.008c37.968-38.131 90.508-61.727 148.559-61.727 0.001 0 0.002 0 0.003 0v0c115.814 0 210.289 94.474 210.289 210.289 0 57.897-23.634 110.469-61.727 148.562-37.961 38.143-90.501 61.747-148.554 61.747-0.003 0-0.006 0-0.008 0v0zM785.736 839.619c-1.659-7.27-2.847-12.534-3.666-15.749h82.289c14.5 0 22.2-7.27 22.979-21.791v-90.747c0-17.756-0.778-33.444-2.437-47.186-0.786-15.167-2.080-28.931-3.913-42.524l0.288 2.609c-4.035-44.401-30.249-62.505-78.623-54.456-8.11 1.597-12.124 6.861-12.124 15.749 1.659 8.049 6.451 11.674 14.561 10.895 32.276-6.451 49.603 3.195 51.978 29.020 4.076 15.34 6.451 43.561 7.27 84.726v79.852c0 7.229-3.604 10.895-10.895 10.895h-78.623c-9.32-21.531-17.831-38.622-27.074-55.249l1.637 3.21c-6.451-8.868-13.271-12.124-20.541-9.708-6.451 4.854-6.861 11.715-1.188 20.603 12.083 17.715 24.166 46.367 36.291 85.914 2.437 8.049 7.229 11.244 14.5 9.646 6.472-2.437 8.888-7.66 7.291-15.708zM678.052 782.725c0.778-12.083 1.188-31.846 1.188-59.249-0.819-41.984-4.444-72.643-10.895-91.996-7.229-22.548-20.132-42.332-38.707-59.269-7.229-5.673-13.681-5.673-19.354 0-4.035 5.632-2.437 11.674 4.854 18.125 30.659 29.061 44.749 73.81 42.332 134.328v56.873c-0.778 8.049 2.007 12.493 8.479 13.271 7.25-0.778 11.284-4.792 12.104-12.083zM697.426 635.126c8.049-7.27 16.916-17.347 26.583-30.249l7.27-7.27c4.035-6.451 3.625-12.083-1.229-16.937-5.632-4.854-10.834-4.444-15.688 1.188-8.034 9.659-16.338 18.358-25.195 26.464l-0.2 0.181c-3.256 3.195-5.263 6.042-6.103 8.458-5.632 5.632-6.451 11.305-2.376 16.937 4.792 4.854 10.465 5.263 16.937 1.229zM703.447 840.806c11.305 0.819 16.937-7.639 16.937-25.395v-152.433c-0.84-8.868-4.854-14.152-12.083-15.749-7.27 0.819-10.875 5.632-10.875 14.5v145.203c0 7.229-3.256 10.895-9.708 10.895h-35.103c-9.646-0.84-14.5-4.854-14.5-12.145v-139.121c-0.778-8.888-4.854-14.090-12.083-15.749-7.27 0.84-10.895 5.673-10.895 14.561v151.224c-1.597 16.916 7.639 25.027 27.812 24.207h60.498z" />
<glyph unicode="&#xe93b;" glyph-name="purchase-detail" d="M876.609 794.533h-17.844v0.077h-99.649v17.458c0 17.072-13.827 30.899-30.899 30.899h-432.896c-17.072 0-30.899-13.827-30.899-30.899v-17.535l-117.030-0.077c-17.072 0-30.899-13.827-30.899-30.899v-679.702c0-17.072 13.827-30.899 30.899-30.899h18.694v0.154h710.524c17.072 0 30.899 13.827 30.899 30.899v679.625c0 17.072-13.827 30.899-30.899 30.899zM709.522 793.529v-49.129h-395.508v49.129h395.508zM858.069 102.471h-691.984v627.173c0 8.497 6.952 15.45 15.45 15.45h82.887v-19.235c0-17.072 13.827-30.899 30.899-30.899h432.896c17.072 0 30.899 13.827 30.899 30.899v19.312h83.505c8.497 0 15.45-6.952 15.45-15.45v-627.251zM734.859 250.246h-346.456c-13.673 0-24.719-11.046-24.719-24.719s11.046-24.719 24.719-24.719h346.456c13.673 0 24.719 11.046 24.719 24.719s-11.046 24.719-24.719 24.719zM289.527 250.246c-13.673 0-24.719-11.046-24.719-24.719s11.046-24.719 24.719-24.719 24.719 11.046 24.719 24.719-11.046 24.719-24.719 24.719zM735.477 349.123h-346.533c-13.673 0-24.719-11.046-24.719-24.719s11.046-24.719 24.719-24.719h346.456c13.673 0 24.719 11.046 24.719 24.719 0.077 13.673-11.046 24.719-24.642 24.719zM290.068 349.123c-13.673 0-24.719-11.046-24.719-24.719s11.046-24.719 24.719-24.719 24.719 11.046 24.719 24.719-11.046 24.719-24.719 24.719zM541.509 452.403c6.489-6.489 15.759-8.652 24.024-6.334 4.326 1.004 8.42 3.244 11.742 6.566l149.783 149.783c9.656 9.656 9.656 25.337 0 34.993s-25.337 9.656-34.993 0l-132.789-132.866-87.676 87.676c-4.459 4.469-10.624 7.234-17.435 7.234-2.543 0-4.996-0.385-7.304-1.101l0.174 0.047c-3.94-1.081-7.648-3.244-10.737-6.334l-149.86-149.783c-9.656-9.656-9.656-25.337 0-34.993s25.337-9.656 34.993 0l132.557 132.634 87.522-87.522z" />
<glyph unicode="&#xe93c;" glyph-name="qr-code1" d="M0 857.6h51.2v-819.2h-51.2zM102.4 857.6h51.2v-819.2h-51.2zM204.8 857.6h153.6v-819.2h-153.6zM409.6 857.6h51.2v-819.2h-51.2zM512 857.6h102.4v-819.2h-102.4zM665.6 857.6h102.4v-819.2h-102.4zM819.2 857.6h204.8v-819.2h-204.8z" />
<glyph unicode="&#xe93d;" glyph-name="receipt" d="M289.372 547.881h445.333c13.673 0 24.719 11.046 24.719 24.719s-11.046 24.719-24.719 24.719h-445.333c-13.673 0-24.719-11.046-24.719-24.719s11.046-24.719 24.719-24.719zM289.527 398.484h296.631c13.673 0 24.719 11.046 24.719 24.719s-11.046 24.719-24.719 24.719h-296.631c-13.673 0-24.719-11.046-24.719-24.719 0-13.596 11.046-24.719 24.719-24.719zM719.41 372.606l-114.017-114.017-52.528 52.528c-9.501 9.501-24.951 9.501-34.452 0s-9.501-24.951 0-34.452l68.673-68.673c5.021-5.021 11.664-7.416 18.308-7.107 6.566-0.309 13.287 2.086 18.308 7.107l130.085 130.162c9.501 9.501 9.501 24.951 0 34.452s-24.874 9.501-34.375 0zM388.404 299.685h-98.645c-13.673 0-24.719-11.046-24.719-24.719s11.046-24.719 24.719-24.719h98.645c13.673 0 24.719 11.046 24.719 24.719s-11.046 24.719-24.719 24.719zM876.841 793.992h-18.539v-0.077h-98.954v18.385c0 17.072-13.827 30.899-30.899 30.899h-432.896c-17.072 0-30.899-13.827-30.899-30.899v-18.23l-117.262-0.077c-17.072 0-30.899-13.827-30.899-30.899v-679.702c0-17.072 13.827-30.899 30.899-30.899h729.449c17.072 0 30.899 13.827 30.899 30.899v679.702c0 16.994-13.827 30.899-30.899 30.899zM314.246 778.311c0 8.497 6.952 15.45 15.45 15.45h364.609c8.497 0 15.45-6.952 15.45-15.45v-18.23c0-8.497-6.952-15.45-15.45-15.45h-364.609c-8.497 0-15.45 6.952-15.45 15.45v18.23zM858.301 117.38c0-8.497-6.952-15.45-15.45-15.45h-661.317c-8.497 0-15.45 6.952-15.45 15.45v611.801c0 8.497 6.952 15.45 15.45 15.45h83.118v-18.539c0-17.072 13.827-30.899 30.899-30.899h432.896c17.072 0 30.899 13.827 30.899 30.899v18.385h83.505c8.497 0 15.45-6.952 15.45-15.45v-611.647z" />
<glyph unicode="&#xe93e;" glyph-name="factory" d="M461.5 848.8v-205.029l-362.2 205.029v-797.4h828.4v533.5l-466.2 263.9zM406.561 347.414h-154.022v154.872h154.022v-154.872zM771.543 347.414h-154.022v154.872h154.022v-154.872z" />
<glyph unicode="&#xe93f;" glyph-name="factory2" d="M319.6 498.7l-121 92.6 9.7 266.2h96.7l14.6-358.8zM556.7 857.5h-96.8l-9.7-266.2 121-92.6-14.5 358.8zM808.4 857.5h-96.8l-9.7-266.2 121-92.6-14.5 358.8zM614.8 595.3v-193l-251.7 193v-190.5l-248.5 190.5v-542.1h790.6v319.5l-290.4 222.6z" />
<glyph unicode="&#xe940;" glyph-name="feel-list" d="M797.632 869.184c64.832 0 117.376-48.96 116.928-109.44 0-59.136-48.96-104.128-114.752-105.024v-508.928c-0.448-13.696-4.416-22.976-12.352-29.12l-79.872-71.936c-6.944-4.604-15.47-7.345-24.637-7.345-8.875 0-17.15 2.57-24.121 7.006l0.182-0.109-91.776 63.552-88.768-63.104c-6.64-4.686-14.899-7.49-23.814-7.49-0.156 0-0.311 0.001-0.466 0.003h0.024c-0.249-0.005-0.542-0.009-0.836-0.009-8.575 0-16.534 2.635-23.113 7.139l0.14-0.091-93.184 63.552-89.6-63.104c-7.011-4.6-15.602-7.337-24.833-7.337-8.937 0-17.274 2.565-24.316 7l0.189-0.111-82.56 56.512c-7.305 5.401-12.161 13.755-12.795 23.265l-0.005 0.095v635.584c0 29.568 12.352 56.96 34.432 77.696 21.734 19.654 50.689 31.682 82.453 31.682 0.218 0 0.435-0.001 0.652-0.002h-0.034zM226.432 821.568h-4.8c-59.648 0-69.312-67.584-69.76-70.656v-77.248l0.896-527.872c0.482-4.422 2.605-8.273 5.739-10.99l0.021-0.018 57.792-48.576c3.072-2.176 7.488-2.624 10.56-0.448l85.184 61.824c19.84 12.8 28.736 12.8 48.128 0l88.32-60.48c1.551-1.029 3.456-1.642 5.504-1.642s3.953 0.613 5.541 1.665l-0.037-0.023 84.288 60.032c19.392 12.352 28.672 12.352 48.128-0.448l86.080-60.928c1.417-0.789 3.108-1.253 4.908-1.253 2.105 0 4.062 0.635 5.689 1.724l-0.037-0.023 56.96 52.096c3.228 2.678 5.378 6.56 5.756 10.948l0.004 0.060v506.24h-530.176c-16.384 0-26.496 14.144-26.496 27.84 0 11.008 7.040 23.808 26.496 23.808 9.664 0 48.064 7.552 55.168 44.608 2.176 34.88-19.84 65.792-49.92 69.76zM666.112 313.536c13.632 0 24.704-11.072 24.704-24.704-0.456-13.648-11.528-24.564-25.196-24.768h-421.076c-13.661 0-24.736 11.075-24.736 24.736s11.075 24.736 24.736 24.736v0zM654.592 425.6c19.776 0 35.776-11.008 35.776-24.704s-16-24.704-35.84-24.704h-259.456c-19.84 0-35.776 11.008-35.776 24.704s16 24.704 35.84 24.704zM665.6 537.728c13.644 0 24.704-11.060 24.704-24.704s-11.060-24.704-24.704-24.704v0h-179.2c-13.644 0-24.704 11.060-24.704 24.704s11.060 24.704 24.704 24.704v0zM798.080 822.4l-493.056-1.728c7.040-7.936 21.184-27.392 21.184-60.928 0-30.464-12.8-45.44-20.736-51.648l492.544-3.52c32.256 0 67.968 24.32 67.968 58.688 0 48.576-42.368 57.856-67.968 59.136z" />
<glyph unicode="&#xe941;" glyph-name="forklift" horiz-adv-x="1280" d="M96 640h96v224c0 53.020 43 96 96 96h297.4c40.6 0 76.8-25.5 90.4-63.72l150.6-421.48c3.8-10.4 5.6-21.4 5.6-32.4v-171.2c39.2-35.2 64-86.4 64-143.2 0-106-86-192-192-192-107.8 0-192 86-192 192h-128c0-106-86-192-192-192-106.040 0-192 86-192 192v416c0 53 42.98 96 96 96zM700 448l-137.2 384h-242.8v-192l192-192h188zM192 32c53 0 96 43 96 96s-43 96-96 96c-53.020 0-96-43-96-96s42.98-96 96-96zM704 32c53 0 96 43 96 96s-43 96-96 96-96-43-96-96 43-96 96-96zM1088 192h128c35.4 0 64-28.6 64-64s-28.6-64-64-64h-192c-35.4 0-64 28.6-64 64v768c0 35.34 28.6 64 64 64s64-28.66 64-64v-704z" />
<glyph unicode="&#xe942;" glyph-name="forklift2" d="M670.515 523.776v-178.176c0-36.864 0-37.069 36.25-37.274 60.211 0 120.422-1.229 180.634 0 28.262 0 30.925-13.517 30.925-35.635s-1.024-38.912-31.334-38.093c-63.898 1.638-127.795 0-191.693 0-1.241 0.152-2.677 0.239-4.134 0.239-15.473 0-28.657-9.806-33.674-23.542l-0.080-0.249c-18.413-40.044-58.183-67.348-104.329-67.348-7.942 0-15.695 0.809-23.181 2.348l0.739-0.127c-48.961 6.604-87.292 44.865-93.939 93.229l-0.064 0.569c-3.482 17.408-7.782 27.853-28.672 28.058s-27.238-10.854-31.334-29.082c-10.193-53.759-56.804-93.862-112.781-93.862-2.761 0-5.499 0.098-8.211 0.289l0.365-0.021c-0.005 0-0.010 0-0.016 0-57.799 0-105.393 43.692-111.555 99.85l-0.045 0.502c-1.843 10.65-3.891 19.251-15.565 23.142-13.872 5.015-23.607 18.070-23.607 33.399 0 2.019 0.169 3.999 0.493 5.926l-0.029-0.208v145.203c0 29.491 10.65 37.478 40.96 39.936 11.048 1.017 23.894 1.597 36.875 1.597 65.893 0 128.297-14.94 184.009-41.616l-2.568 1.107c69.427-32.358 143.36-20.48 216.064-20.48 19.046 0 17.203 15.155 17.203 27.853v244.736c-0.261 1.701-0.409 3.663-0.409 5.659 0 21.717 17.605 39.322 39.322 39.322 8.434 0 16.248-2.655 22.651-7.176l-0.124 0.083c13.722-6.554 11.469-19.456 11.469-31.13-0.41-62.874-0.614-125.952-0.614-189.030zM596.787 262.246c-1.124 24.61-21.306 44.149-46.071 44.237h-0.009c-24.16-0.78-43.448-20.552-43.448-44.829 0-0.584 0.011-1.165 0.033-1.744l-0.003 0.083c-0.001-0.081-0.001-0.176-0.001-0.272 0-22.622 18.338-40.96 40.96-40.96 1.66 0 3.297 0.099 4.906 0.291l-0.194-0.019c0.306-0.008 0.665-0.012 1.026-0.012 23.64 0 42.803 19.164 42.803 42.803 0 0.148-0.001 0.297-0.002 0.445v-0.023zM216.883 260.608c0.742-22.832 19.429-41.059 42.373-41.059 1.016 0 2.024 0.036 3.023 0.106l-0.134-0.008c0.771-0.055 1.67-0.086 2.577-0.086 21.377 0 38.707 17.33 38.707 38.707 0 1.763-0.118 3.499-0.346 5.2l0.022-0.199c0.040 0.681 0.064 1.478 0.064 2.28 0 22.622-18.338 40.96-40.96 40.96-0.527 0-1.051-0.010-1.572-0.030l0.075 0.002c-24.268-0.215-43.858-19.937-43.858-44.235 0-0.577 0.011-1.151 0.033-1.722l-0.003 0.082zM917.709 520.499v-143.36c0-35.84-8.397-43.827-43.418-44.032h-139.674c-1.528-0.256-3.29-0.402-5.085-0.402-17.871 0-32.358 14.487-32.358 32.358 0 1.732 0.136 3.433 0.398 5.091l-0.024-0.183v304.538c-0.211 1.433-0.332 3.087-0.332 4.769 0 19.002 15.404 34.406 34.406 34.406 1.998 0 3.956-0.17 5.861-0.497l-0.204 0.029h139.878c29.901 0 40.96-10.854 40.96-40.96v-150.528zM861.389 602.419v30.106c0 9.626 2.253 20.48-9.216 23.347s-15.565-3.686-22.733-10.445c-5.525-6.948-13.977-11.363-23.461-11.363-10.459 0-19.663 5.37-25.007 13.503l-0.070 0.113c-5.12 6.349-10.445 10.65-18.432 7.987s-8.806-10.65-8.806-18.022v-68.198c0-7.578 0-15.155 10.035-17.203 1.305-0.355 2.804-0.559 4.35-0.559 6.058 0 11.385 3.132 14.45 7.865l0.041 0.067c20.48 23.142 28.672 23.142 49.971 0 3.233-4.5 8.452-7.397 14.347-7.397 1.672 0 3.29 0.233 4.823 0.669l-0.124-0.030c9.011 2.458 9.421 10.035 9.626 17.408 0.41 9.626 0.205 21.094 0.205 31.334zM861.389 442.675v24.576c0 8.192 2.458 20.48-10.24 25.6s-15.36-4.301-22.323-11.059c-4.951-6.457-12.668-10.58-21.348-10.58-9.64 0-18.093 5.084-22.822 12.718l-0.066 0.115c-3.116 5.651-9.036 9.415-15.834 9.415-1.652 0-3.252-0.222-4.772-0.639l0.126 0.030c-10.24-3.072-10.035-12.083-10.035-20.48v-62.874c0-7.578 1.434-15.155 10.445-17.203 1.515-0.49 3.258-0.773 5.068-0.773 5.771 0 10.869 2.875 13.942 7.272l0.036 0.055c15.974 20.48 32.768 20.48 48.742 0 3.109-4.451 8.208-7.327 13.979-7.327 1.809 0 3.553 0.283 5.188 0.806l-0.12-0.033c9.011 2.253 10.035 9.626 10.24 17.203 0 10.445-0.205 21.299-0.205 32.358zM364.749 745.779h95.642c1.079 0.094 2.335 0.148 3.603 0.148 21.912 0 40.086-16.006 43.468-36.964l0.034-0.253c16.589-72.090 32.973-143.36 50.176-216.064 4.096-17.613 0-24.986-19.456-26.214-45.67-2.867-48.947-1.229-59.392 43.008s-20.48 90.726-30.925 136.192c-0.624 13.755-11.927 24.67-25.78 24.67-1.382 0-2.739-0.109-4.063-0.318l0.146 0.019h-93.184c-20.48 0-27.648-8.192-27.034-27.853v-95.846c0-20.48-8.806-26.829-29.082-23.552-43.622 7.168-43.622 6.144-43.622 49.766v121.242c0 40.96 11.264 52.429 51.61 52.838h87.654z" />
<glyph unicode="&#xe943;" glyph-name="gis-point" d="M850.94 214.86h-683.55c-19.79 0-35.98 16.19-35.98 35.98s16.19 35.98 35.98 35.98h179.88v71.95h-179.88c-59.36 0-107.93-48.57-107.93-107.93s48.57-107.93 107.93-107.93h683.56v71.95zM167.39 142.91h683.56c19.79 0 35.98-16.19 35.98-35.98s-16.19-35.98-35.98-35.98h-179.89v-71.95h179.88c59.36 0 107.93 48.57 107.93 107.93s-48.57 107.93-107.93 107.93h-683.55v-71.95zM556.12 490.92c-122.89 0-222.87 91.41-222.87 203.75s99.98 203.75 222.87 203.75c122.91 0 222.87-91.41 222.87-203.75s-99.99-203.75-222.87-203.75zM556.12 782.44c-53-0.060-95.94-39.32-96.010-87.77 0.060-48.45 43.010-87.72 96.010-87.77 53 0.050 95.95 39.32 96.010 87.77-0.070 48.45-43.020 87.71-96.010 87.77zM360.85 598.040h391.16l-206.68-334.18-184.48 334.18z" />
<glyph unicode="&#xe944;" glyph-name="ground-pile" d="M563.1 799.2h-155c-7.2 0-13-5.8-13-13v-19.2c0-7.2 5.8-13 13-13h155.1c7.2 0 13 5.8 13 13v19.2c-0.1 7.2-5.9 13-13.1 13zM176 289.8h155.1c7.2 0 13 5.8 13 13v19.2c0 7.2-5.8 13-13 13h-155.1c-7.2 0-13-5.8-13-13v-19.2c0-7.2 5.8-13 13-13zM341.8 464.1h340.5c25.2 0 45.7 20.5 45.7 45.7v340.5c0 25.2-20.5 45.7-45.7 45.7h-340.5c-25.2 0-45.7-20.5-45.7-45.7v-340.5c0-25.2 20.5-45.7 45.7-45.7zM350.9 519v322.1h322.2v-322.1h-322.2zM450.2 431.9h-340.5c-25.2 0-45.7-20.5-45.7-45.7v-340.5c0-25.2 20.5-45.7 45.7-45.7h340.5c25.2 0 45.7 20.5 45.7 45.7v340.5c0 25.2-20.5 45.7-45.7 45.7zM441 377v-322.2h-322.1v322.2h322.1zM914.3 431.9h-340.5c-25.2 0-45.7-20.5-45.7-45.7v-340.5c0-25.2 20.5-45.7 45.7-45.7h340.5c25.2 0 45.7 20.5 45.7 45.7v340.5c0 25.2-20.5 45.7-45.7 45.7zM905.1 377v-322.2h-322.1v322.2h322.1zM640.1 289.8h155.1c7.2 0 13 5.8 13 13v19.2c0 7.2-5.8 13-13 13h-155.1c-7.2 0-13-5.8-13-13v-19.2c0-7.2 5.8-13 13-13z" />
<glyph unicode="&#xe945;" glyph-name="handing3" d="M98.319 939.773l149.811 20.059 101.747-709.586c0 0 1.154-8.355 1.917-13.379 35.057 5.117 61.461-19.036 72.161-30.479l-42.221 294.541-26.572-3.87-26.87 187.417 571.014 83.381 26.888-187.435-26.572-3.889 49.924-348.076-491.336-71.733 17.1-24.841 326.025 48.622 113.786-85.8c12.281-9.248 14.793-26.814 5.62-39.206-4.596-6.178-11.239-9.937-18.273-10.96-7.015-1.023-14.44 0.651-20.599 5.285l-95.346 71.9c0 0-307.902-44.435-309.967-45.105-3.145-69.053-54.39-128.374-124.709-138.646-79.66-11.63-153.588 44.119-165.125 124.504-10.867 75.808 36.843 155.002 111.851 165.962 0.242 2.717-95.885 670.082-95.885 670.082l-96.406-14.198c-15.184-2.214-29.27 8.411-31.466 23.706-2.196 15.333 8.336 29.53 23.502 31.745v0zM552.589 443.878c2.214-15.333 15.24-25.139 30.405-22.906l146.089 21.324c15.165 2.214 24.897 15.333 22.72 30.647-2.196 15.333-15.24 25.12-30.405 22.906l-146.070-21.324c-15.184-2.233-24.934-15.351-22.739-30.647v0zM865.384 626.215l-11.518 80.329-464.783-67.862 11.518-80.311 464.783 67.844zM241.673 70.496c7.127-49.683 52.995-84.256 102.231-77.073 49.217 7.201 83.474 53.46 76.347 103.142s-52.976 84.256-102.193 77.073c-49.236-7.183-83.511-53.441-76.385-103.142v0z" />
<glyph unicode="&#xe946;" glyph-name="handling1" d="M119.97 264.746h424.26c7.774 0 14.438 6.664 14.438 14.438v308.755c0 7.774-6.664 14.438-14.438 14.438h-424.26c-7.774 0-13.328-6.664-13.328-14.438v-308.755c0-7.774 5.553-14.438 13.328-14.438zM798.565 680.121c14.438 51.089 28.876 101.067 43.315 152.156 1.111 3.332 3.332 5.553 7.774 6.664 47.757 7.774 96.625 15.549 143.271 24.434 28.876 4.443 47.757-47.757 8.885-54.421-28.876-5.553-57.753-9.996-87.74-15.549-3.332-1.111-5.553-3.332-6.664-6.664-11.106-37.761-21.102-75.523-32.208-112.174-1.111-4.443-4.443-6.664-8.885-6.664-19.991 0-38.872 0-58.863 1.111-3.332 0-5.553 1.111-7.774 3.332-1.111 1.111-1.111 4.443-1.111 7.774zM1.133 129.249c15.549 28.876 33.319 56.642 62.195 82.187 2.221 1.111 3.332 2.221 5.553 2.221 169.926-6.664 362.065-3.332 554.204 0 4.443 0 8.885 4.443 8.885 8.885v111.063c0 1.111 0 2.221 1.111 3.332 45.536 101.067 89.961 202.134 135.497 303.202 1.111 3.332 4.443 5.553 8.885 5.553h87.74c4.443 0 8.885-3.332 8.885-8.885v-513.111c0-4.443-4.443-8.885-8.885-8.885h-66.638c-4.443 0-8.885-3.332-8.885-8.885-7.774-98.846-154.377-98.846-162.152 0 0 4.443-4.443 8.885-8.885 8.885h-41.093c-4.443 0-8.885-3.332-8.885-8.885-7.774-98.846-154.377-98.846-162.152 0-1.111 4.443-4.443 8.885-8.885 8.885h-151.046c-4.443 0-8.885-3.332-8.885-8.885-7.774-98.846-154.377-98.846-162.152 0 0 4.443-4.443 8.885-8.885 8.885h-57.753c-6.664 1.111-11.106 8.885-7.774 14.438zM293.229 339.158v98.846c0 4.443-4.443 8.885-8.885 8.885h-37.761c-7.774 0-12.217 9.996-6.664 15.549l86.629 87.74c3.332 3.332 9.996 3.332 13.328 0l86.629-87.74c5.553-5.553 1.111-15.549-6.664-15.549h-37.761c-4.443 0-8.885-4.443-8.885-8.885v-98.846c0-4.443-4.443-8.885-8.885-8.885h-59.974c-6.664 0-11.106 4.443-11.106 8.885z" />
<glyph unicode="&#xe947;" glyph-name="handling2" d="M345 282.5h283.1c38.1 0 68.9 30.9 68.9 68.9v151.1c0 13.3-10.7 24-24 24h-328c-13.3 0-24-10.7-24-24v-196c0-13.3 10.7-24 24-24zM397 566.5h224c13.3 0 24 10.7 24 24v92c0 13.3-10.7 24-24 24h-224c-13.3 0-24-10.7-24-24v-92c0-13.3 10.7-24 24-24zM83.5 282.5h177c13.3 0 24 10.7 24 24v236c0 13.2 10.8 24 24.1 24 13.2 0 23.9 10.8 23.9 24v53c0 13.3-10.7 24-24 24h-225c-13.3 0-24-10.7-24-24v-337c0-13.3 10.7-24 24-24zM922 826h-24.6c-77.3 0-139.9-62.6-140-139.9l-0.3-379.5c0-46.2-37.5-83.6-83.7-83.6h-589.4c-13.3 0-24-10.7-24-24v-100c0-13.3 10.7-24 24-24h57.6c1.8 54.7 46.8 98.5 101.9 98.5s100.1-43.8 101.9-98.5h247.1c1.8 54.7 46.8 98.5 101.9 98.5s100.1-43.8 101.9-98.5c48.4 0 87.6 39.2 87.6 87.6v482.4c0 29.8 24.2 54 54 54 13.3 0 24 10.7 24 24v63c0.1 22.1-17.8 40-39.9 40zM246.3 138.5c-40.8 1.3-74.1-32-72.8-72.8 1.2-36.9 31.2-67 68.2-68.2 40.8-1.3 74.1 32 72.8 72.8-1.2 36.9-31.3 67-68.2 68.2zM696.3 138.5c-40.8 1.3-74.1-32-72.8-72.8 1.2-36.9 31.2-67 68.2-68.2 40.8-1.3 74.1 32 72.8 72.8-1.2 36.9-31.3 67-68.2 68.2z" />
<glyph unicode="&#xe948;" glyph-name="inbox-in" d="M512 704c23.564 0 42.667-19.103 42.667-42.667v-153.003l55.168 55.168c7.665 7.41 18.12 11.977 29.641 11.977 23.564 0 42.667-19.103 42.667-42.667 0-11.521-4.567-21.976-11.989-29.653l-127.988-127.988c-7.663-7.684-18.246-12.453-29.943-12.501h-0.393c-11.721 0.041-22.319 4.811-29.994 12.501l-128.001 128.001c-8.036 7.769-13.026 18.647-13.026 30.69 0 23.564 19.103 42.667 42.667 42.667 12.043 0 22.92-4.989 30.678-13.014l55.18-55.18v153.003c0 23.564 19.103 42.667 42.667 42.667v0zM150.229 840.704c4.176 19.53 21.287 33.963 41.769 33.963 0.015 0 0.031 0 0.046 0h639.998c20.465-0.020 37.555-14.446 41.678-33.683l0.050-0.28 106.453-511.061c0.709-2.91 1.116-6.25 1.116-9.686 0-0.27-0.003-0.539-0.008-0.808l0.001 0.040v-276.523c0-23.564-19.103-42.667-42.667-42.667h-853.333c-23.564 0-42.667 19.103-42.667 42.667v0 276.352c-0.006 0.276-0.010 0.602-0.010 0.928 0 3.377 0.392 6.663 1.134 9.814l-0.057-0.289 106.496 511.232zM797.312 789.333h-570.624l-88.875-426.667h180.267c19.15-0.001 35.353-12.617 40.751-29.991l0.081-0.302 29.611-97.707h246.997l29.611 97.707c5.479 17.676 21.682 30.293 40.832 30.293h180.224l-88.875 426.667z" />
<glyph unicode="&#xe949;" glyph-name="info-edit" d="M140.8-0.64l-5.76 0.512c-15.024 2.823-26.24 15.841-26.24 31.477 0 0.004 0 0.008 0 0.011v-0.001 832.64l0.512 5.76c2.823 15.024 15.841 26.24 31.477 26.24 0.004 0 0.008 0 0.011 0l675.967-0.512c15.024-2.823 26.24-15.841 26.24-31.477 0-0.004 0-0.008 0-0.011v0.001l-0.512-5.76c-2.823-15.024-15.841-26.24-31.477-26.24-0.004 0-0.008 0-0.011 0h-638.207v-768.64h366.208v168.512l0.576 5.76c2.823 15.024 15.841 26.24 31.477 26.24 0.004 0 0.008 0 0.011 0l202.367 0.064 5.632 5.632v174.272l0.512 5.76c2.799 15.053 15.83 26.299 31.488 26.299 17.673 0 32-14.327 32-32 0-0.021 0-0.041 0-0.062v0.003-187.392l-0.384-4.992c-1.103-6.896-4.269-12.91-8.836-17.54l0.004 0.004-22.784-22.912v-11.136l-10.944 0.064-188.8-191.040-3.84-3.328c-1.295-0.961-2.761-1.875-4.301-2.668l-0.179-0.084v-3.456h-462.208zM710.080 199.936l-107.136-0.128v-108.224l107.136 108.352zM894.656 755.712l0.448-0.512c14.143-16.226 22.765-37.584 22.765-60.956 0-27.96-12.34-53.039-31.871-70.086l-0.11-0.094-427.136-363.136c-4.788-4.105-10.899-6.794-17.615-7.352l-0.113-0.008-112.128-8.64c-0.724-0.060-1.568-0.094-2.42-0.094-17.214 0-31.168 13.954-31.168 31.168 0 3.136 0.463 6.164 1.325 9.019l-0.057-0.221 30.144 102.848c1.807 6.018 5.196 11.104 9.685 14.94l0.043 0.036 426.88 362.88c16.233 13.911 37.488 22.379 60.721 22.379 28.13 0 53.36-12.413 70.512-32.060l0.095-0.111zM803.776 718.016l-419.776-356.864-14.72-50.56 56.832 4.48 418.688 355.84c6.579 5.656 10.72 13.989 10.72 23.289 0 7.679-2.823 14.699-7.489 20.077l0.032-0.038-0.384 0.512c-5.746 6.591-14.156 10.732-23.533 10.732-7.746 0-14.833-2.826-20.284-7.503l0.042 0.035zM413.184 608.512c0.017 0 0.038 0 0.059 0 17.673 0 32-14.327 32-32 0-15.658-11.246-28.689-26.101-31.457l-0.198-0.031-5.76-0.512h-131.584c-0.017 0-0.038 0-0.059 0-17.673 0-32 14.327-32 32 0 15.658 11.246 28.689 26.101 31.457l0.198 0.031 5.76 0.512h131.52zM473.6 768c0.017 0 0.038 0 0.059 0 17.673 0 32-14.327 32-32 0-15.658-11.246-28.689-26.101-31.457l-0.198-0.031-5.76-0.512h-192c-0.017 0-0.038 0-0.059 0-17.673 0-32 14.327-32 32 0 15.658 11.246 28.689 26.101 31.457l0.198 0.031 5.76 0.512h192z" />
<glyph unicode="&#xe94a;" glyph-name="inspection" d="M165.824 736.544h224v-64h-224zM165.824 290.496h224v-64h-224zM165.824 515.68h309.984v-64h-309.984zM64 896h550.912v-231.040l1.856-33.792h279.232v-147.552h64v195.104l-298.528 281.28-4.8-0.192v0.192h-618.272c-0.048 0-0.104 0-0.161 0-21.041 0-38.112-16.993-38.239-38.004v-985.996h514.88v64h-450.88zM678.912 855.68l170.336-160.512h-170.336zM1014.624-9.376l-118.72 118.72c25.079 33.986 40.139 76.701 40.139 122.933 0 115.052-93.268 208.32-208.32 208.32s-208.32-93.268-208.32-208.32c0-115.052 93.268-208.32 208.32-208.32 46.232 0 88.946 15.060 123.505 40.542l-0.572-0.403 118.72-118.72c5.749-5.558 13.59-8.983 22.231-8.983 17.673 0 32 14.327 32 32 0 8.641-3.425 16.482-8.991 22.24l0.009-0.009zM829.952 130.048c-26.043-26.020-62.008-42.112-101.732-42.112-79.494 0-143.936 64.442-143.936 143.936s64.442 143.936 143.936 143.936c39.724 0 75.689-16.092 101.733-42.113l-0.001 0.001c26.021-26.077 42.111-62.071 42.111-101.824s-16.090-75.747-42.114-101.827l0.003 0.003z" />
</font>
</defs>
</svg>
