<?xml version="1.0" standalone="no"?>
<!DOCTYPE svg PUBLIC "-//W3C//DTD SVG 1.1//EN" "http://www.w3.org/Graphics/SVG/1.1/DTD/svg11.dtd" >
<svg xmlns="http://www.w3.org/2000/svg">
<metadata>
<json>
<![CDATA[
{
	"fontFamily": "mobox-normal",
	"majorVersion": 2,
	"minorVersion": 3,
	"version": "Version 2.3",
	"fontId": "mobox-normal",
	"psName": "mobox-normal",
	"subFamily": "Regular",
	"fullName": "mobox-normal",
	"description": "Font generated by IcoMoon."
}
]]>
</json>
</metadata>
<defs>
<font id="mobox-normal" horiz-adv-x="1024">
<font-face units-per-em="1024" ascent="960" descent="-64" />
<missing-glyph horiz-adv-x="1024" />
<glyph unicode="&#x20;" horiz-adv-x="512" d="" />
<glyph unicode="&#xe900;" glyph-name="log" data-tags="log" d="M595.234-32.751v61.536h430.368v-61.536h-430.368zM595.234 166.985h430.368v-61.536h-430.368v61.536zM595.234 305.185h430.368v-61.472h-430.368v61.472zM951.375 364.606c5.769 27.178 8.782 55.062 8.782 83.458 0 111.983-46.088 217.235-129.611 296.399-83.587 79.164-194.736 122.752-312.873 122.752-118.201 0-229.35-43.588-312.937-122.752-25.127-23.845-46.857-50.062-64.998-78.074l139.802 42.947c17.051 5.256 35.319-3.59 40.832-19.743 5.577-16.153-3.782-33.524-20.833-38.781l-216.21-66.408c-3.205-1.026-6.602-1.474-10-1.474-5.705 0-11.41 1.41-16.474 4.231-7.948 4.423-13.589 11.923-15.384 20.576l-40.896 197.428c-3.461 16.666 8.013 32.819 25.64 36.088 17.563 3.269 34.614-7.564 38.075-24.23l23.525-113.457c20.127 30.448 43.845 58.652 71.023 84.42 46.601 44.101 100.894 78.779 161.276 102.945 62.562 25.127 129.034 37.819 197.557 37.819 68.459 0 134.931-12.692 197.493-37.819 60.446-24.166 114.675-58.844 161.276-102.945 46.601-44.165 83.138-95.573 108.714-152.815 26.473-59.293 39.87-122.239 39.87-187.108 0-28.268-2.5-56.088-7.564-83.458h-66.087zM204.736 151.665c82.625-78.266 192.108-121.726 308.77-122.752v-61.536c-67.049 0.513-132.046 13.205-193.39 37.755-60.382 24.23-114.675 58.908-161.276 103.009-46.537 44.165-83.138 95.573-108.714 152.815-15.192 34.037-26.089 69.292-32.627 105.445h66.023c16.73-80.83 58.331-155.186 121.213-214.736zM570.555 703.183v-284.861h-238.453v61.472h173.519v223.389h64.933z" />
<glyph unicode="&#xe901;" glyph-name="select" data-tags="select" d="M393.846 408.615c43.503 0 78.769-35.266 78.769-78.769v0-157.538c0-43.503-35.266-78.769-78.769-78.769v0h-157.538c-43.503 0-78.769 35.266-78.769 78.769v0 157.538c0 43.503 35.266 78.769 78.769 78.769h157.538zM393.846 369.231h-157.538c-20.125-0.003-36.724-15.1-39.090-34.587l-0.019-0.189-0.276-4.608v-157.538c0.003-20.125 15.1-36.724 34.587-39.090l0.189-0.019 4.608-0.276h157.538c20.125 0.003 36.724 15.1 39.090 34.587l0.019 0.189 0.276 4.608v157.538c-0.003 20.125-15.1 36.724-34.587 39.090l-0.189 0.019-4.608 0.276zM866.462 172.308c0.011 0 0.023 0 0.036 0 10.876 0 19.692-8.817 19.692-19.692 0-9.636-6.921-17.655-16.062-19.358l-0.122-0.019-3.545-0.315h-275.692c-0.011 0-0.023 0-0.036 0-10.876 0-19.692 8.817-19.692 19.692 0 9.636 6.921 17.655 16.062 19.358l0.122 0.019 3.545 0.315h275.692zM866.462 369.231c0.011 0 0.023 0 0.036 0 10.876 0 19.692-8.817 19.692-19.692 0-9.636-6.921-17.655-16.062-19.358l-0.122-0.019-3.545-0.315h-275.692c-0.011 0-0.023 0-0.036 0-10.876 0-19.692 8.817-19.692 19.692 0 9.636 6.921 17.655 16.062 19.358l0.122 0.019 3.545 0.315h275.692zM393.846 802.462c43.503 0 78.769-35.266 78.769-78.769v0-157.538c0-43.503-35.266-78.769-78.769-78.769v0h-157.538c-43.503 0-78.769 35.266-78.769 78.769v0 157.538c0 43.503 35.266 78.769 78.769 78.769h157.538zM393.846 763.077h-157.538c-20.125-0.003-36.724-15.1-39.090-34.587l-0.019-0.189-0.276-4.608v-157.538c0.003-20.125 15.1-36.724 34.587-39.090l0.189-0.019 4.608-0.276h157.538c20.125 0.003 36.724 15.1 39.090 34.587l0.019 0.189 0.276 4.608v157.538c-0.003 20.125-15.1 36.724-34.587 39.090l-0.189 0.019-4.608 0.276zM866.462 566.154c0.011 0 0.023 0 0.036 0 10.876 0 19.692-8.817 19.692-19.692 0-9.636-6.921-17.655-16.062-19.358l-0.122-0.019-3.545-0.315h-275.692c-0.011 0-0.023 0-0.036 0-10.876 0-19.692 8.817-19.692 19.692 0 9.636 6.921 17.655 16.062 19.358l0.122 0.019 3.545 0.315h275.692zM409.127 696.714c2.743-3.357 4.406-7.692 4.406-12.414 0-4.896-1.786-9.374-4.743-12.819l0.022 0.026-2.56-2.481-96.847-78.769c-3.361-2.754-7.703-4.423-12.435-4.423-3.661 0-7.090 0.999-10.026 2.74l0.091-0.050-2.836 2.048-60.692 51.988c-4.163 3.63-6.778 8.943-6.778 14.867 0 10.876 8.817 19.692 19.692 19.692 3.611 0 6.995-0.972 9.905-2.668l-0.094 0.050 2.875-2.048 48.246-41.275 84.126 68.411c3.356 2.739 7.687 4.398 12.405 4.398 6.151 0 11.643-2.82 15.255-7.238l0.028-0.035zM866.462 763.077c0.011 0 0.023 0 0.036 0 10.876 0 19.692-8.817 19.692-19.692 0-9.636-6.921-17.655-16.062-19.358l-0.122-0.019-3.545-0.315h-275.692c-0.011 0-0.023 0-0.036 0-10.876 0-19.692 8.817-19.692 19.692 0 9.636 6.921 17.655 16.062 19.358l0.122 0.019 3.545 0.315h275.692z" />
<glyph unicode="&#xe902;" glyph-name="disable" data-tags="disable" d="M512 960c-282.77 0-512-229.23-512-512s229.23-512 512-512c282.77 0 512 229.23 512 512v0c0 282.77-229.23 512-512 512v0zM921.6 448c0.001-0.255 0.001-0.556 0.001-0.858 0-94.766-32.59-181.92-87.174-250.866l0.645 0.844-573.952 573.952c68.102 53.939 155.256 86.529 250.022 86.529 0.302 0 0.603 0 0.904-0.001h-0.047c226.216 0 409.6-183.384 409.6-409.6v0zM102.4 448c-0.001 0.255-0.001 0.556-0.001 0.858 0 94.766 32.59 181.92 87.174 250.866l-0.645-0.844 573.952-573.952c-68.102-53.939-155.256-86.529-250.022-86.529-0.302 0-0.603 0-0.904 0.001h0.047c-226.216 0-409.6 183.384-409.6 409.6v0z" />
<glyph unicode="&#xe903;" glyph-name="checkbox2" data-tags="checkbox2" d="M938.667-64h-853.333c-46.933 0-85.333 38.4-85.333 85.333v853.333c0 46.933 38.4 85.333 85.333 85.333h853.333c46.933 0 85.333-38.4 85.333-85.333v-853.333c0-46.933-38.4-85.333-85.333-85.333zM938.667 853.333c0 12.8-8.533 21.333-21.333 21.333h-810.667c-12.8 0-21.333-8.533-21.333-21.333v-810.667c0-12.8 8.533-21.333 21.333-21.333h810.667c12.8 0 21.333 8.533 21.333 21.333v810.667zM456.533 247.467c-6.4-8.533-17.067-12.8-29.867-12.8s-23.467 4.267-29.867 12.8l-170.667 170.667c-8.533 6.4-12.8 17.067-12.8 29.867 0 23.467 19.2 42.667 42.667 42.667 12.8 0 23.467-4.267 29.867-12.8l140.8-140.8 311.467 311.467c8.533 8.533 19.2 12.8 29.867 12.8 23.467 0 42.667-19.2 42.667-42.667 0-12.8-4.267-23.467-12.8-29.867l-341.333-341.333z" />
<glyph unicode="&#xe904;" glyph-name="email" data-tags="email" d="M531.4 907c134.224 0 239.864-39.763 316.919-120.531 65.869-69.585 99.425-155.323 99.425-257.216 0-86.98-28.585-167.749-83.269-242.304-55.927-73.313-119.31-110.59-191.394-110.59-52.198 0-82.026 26.094-90.726 77.040-36.042-52.189-84.512-78.283-144.167-78.283-55.927 0-100.668 18.639-135.467 55.916-34.8 37.278-52.199 84.496-52.199 140.413 0 86.98 26.1 162.779 80.783 229.878 53.442 68.343 118.068 101.893 192.638 101.893 53.44 0 90.725-28.58 113.096-85.739l17.4 62.13h110.61l-84.511-303.192c-12.428-44.733-18.642-72.070-18.642-83.253 0-16.154 8.7-24.852 27.342-24.852 34.799 0 69.598 23.61 104.396 68.342 39.77 52.189 59.656 116.804 59.656 191.359 0 77.040-27.342 142.897-82.026 196.329-60.898 59.644-142.925 88.223-247.321 88.223-111.854 0-200.094-34.792-267.207-105.62-67.112-69.585-99.425-160.293-99.425-270.884 0-121.773 34.799-214.967 105.64-277.097 64.626-57.159 157.838-85.738 278.391-85.738 80.783 0 149.138 13.668 206.308 38.52 52.199 24.852 93.212 58.402 125.525 103.135h116.825c-43.499-78.283-108.125-137.928-192.637-177.69-77.055-34.793-161.567-52.189-256.021-52.189-159.080 0-283.363 41.005-371.603 123.016s-131.739 193.844-131.739 333.014c0 129.229 42.256 237.334 128.010 324.315 91.97 94.437 213.765 141.655 365.39 141.655zM546.516 595c-47.302 0-88.38-23.64-123.235-70.919-34.854-47.279-52.281-99.534-52.281-158.011 0-29.86 6.224-52.256 18.672-67.186 12.448-16.175 31.12-24.884 58.505-24.884 23.651 0 47.302 8.71 69.708 26.128 24.896 19.907 42.323 46.035 52.282 77.14l24.895 89.58c9.959 36.082 14.938 58.479 14.938 65.944 0 18.662-7.469 33.593-19.917 44.79-12.448 12.441-27.385 17.418-43.567 17.418z" />
<glyph unicode="&#xe905;" glyph-name="frozen" data-tags="frozen" d="M904.533 352l-17.067 61.867-171.733-45.867-139.733 80 134.4 77.867 172.8-46.933 17.067 61.867-110.933 29.867 108.8 62.933-32 55.467-108.8-62.933 29.867 110.933-61.867 17.067-46.933-172.8-134.4-77.867v154.667l126.933 126.933-44.8 45.867-82.133-82.133v125.867h-64v-124.8l-81.067 81.067-44.8-45.867 125.867-125.867v-155.733l-134.4 77.867-45.867 172.8-61.867-16 29.867-112-108.8 62.933-32-55.467 108.8-62.933-110.933-28.8 16-61.867 172.8 45.867 134.4-77.867-137.6-80-173.867 46.933-17.067-61.867 112-29.867-104.533-60.8 32-55.467 103.467 59.733-28.8-109.867 61.867-17.067 45.867 172.8 138.667 80v-160l-126.933-126.933 45.867-44.8 81.067 82.133v-121.6h64v120.533l81.067-81.067 45.867 44.8-126.933 126.933v160l138.667-80 45.867-172.8 61.867 16-29.867 112 105.6-60.8 32 55.467-104.533 59.733z" />
<glyph unicode="&#xe906;" glyph-name="wait" data-tags="wait" d="M466.489 914.487c0 25.136 20.37 45.513 45.511 45.513 25.135 0 45.511-20.357 45.511-45.513v-182.041c0-25.136-20.37-45.513-45.511-45.513-25.135 0-45.511 20.357-45.511 45.513v182.041zM466.489 163.554c0 25.136 20.37 45.513 45.511 45.513 25.135 0 45.511-20.357 45.511-45.513v-182.041c0-25.136-20.37-45.513-45.511-45.513-25.135 0-45.511 20.357-45.511 45.513v182.041zM978.487 493.511c25.136 0 45.513-20.37 45.513-45.511 0-25.135-20.357-45.511-45.513-45.511h-182.041c-25.136 0-45.513 20.37-45.513 45.511 0 25.135 20.357 45.511 45.513 45.511h182.041zM227.554 493.511c25.136 0 45.513-20.37 45.513-45.511 0-25.135-20.357-45.511-45.513-45.511h-182.041c-25.136 0-45.513 20.37-45.513 45.511 0 25.135 20.357 45.511 45.513 45.511h182.041zM874.037 150.325c17.774-17.774 17.778-46.587 0.001-64.364-17.773-17.773-46.576-17.787-64.364 0.001l-128.722 128.722c-17.774 17.774-17.778 46.587-0.001 64.364 17.773 17.773 46.576 17.787 64.364-0.001l128.722-128.722zM343.047 681.315c17.774-17.774 17.778-46.587 0.001-64.364-17.773-17.773-46.576-17.787-64.364 0.001l-128.722 128.722c-17.774 17.774-17.778 46.587-0.001 64.364 17.773 17.773 46.576 17.787 64.364-0.001l128.722-128.722zM809.675 810.037c17.774 17.774 46.587 17.778 64.364 0.001 17.773-17.773 17.787-46.576-0.001-64.364l-128.722-128.722c-17.774-17.774-46.587-17.778-64.364-0.001-17.773 17.773-17.787 46.576 0.001 64.364l128.722 128.722zM278.685 279.047c17.774 17.774 46.587 17.778 64.364 0.001 17.773-17.773 17.787-46.576-0.001-64.364l-128.722-128.722c-17.774-17.774-46.587-17.778-64.364-0.001-17.773 17.773-17.787 46.576 0.001 64.364l128.722 128.722z" />
<glyph unicode="&#xe907;" glyph-name="audit" data-tags="audit" d="M951.818 379.241v441.056l-43.361 0.62c-1.239 0-98.495 1.858-199.466 42.743-103.45 41.504-170.35 89.821-170.972 90.443 0 0-17.964 19.203-26.636 19.203-8.053 0-26.017-19.203-26.017-19.203-0.62-0.62-67.521-48.319-170.972-90.443-100.973-40.884-198.228-42.743-199.466-42.743l-43.981-0.62v-441.056c0-221.769 286.191-455.922 439.818-455.922 154.866 0 441.056 234.157 441.056 455.922zM512 11.902c-102.211 0-351.235 195.749-351.235 367.341v356.811c43.361 4.955 113.982 16.724 187.697 46.46 74.955 30.354 132.565 63.806 163.538 83.008 30.974-19.822 87.964-52.654 163.538-83.008 73.715-29.734 144.335-41.504 187.697-46.46v-356.811c0-171.591-249.643-367.341-351.235-367.341zM752.971 553.929h-58.23v56.371h-373.535v-59.469h-58.23v113.362h211.234c-4.339 11.15-9.91 22.303-14.866 32.211l63.185 10.53c4.339-12.389 9.293-26.636 13.629-42.743h216.192v-110.266zM372.621 284.462v-29.734h-58.23v286.811h167.253v46.46h59.469v-46.46h169.114v-284.951h-58.23v27.875h-110.883v-112.122h-59.469v112.122h-109.025zM372.621 487.026v-48.939h109.025v48.939h-109.025zM372.621 338.357h109.025v47.699h-109.025v-47.699zM651.999 487.026h-110.883v-48.939h110.883v48.939zM651.999 338.357v47.699h-110.883v-47.699h110.883z" />
<glyph unicode="&#xe908;" glyph-name="discuss2" data-tags="discuss2" horiz-adv-x="1025" d="M864 117.488v-181.488l-179.368 110.437c-24.867-4.057-50.416-6.441-76.63-6.441-123.222 0-233.587 47.159-309.761 121.643 12.534-0.725 25.012-1.638 37.761-1.638 17.871 0 35.49 0.883 52.935 2.286 60.142-41.384 136.182-66.288 219.065-66.288 28.568 0 56.193 3.262 82.789 8.815l62.351-41.572c-0.068-0.023-0.127-0.051-0.195-0.074l47.053-31.162v113.394c96.256 54.252 160 147.933 160 254.602 0 67.474-25.764 129.6-68.829 180.036 2.867 19.687 4.831 39.615 4.831 59.966 0 9.308-1.014 18.397-1.624 27.572 79.694-66.312 129.624-159.744 129.624-263.576 0-116.458-62.741-219.882-160.002-286.51zM416.003 232c-26.216 0-51.763 2.378-76.634 6.433l-179.368-110.43v181.484c-97.258 66.626-160 170.058-160 286.518 0 201.028 186.25 363.996 416.003 363.996 229.749 0 415.999-162.968 415.999-363.996 0-201.038-186.25-364.004-415.999-364.004zM416.003 896c-194.405 0-352.001-136.108-352.001-303.993 0-106.674 63.744-200.354 159.998-254.608v-113.396l47.055 31.167c-0.066 0.018-0.125 0.053-0.193 0.074l62.349 41.566c26.597-5.544 54.223-8.804 82.793-8.804 194.405 0 351.999 136.096 351.999 304.002-0.002 167.885-157.598 303.993-352.001 303.993zM624 544.003c-26.509 0-48.001 21.486-48.001 48.003 0 26.503 21.492 47.997 48.001 47.997 26.511 0 48.001-21.492 48.001-47.997 0-26.518-21.49-48.003-48.001-48.003zM432 544.003c-26.509 0-48.001 21.486-48.001 48.003 0 26.503 21.492 47.997 48.001 47.997s48.001-21.492 48.001-47.997c0-26.518-21.49-48.003-48.001-48.003zM240.002 544.003c-26.509 0-48.001 21.486-48.001 48.003 0 26.503 21.49 47.997 48.001 47.997 26.509 0 48.001-21.492 48.001-47.997 0-26.518-21.492-48.003-48.001-48.003z" />
<glyph unicode="&#xe909;" glyph-name="pick" data-tags="pick" d="M972.8 960h-921.6c-28.277 0-51.2-22.923-51.2-51.2v0-716.8c0-28.277 22.923-51.2 51.2-51.2v0h307.2c28.277 0 51.2 22.923 51.2 51.2s-22.923 51.2-51.2 51.2h-256v614.4h819.2v-358.4c0-28.277 22.923-51.2 51.2-51.2s51.2 22.923 51.2 51.2v0 409.6c0 28.277-22.923 51.2-51.2 51.2v0zM532.992 584.704c-4.263 3.291-9.682 5.275-15.564 5.275-14.138 0-25.6-11.462-25.6-25.6 0-1.138 0.074-2.258 0.218-3.356l-0.014 0.129 81.92-603.136c1.419-9.998 8.442-18.049 17.739-20.943l0.181-0.049h7.68c7.544 0.088 14.291 3.426 18.92 8.676l0.024 0.028 120.32 134.144 67.072-115.712c8.739-16.453 25.767-27.468 45.368-27.468 28.277 0 51.2 22.923 51.2 51.2 0 10.194-2.979 19.691-8.114 27.67l0.122-0.203-67.072 116.224 176.128 37.376c11.514 2.664 19.965 12.831 19.965 24.972 0 8.118-3.779 15.354-9.673 20.044l-0.052 0.040z" />
<glyph unicode="&#xe90a;" glyph-name="cloud" data-tags="cloud" d="M788.48 125.44h-552.96c-129.769 0.403-234.811 105.694-234.811 235.519 0 112.778 79.268 207.042 185.128 230.117l1.556 0.284c23.599 159.825 159.813 281.097 324.352 281.097s300.752-121.272 324.135-279.31l0.217-1.788c107.416-23.359 186.683-117.623 186.683-230.401 0-129.825-105.042-235.116-234.773-235.519h-0.039zM235.52 494.080c-73.52 0-133.12-59.6-133.12-133.12s59.6-133.12 133.12-133.12v0h552.96c73.52 0 133.12 59.6 133.12 133.12s-59.6 133.12-133.12 133.12v0h-51.2v51.2c0 124.419-100.861 225.28-225.28 225.28s-225.28-100.861-225.28-225.28v0-51.2z" />
<glyph unicode="&#xe90b;" glyph-name="attche" data-tags="attche" horiz-adv-x="1025" d="M951.31 758.784c-46.139 45.251-109.408 73.179-179.2 73.179s-133.061-27.929-179.241-73.22l0.041 0.040-344.064-340.48c-27.708-27.237-44.878-65.117-44.878-107.008s17.17-79.771 44.856-106.987l0.021-0.021c27.737-27.452 65.904-44.412 108.032-44.412s80.295 16.96 108.045 44.425l329.203 325.619c9.050 9.228 14.636 21.882 14.636 35.84s-5.586 26.612-14.644 35.848l0.008-0.008c-9.255 9.201-22.011 14.889-36.096 14.889s-26.842-5.687-36.098-14.891l0.002 0.002-329.216-325.632c-9.2-8.901-21.751-14.387-35.584-14.387s-26.384 5.486-35.598 14.4l0.014-0.014c-8.754 9.17-14.141 21.62-14.141 35.328s5.387 26.158 14.16 35.348l-0.019-0.020 345.6 340.48c27.627 26.852 65.384 43.408 107.008 43.408s79.381-16.557 107.044-43.443l-0.036 0.035c27.312-26.941 44.231-64.359 44.231-105.728s-16.919-78.787-44.214-105.712l-0.017-0.016-343.552-339.456c-46.139-45.251-109.408-73.179-179.2-73.179s-133.061 27.929-179.241 73.22l0.041-0.040c-45.723 45.063-74.048 107.672-74.048 176.896s28.326 131.832 74.018 176.867l0.030 0.029 247.808 246.272c9.050 9.228 14.636 21.882 14.636 35.84s-5.586 26.612-14.644 35.848l0.008-0.008c-9.17 8.751-21.618 14.137-35.324 14.137-14.472 0-27.542-6.004-36.853-15.658l-0.015-0.015-250.88-245.248c-64.19-63.352-103.951-151.321-103.951-248.576s39.76-185.225 103.913-248.539l0.037-0.037c64.621-63.501 153.301-102.702 251.136-102.702s186.515 39.201 251.188 102.753l-0.052-0.051 343.552 339.456c46.394 45.322 75.164 108.512 75.164 178.42 0 69.151-28.15 131.727-73.615 176.895l-0.013 0.013z" />
<glyph unicode="&#xe90c;" glyph-name="tag2" data-tags="tag2" d="M994.038 838.926c-5.201 48.082-43.029 85.911-90.658 91.072l-0.454 0.040-320.426 29.688c-2.24 0.174-4.851 0.274-7.484 0.274-28.258 0-53.843-11.449-72.367-29.962l-473.473-472.961c-17.797-18.394-28.766-43.491-28.766-71.149s10.968-52.755 28.793-71.177l-0.027 0.028 349.602-349.090c18.394-17.797 43.491-28.766 71.149-28.766s52.755 10.968 71.177 28.793l-0.028-0.027 472.961 472.961c18.513 18.524 29.962 44.108 29.962 72.366 0 2.634-0.099 5.245-0.295 7.828l0.021-0.344zM450.439 38.373l-348.067 346.531 470.914 472.449 318.891-27.641 29.176-318.891zM657.125 593.785c18.526-18.526 44.119-29.984 72.388-29.984 56.539 0 102.373 45.834 102.373 102.373 0 28.269-11.458 53.863-29.984 72.388v0c-18.526 18.526-44.119 29.984-72.388 29.984-56.539 0-102.373-45.834-102.373-102.373 0-28.269 11.458-53.863 29.984-72.388v0z" />
<glyph unicode="&#xe90d;" glyph-name="ratio" data-tags="ratio" d="M512 960c-282.77 0-512-229.23-512-512s229.23-512 512-512c282.77 0 512 229.23 512 512v0c0 282.77-229.23 512-512 512v0zM512 38.4c-226.216 0-409.6 183.384-409.6 409.6s183.384 409.6 409.6 409.6c226.216 0 409.6-183.384 409.6-409.6v0c0-226.216-183.384-409.6-409.6-409.6v0zM653.824 493.056c-55.296 0-96.256-44.544-96.256-120.832s40.96-121.856 96.256-121.856 96.256 45.568 96.256 121.856-40.96 120.832-96.256 120.832zM653.824 301.056c-17.92 0-33.28 17.92-33.28 71.168s15.36 70.144 33.28 70.144 33.28-16.384 33.28-70.144-15.36-71.168-33.28-71.168zM588.8 645.632l-205.312-395.264h52.224l205.312 395.264h-52.224zM466.944 525.312c0 76.288-40.96 120.32-96.768 120.32s-96.256-44.032-96.256-120.32 40.448-121.856 96.256-121.856 96.768 44.544 96.768 121.856zM370.176 453.632c-17.92 0-33.28 18.432-33.28 71.68s15.36 70.144 33.28 70.144 33.28-16.896 33.28-70.144-15.36-71.68-33.28-71.68z" />
<glyph unicode="&#xe90e;" glyph-name="chart" data-tags="chart" d="M614.4 550.4h399.36c-42.119 201.324-198.036 357.241-396.027 398.775l-3.333 0.585zM512 448v512c-282.77 0-512-229.23-512-512s229.23-512 512-512c282.77 0 512 229.23 512 512v0z" />
<glyph unicode="&#xe90f;" glyph-name="tag3" data-tags="tag3" d="M793.253 960h-562.506c-42.363 0-76.705-34.342-76.705-76.705v0-920.465c-0.001-0.092-0.002-0.2-0.002-0.308 0-9.825 5.541-18.355 13.669-22.637l0.14-0.067c3.773-2.396 8.368-3.818 13.296-3.818s9.523 1.422 13.398 3.879l-0.102-0.061 317.56 234.207 317.56-231.65c4.073-3.124 9.221-5.034 14.812-5.113h0.018c14.121 0 25.568 11.447 25.568 25.568v0 920.465c0 42.363-34.342 76.705-76.705 76.705v0z" />
<glyph unicode="&#xe910;" glyph-name="discuss" data-tags="discuss" d="M921.564 960h-819.168c-56.552 0-102.396-45.844-102.396-102.396v0-665.574c0-56.552 45.844-102.396 102.396-102.396v0h234.999l138.747-138.747c9.254-9.201 22.010-14.888 36.095-14.888s26.84 5.687 36.097 14.89l-0.002-0.002 138.235 138.747h234.999c56.552 0 102.396 45.844 102.396 102.396v0 665.574c0 56.552-45.844 102.396-102.396 102.396v0zM921.564 192.030h-255.99c-0.088 0.001-0.192 0.001-0.296 0.001-14.065 0-26.805-5.671-36.058-14.852l0.003 0.003-117.243-117.755-117.243 117.755c-9.25 9.177-21.99 14.848-36.055 14.848-0.104 0-0.208 0-0.312-0.001h-255.974v665.574h819.168zM255.99 601.614h511.98c28.276 0 51.198 22.922 51.198 51.198s-22.922 51.198-51.198 51.198h-511.98c-28.276 0-51.198-22.922-51.198-51.198s22.922-51.198 51.198-51.198v0zM255.99 396.822h307.188c28.273 0.004 51.191 22.925 51.191 51.198s-22.918 51.194-51.19 51.198h-307.188c-28.273-0.004-51.191-22.925-51.191-51.198s22.918-51.194 51.19-51.198v0z" />
<glyph unicode="&#xe911;" glyph-name="refresh" data-tags="refresh" d="M568.832 902.144c-203.896-1.606-376.122-135.39-435.319-319.81l-0.905-3.262h-117.248c-8.483 0-15.36-6.877-15.36-15.36 0-3.475 1.154-6.681 3.1-9.255l-0.028 0.039 166.912-222.72c2.832-3.747 7.28-6.144 12.288-6.144s9.456 2.397 12.26 6.105l0.028 0.039 167.424 222.72c1.918 2.535 3.072 5.741 3.072 9.216 0 8.483-6.877 15.36-15.36 15.36v0h-109.056c54.095 130.383 180.377 220.414 327.688 220.414 194.583 0 352.477-157.086 353.784-351.362l0.001-0.124c-2.567-193.71-160.198-349.754-354.275-349.754-78.562 0-151.152 25.57-209.902 68.841l0.977-0.687c-8.45 6.393-19.136 10.24-30.72 10.24-28.277 0-51.2-22.923-51.2-51.2 0-16.693 7.989-31.52 20.351-40.867l0.129-0.093c74.83-56.268 169.311-90.11 271.696-90.11 251.1 0 454.656 203.556 454.656 454.656 0 250.677-202.873 453.971-453.39 454.654h-0.066z" />
<glyph unicode="&#xe912;" glyph-name="notice" data-tags="notice" d="M665.6 906.24c-14.148 7.853-31.026 12.476-48.984 12.476-19.758 0-38.209-5.596-53.854-15.289l0.438 0.253-322.048-199.68h-189.952c-28.277 0-51.2-22.923-51.2-51.2v0-409.6c0-28.277 22.923-51.2 51.2-51.2v0h189.952l318.976-199.168c15.403-9.767 34.161-15.565 54.272-15.565 56.446 0 102.225 45.671 102.4 102.077v737.297c0.003 0.272 0.004 0.594 0.004 0.917 0 37.704-20.378 70.649-50.721 88.422l-0.483 0.262zM614.4 79.36l-331.264 204.8c-7.506 5.731-16.822 9.457-26.963 10.229l-0.173 0.011h-153.6v307.2h153.6c0.049 0 0.107 0 0.164 0 9.988 0 19.307 2.86 27.185 7.805l-0.213-0.125 331.264 207.36v-737.28zM856.576 749.056c-7.704 4.874-17.082 7.767-27.136 7.767-28.325 0-51.287-22.962-51.287-51.287 0-18.271 9.554-34.311 23.94-43.395l0.211-0.125c72.095-45.157 119.332-124.16 119.332-214.197 0-88.118-45.245-165.669-113.771-210.687l-0.953-0.588c-14.149-9.281-23.363-25.068-23.363-43.008 0-28.314 22.953-51.267 51.267-51.267 10.374 0 20.029 3.081 28.098 8.379l-0.194-0.12c97.617 64.277 161.16 173.372 161.16 297.308 0 126.497-66.196 237.533-165.838 300.357l-1.466 0.863z" />
<glyph unicode="&#xe913;" glyph-name="set" data-tags="set" horiz-adv-x="1026" d="M565.709 864.179c-59.588 59.213-141.708 95.812-232.376 95.812-55.788 0-108.339-13.856-154.401-38.314l1.785 0.865 153.587-153.587c17.56-17.936 28.396-42.516 28.396-69.626 0-54.985-44.574-99.558-99.558-99.558-27.874 0-53.073 11.455-71.145 29.915l-153.604 153.604c-24.177-44.726-38.387-97.903-38.387-154.398 0-182.089 147.612-329.701 329.701-329.701 43.877 0 85.753 8.571 124.043 24.13l-2.207-0.793 347.619-347.619c23.567-21.838 55.226-35.235 90.014-35.235 73.231 0 132.597 59.366 132.597 132.597 0 34.788-13.397 66.448-35.313 90.1l0.079-0.086-346.083 347.107c14.355 35.682 22.682 77.053 22.682 120.369 0 91.606-37.244 174.513-97.416 234.405l-0.012 0.012z" />
<glyph unicode="&#xe914;" glyph-name="help" data-tags="help" d="M512 960c-282.77 0-512-229.23-512-512s229.23-512 512-512c282.77 0 512 229.23 512 512v0c0 282.77-229.23 512-512 512v0zM512 38.4c-226.216 0-409.6 183.384-409.6 409.6s183.384 409.6 409.6 409.6c226.216 0 409.6-183.384 409.6-409.6v0c0-226.216-183.384-409.6-409.6-409.6v0zM626.176 694.784c-32.764 18.372-71.905 29.193-113.573 29.193-67.863 0-129.022-28.702-172-74.629l-0.122-0.132c-8.796-9.179-14.211-21.657-14.211-35.401 0-28.277 22.923-51.2 51.2-51.2 12.212 0 23.426 4.276 32.226 11.412l-0.095-0.075c25.133 29.36 62.234 47.849 103.652 47.849 21.12 0 41.117-4.807 58.956-13.387l-0.817 0.354c16.366-9.552 27.188-27.027 27.188-47.031 0-7.024-1.334-13.736-3.763-19.897l0.128 0.368c-7.47-19.98-22.485-35.662-41.488-43.842l-0.496-0.19c-38.473-19.291-68.288-51.094-84.561-89.974l-0.431-1.162c-2.297-5.61-3.63-12.122-3.63-18.944 0-28.302 22.944-51.246 51.246-51.246 21.48 0 39.873 13.215 47.493 31.959l0.123 0.343c7.105 16.693 19.67 29.921 35.409 37.695l0.431 0.193c43.526 20.415 76.786 56.672 92.795 101.161l0.389 1.239c5.57 15.414 8.791 33.202 8.791 51.742 0 56.254-29.648 105.584-74.171 133.216l-0.668 0.386zM446.976 222.208c0-33.367 27.049-60.416 60.416-60.416s60.416 27.049 60.416 60.416v0c0 33.367-27.049 60.416-60.416 60.416s-60.416-27.049-60.416-60.416v0z" />
<glyph unicode="&#xe915;" glyph-name="warn" data-tags="warn" d="M512 960c-282.77 0-512-229.23-512-512s229.23-512 512-512c282.77 0 512 229.23 512 512v0c0 282.77-229.23 512-512 512v0zM512 38.4c-226.216 0-409.6 183.384-409.6 409.6s183.384 409.6 409.6 409.6c226.216 0 409.6-183.384 409.6-409.6v0c0-226.216-183.384-409.6-409.6-409.6v0zM446.976 222.208c0-33.367 27.049-60.416 60.416-60.416s60.416 27.049 60.416 60.416v0c0 33.367-27.049 60.416-60.416 60.416s-60.416-27.049-60.416-60.416v0zM505.856 330.24c28.277 0 51.2 22.923 51.2 51.2v0 307.2c0 28.277-22.923 51.2-51.2 51.2s-51.2-22.923-51.2-51.2v0-307.2c0-28.277 22.923-51.2 51.2-51.2v0z" />
<glyph unicode="&#xe916;" glyph-name="question" data-tags="question" d="M512 960c-282.77 0-512-229.23-512-512s229.23-512 512-512c282.77 0 512 229.23 512 512v0c0 282.77-229.23 512-512 512v0zM520.192 122.88c-6.27-2.255-13.505-3.559-21.044-3.559-35.346 0-64 28.654-64 64s28.654 64 64 64c27.836 0 51.521-17.771 60.33-42.586l0.139-0.448c2.238-6.248 3.532-13.456 3.532-20.967 0-27.807-17.734-51.472-42.509-60.302l-0.447-0.139zM563.2 414.208c-12.75-5.417-22.328-16.17-26.036-29.379l-0.076-0.317-20.992-74.752c-3.033-11.235-13.099-19.379-25.079-19.456h-0.009c-12.964 0.78-23.284 11.1-24.061 23.993l-0.003 0.071-6.144 58.368c-0.507 4.373-0.797 9.439-0.797 14.573 0 52.876 30.71 98.58 75.268 120.247l0.793 0.348c39.537 12.954 67.59 49.52 67.59 92.638 0 0.372-0.002 0.743-0.006 1.114v-0.056c-1.773 22.849-12.914 42.791-29.543 56.201l-0.153 0.119c-21.163 17.376-48.522 27.909-78.34 27.909-4.869 0-9.673-0.281-14.395-0.827l0.575 0.054c-28.062-2.919-52.945-14.652-72.288-32.343l0.096 0.087c-8.072-8.128-19.253-13.159-31.609-13.159-8.569 0-16.573 2.42-23.366 6.613l0.192-0.11h-2.56c-11.035 6.995-18.595 18.619-19.953 32.075l-0.015 0.181c-0.168 1.454-0.264 3.139-0.264 4.846 0 12.562 5.2 23.909 13.564 32.007l0.012 0.012c39.191 37.195 92.288 60.070 150.727 60.070 47.975 0 92.349-15.417 128.438-41.566l-0.637 0.44c39.811-28.877 66.83-73.296 72.128-124.172l0.064-0.756c0.016-0.957 0.025-2.085 0.025-3.216 0-87.37-54.71-161.962-131.741-191.385l-1.404-0.471z" />
<glyph unicode="&#xe917;" glyph-name="infomation2" data-tags="infomation2" d="M512 960c-282.77 0-512-229.23-512-512s229.23-512 512-512c282.77 0 512 229.23 512 512v0c0 282.77-229.23 512-512 512v0zM553.472 140.8h-82.944c-0.116-0.001-0.252-0.002-0.389-0.002-23.47 0-42.496 19.026-42.496 42.496 0 3.083 0.328 6.089 0.952 8.985l-0.050-0.279 51.2 277.504c3.443 15.593 17.147 27.086 33.536 27.086s30.093-11.493 33.494-26.858l0.042-0.228 51.2-277.504c0.587-2.648 0.923-5.689 0.923-8.808 0-23.47-19.026-42.496-42.496-42.496-1.045 0-2.082 0.038-3.108 0.112l0.138-0.008zM512 583.168c-47.223 0-85.504 38.281-85.504 85.504s38.281 85.504 85.504 85.504c47.223 0 85.504-38.281 85.504-85.504v0c0-47.223-38.281-85.504-85.504-85.504v0z" />
<glyph unicode="&#xe918;" glyph-name="dollar" data-tags="dollar" d="M626.627 751.185c13.991-7.209 25.975-16.089 36.315-26.592l0.018-0.018c7.966-10.942 15.306-23.368 21.423-36.48l0.581-1.388c5.568-14.799 9.876-32.089 12.161-50.010l0.121-1.163c1.369-12.649 7.622-23.621 16.805-31.15l0.082-0.065c7.42-6.072 17.003-9.752 27.446-9.752 2.415 0 4.784 0.197 7.092 0.575l-0.252-0.034c12.52 1.27 23.363 7.558 30.631 16.792l0.072 0.095c6.197 8.016 9.934 18.209 9.934 29.275 0 1.584-0.077 3.151-0.226 4.696l0.015-0.196c-2.539 26.411-8.701 50.694-18.019 73.345l0.62-1.703c-9.171 24.509-21.452 45.683-36.66 64.381l0.327-0.415c-19.901 22.099-44.551 39.519-72.378 50.707l-1.311 0.466c-6.418 2.866-14.244 5.66-22.302 7.895l-1.237 0.293 8.699 67.548c0.35 2.098 0.55 4.515 0.55 6.979 0 10.565-3.68 20.271-9.828 27.905l0.067-0.086c-7.48 9.562-18.821 15.807-31.637 16.372l-0.090 0.003c-2.091 0.344-4.502 0.541-6.958 0.541-10.325 0-19.838-3.475-27.434-9.318l0.106 0.078c-9.285-7.377-15.556-18.201-16.87-30.506l-0.017-0.197-8.188-67.036c-64.289-3.697-121.733-30.315-164.865-71.726l0.088 0.084c-40.272-40.969-65.134-97.198-65.134-159.234 0-2.849 0.052-5.686 0.156-8.509l-0.012 0.408v-7.164c-0.21-1-0.331-2.149-0.331-3.326s0.12-2.326 0.35-3.436l-0.019 0.109c4.282-46.71 25.861-87.694 58.189-117.053l0.148-0.133c32.432-29.982 71.631-53.156 115.011-66.951l2.174-0.597-36.844-299.361c-14.819 3.252-27.809 7.655-40.113 13.295l1.222-0.502c-25.723 12.735-46.927 31.151-62.589 53.705l-0.353 0.538c-15.22 23.849-24.762 52.646-26.086 83.572l-0.012 0.352c-0.703 12.73-6.254 24.042-14.821 32.221l-0.019 0.018c-8.043 7.029-18.639 11.316-30.236 11.316-14.122 0-26.76-6.356-35.208-16.364l-0.056-0.069c-7.326-8.79-11.773-20.203-11.773-32.655 0-0.214 0.001-0.427 0.004-0.64v0.032c1.951-48.155 16.358-92.572 40.059-130.596l-0.656 1.129c25.734-37.779 60.3-67.751 100.819-87.351l1.526-0.666c19.282-9.801 41.663-17.137 65.255-20.818l1.27-0.163-5.117-35.309c-0.35-2.098-0.55-4.515-0.55-6.979 0-10.565 3.68-20.271 9.828-27.905l-0.067 0.086c7.33-9.492 18.485-15.724 31.114-16.371l0.101-0.004h7.164c0.105-0.001 0.229-0.001 0.353-0.001 10.138 0 19.466 3.468 26.862 9.283l-0.094-0.071c9.285 7.377 15.556 18.201 16.87 30.506l0.017 0.197 6.141 48.103c45.98 7.169 87.090 23.564 122.934 47.278l-1.143-0.711c38.139 24.458 68.93 57.215 90.393 95.866l0.694 1.363c16.799 29.88 26.694 65.589 26.694 103.608 0 7.666-0.402 15.238-1.187 22.696l0.079-0.93c-5.611 57.236-35.349 106.571-78.769 138.296l-0.549 0.382c-29.466 20.193-63.293 37.491-99.277 50.226l-3.069 0.947 33.262 269.169zM534.516 754.768l-30.704-246.653c-24.794 9.885-45.928 24.119-63.428 41.935l-0.026 0.027c-16.21 14.507-27.357 34.377-30.642 56.8l-0.062 0.513v7.676c-0.104 2.012-0.163 4.368-0.163 6.738 0 37.056 14.48 70.73 38.091 95.671l-0.060-0.064c23.395 20.561 53.36 34.163 86.375 37.309l0.619 0.048zM683.429 279.372c0.184-2.383 0.289-5.161 0.289-7.963 0-22.568-6.795-43.55-18.451-61.009l0.252 0.401c-13.537-25.963-33.419-46.994-57.641-61.532l-0.696-0.387c-17.112-12.345-37.044-22.153-58.514-28.323l-1.358-0.334 32.751 267.122c22.854-8.171 42.631-18.366 60.775-30.775l-0.903 0.583c24.18-17.418 40.525-44.412 43.465-75.314l0.032-0.422z" />
<glyph unicode="&#xe919;" glyph-name="negative" data-tags="negative" d="M512 960c-282.77 0-512-229.23-512-512s229.23-512 512-512c282.77 0 512 229.23 512 512v0c0 282.77-229.23 512-512 512v0zM512 38.4c-226.216 0-409.6 183.384-409.6 409.6s183.384 409.6 409.6 409.6c226.216 0 409.6-183.384 409.6-409.6v0c0-226.216-183.384-409.6-409.6-409.6v0zM358.4 432.64c28.277 0 51.2 22.923 51.2 51.2v0 51.2c0 28.277-22.923 51.2-51.2 51.2s-51.2-22.923-51.2-51.2v0-51.2c0-28.277 22.923-51.2 51.2-51.2v0zM665.6 586.24c-28.277 0-51.2-22.923-51.2-51.2v0-51.2c0-28.277 22.923-51.2 51.2-51.2s51.2 22.923 51.2 51.2v0 51.2c0 28.277-22.923 51.2-51.2 51.2v0zM665.6 345.6h-307.2c-28.277 0-51.2-22.923-51.2-51.2s22.923-51.2 51.2-51.2h307.2c28.277 0 51.2 22.923 51.2 51.2s-22.923 51.2-51.2 51.2v0z" />
<glyph unicode="&#xe91a;" glyph-name="smiling-face" data-tags="smiling-face" d="M512 960c-282.77 0-512-229.23-512-512s229.23-512 512-512c282.77 0 512 229.23 512 512v0c0 282.77-229.23 512-512 512v0zM512 38.4c-226.216 0-409.6 183.384-409.6 409.6s183.384 409.6 409.6 409.6c226.216 0 409.6-183.384 409.6-409.6v0c0-226.216-183.384-409.6-409.6-409.6v0zM626.688 345.6c-27.060-33.687-68.249-55.067-114.432-55.067s-87.372 21.38-114.21 54.781l-0.222 0.285c-9.459 11.167-23.491 18.208-39.168 18.208-28.295 0-51.232-22.937-51.232-51.232 0-12.618 4.562-24.171 12.126-33.099l-0.062 0.075c45.41-57.062 114.855-93.318 192.768-93.318s147.358 36.256 192.383 92.818l0.385 0.5c7.502 8.853 12.064 20.406 12.064 33.024 0 28.295-22.937 51.232-51.232 51.232-15.677 0-29.709-7.041-39.106-18.133l-0.062-0.075zM358.4 432.64c28.277 0 51.2 22.923 51.2 51.2v0 51.2c0 28.277-22.923 51.2-51.2 51.2s-51.2-22.923-51.2-51.2v0-51.2c0-28.277 22.923-51.2 51.2-51.2v0zM665.6 586.24c-28.277 0-51.2-22.923-51.2-51.2v0-51.2c0-28.277 22.923-51.2 51.2-51.2s51.2 22.923 51.2 51.2v0 51.2c0 28.277-22.923 51.2-51.2 51.2v0z" />
<glyph unicode="&#xe91b;" glyph-name="like1" data-tags="like1" d="M997.867 618.481c-18.798 21.044-45.995 34.246-76.276 34.303h-318.467l11.264 45.055c4.007 15.37 6.308 33.016 6.308 51.199 0 116.499-94.441 210.939-210.939 210.939-0.058 0-0.115 0-0.173 0h0.009c-0.444 0.014-0.967 0.022-1.491 0.022-23.921 0-44.011-16.405-49.632-38.579l-0.076-0.354-65.535-268.282h-241.659c-28.276 0-51.199-22.923-51.199-51.199v0-614.387c0-28.276 22.923-51.199 51.199-51.199v0h692.721c0.047 0 0.104 0 0.16 0 35.801 0 67.311 18.373 85.615 46.205l0.239 0.386c50.931 81.384 94.558 175.156 126.091 274.319l2.419 8.811c28.893 78.804 51.834 171.287 64.764 266.948l0.77 6.966c0.312 2.998 0.489 6.477 0.489 9.998 0 26.548-10.103 50.737-26.674 68.93l0.074-0.082zM102.398 550.387h102.398v-511.989h-102.398zM861.677 297.976c-30.991-98.971-70.977-184.954-120.533-264.348l2.775 4.77h-436.727v511.989h25.599c0.444-0.014 0.967-0.022 1.491-0.022 23.921 0 44.011 16.405 49.632 38.579l0.076 0.354 63.999 261.626c41.414-16.094 70.236-55.637 70.236-101.911 0-9.261-1.154-18.253-3.327-26.839l0.162 0.753-27.135-109.054c-0.951-3.689-1.496-7.925-1.496-12.288 0-28.262 22.9-51.176 51.157-51.199h383.994c-12.469-94.538-33.446-179.781-62.629-261.115l2.726 8.704z" />
<glyph unicode="&#xe91c;" glyph-name="like2" data-tags="like2" d="M997.867 618.481c-18.798 21.044-45.995 34.246-76.276 34.303h-318.467l11.264 45.055c4.007 15.37 6.308 33.016 6.308 51.199 0 116.499-94.441 210.939-210.939 210.939-0.058 0-0.115 0-0.173 0h0.009c-0.444 0.014-0.967 0.022-1.491 0.022-23.921 0-44.011-16.405-49.632-38.579l-0.076-0.354-65.535-268.282h-241.659c-28.276 0-51.199-22.923-51.199-51.199v0-614.387c0-28.276 22.923-51.199 51.199-51.199v0h692.721c0.047 0 0.104 0 0.16 0 35.801 0 67.311 18.373 85.615 46.205l0.239 0.386c50.931 81.384 94.558 175.156 126.091 274.319l2.419 8.811c28.893 78.804 51.834 171.287 64.764 266.948l0.77 6.966c0.312 2.998 0.489 6.477 0.489 9.998 0 26.548-10.103 50.737-26.674 68.93l0.074-0.082zM307.193 89.597h-102.398v409.591h102.398z" />
<glyph unicode="&#xe91d;" glyph-name="like4" data-tags="like4" d="M512.22-4.903c-2.297-0.367-4.945-0.576-7.642-0.576s-5.345 0.21-7.929 0.613l0.287-0.037s-27.001 8.661-40.247 14.265c-92.211 41.266-397.373 189.516-446.281 463.602-6.607 26.043-10.399 55.94-10.399 86.723 0 106.635 45.503 202.643 118.151 269.665l0.252 0.229c51.486 44.461 119.061 71.543 192.961 71.543 35.475 0 69.493-6.241 101.015-17.685l-2.059 0.653c39.535-14.875 73.43-36.321 102.038-63.31l-0.148 0.138c28.455 26.863 62.352 48.311 99.823 62.486l2.068 0.686c28.901 10.335 62.242 16.308 96.978 16.308 73.845 0 141.385-26.996 193.29-71.657l-0.39 0.328c72.9-67.251 118.403-163.259 118.403-269.894 0-30.783-3.792-60.68-10.934-89.25l0.535 2.527c-50.945-273.576-354.070-422.336-446.281-461.564-12.736-5.604-40.247-14.265-40.247-14.265-3.726-0.975-8.004-1.535-12.412-1.535-0.293 0-0.586 0.002-0.878 0.007l0.044-0.001z" />
<glyph unicode="&#xe91e;" glyph-name="like3" data-tags="like3" d="M512.22-7.451c-2.297-0.367-4.945-0.576-7.642-0.576s-5.345 0.21-7.929 0.613l0.287-0.037s-27.001 8.661-39.737 13.755c-92.72 41.775-398.392 190.535-446.79 464.111-6.607 26.043-10.399 55.94-10.399 86.723 0 106.635 45.503 202.643 118.151 269.665l0.252 0.229c51.595 44.381 119.23 71.405 193.177 71.405 35.39 0 69.334-6.19 100.809-17.545l-2.070 0.652c39.535-14.875 73.43-36.321 102.038-63.31l-0.148 0.138c28.461 26.851 62.356 48.297 99.82 62.484l2.071 0.688c28.901 10.335 62.242 16.308 96.978 16.308 73.845 0 141.385-26.996 193.29-71.657l-0.39 0.328c72.9-67.251 118.403-163.259 118.403-269.894 0-30.783-3.792-60.68-10.934-89.25l0.535 2.527c-50.945-273.576-354.070-422.336-446.281-461.564-12.736-5.604-40.247-14.265-40.247-14.265-3.726-0.975-8.004-1.535-12.412-1.535-0.293 0-0.586 0.002-0.878 0.007l0.044-0.001zM312.515 796.466c-49.105-0.195-93.995-18.082-128.663-47.613l0.281 0.234c-50.606-48.894-82.027-117.366-82.027-193.177 0-24.049 3.162-47.36 9.093-69.54l-0.427 1.876c39.737-223.14 305.672-351.522 385.656-385.656l15.793-5.604 15.793 5.604c80.494 34.133 346.428 162.515 385.656 385.656 5.437 20.182 8.56 43.354 8.56 67.256 0 75.759-31.378 144.189-81.847 193.003l-0.074 0.072c-33.86 29.492-78.421 47.472-127.181 47.472-22.312 0-43.745-3.765-63.698-10.693l1.363 0.412c-40.204-14.799-73.515-40.391-97.401-73.272l-0.414-0.598c-9.393-12.429-24.146-20.378-40.756-20.378v0c-16.691 0.128-31.455 8.262-40.658 20.747l-0.099 0.14c-24.359 33.279-57.661 58.697-96.376 72.899l-1.439 0.462c-18.188 6.74-39.198 10.658-61.117 10.698h-0.018z" />
<glyph unicode="&#xe91f;" glyph-name="review-ok" data-tags="review-ok" d="M912.568 473.791v432.963c0 28-22.698 50.698-50.698 50.698v0h-811.172c-28 0-50.698-22.698-50.698-50.698v0-811.172c0-28 22.698-50.698 50.698-50.698v0h432.963c56.122-65.256 138.787-106.327 231.045-106.327 167.999 0 304.189 136.19 304.189 304.189 0 92.258-41.071 174.923-105.927 230.708l-0.401 0.337zM253.491 551.867c-28 0-50.698-22.698-50.698-50.698s22.698-50.698 50.698-50.698h230.17c-48.184-53.597-77.652-124.861-77.652-203.007 0-36.266 6.347-71.050 17.989-103.302l-0.668 2.12h-321.934v709.775h709.775v-321.934c-28.102 10.406-60.562 16.834-94.4 17.736l-0.405 0.009h-462.875zM709.775 44.884c-111.999 0-202.793 90.794-202.793 202.793s90.794 202.793 202.793 202.793c111.999 0 202.793-90.794 202.793-202.793v0c0-111.999-90.794-202.793-202.793-202.793v0zM659.077 754.66h-405.586c-27.997-0.004-50.691-22.701-50.691-50.698s22.694-50.694 50.691-50.698h405.586c27.997 0.004 50.691 22.701 50.691 50.698s-22.694 50.694-50.691 50.698v0zM775.176 340.455l-71.485-71.485-35.996 35.996c-8.807 7.577-20.353 12.191-32.977 12.191-28 0-50.698-22.698-50.698-50.698 0-12.624 4.614-24.17 12.247-33.044l-0.056 0.067 71.485-71.485c9.164-9.111 21.795-14.743 35.742-14.743s26.578 5.632 35.745 14.745l107.478 107.478c7.577 8.807 12.191 20.353 12.191 32.977 0 28-22.698 50.698-50.698 50.698-12.624 0-24.17-4.614-33.044-12.247l0.067 0.056z" />
<glyph unicode="&#xe920;" glyph-name="review-ng" data-tags="review-ng" d="M659.077 754.66h-405.586c-27.997-0.004-50.691-22.701-50.691-50.698s22.694-50.694 50.691-50.698h405.586c27.997 0.004 50.691 22.701 50.691 50.698s-22.694 50.694-50.691 50.698v0zM912.568 473.791v432.963c0 28-22.698 50.698-50.698 50.698v0h-811.172c-28 0-50.698-22.698-50.698-50.698v0-811.172c0-28 22.698-50.698 50.698-50.698v0h432.963c56.122-65.256 138.787-106.327 231.045-106.327 167.999 0 304.189 136.19 304.189 304.189 0 92.258-41.071 174.923-105.927 230.708l-0.401 0.337zM253.491 551.867c-28 0-50.698-22.698-50.698-50.698s22.698-50.698 50.698-50.698h230.17c-48.184-53.597-77.652-124.861-77.652-203.007 0-36.266 6.347-71.050 17.989-103.302l-0.668 2.12h-321.934v709.775h709.775v-321.934c-28.102 10.406-60.562 16.834-94.4 17.736l-0.405 0.009h-462.875zM709.775 44.884c-111.999 0-202.793 90.794-202.793 202.793s90.794 202.793 202.793 202.793c111.999 0 202.793-90.794 202.793-202.793v0c0-111.999-90.794-202.793-202.793-202.793v0zM821.819 349.074c-9.164 9.111-21.795 14.743-35.742 14.743s-26.578-5.632-35.745-14.745l-35.994-35.994-35.996 35.996c-7.688 4.942-17.073 7.879-27.144 7.879-28 0-50.698-22.698-50.698-50.698 0-10.071 2.937-19.456 8-27.346l-0.121 0.202 35.996-35.996-35.996-35.996c-10.876-9.354-17.721-23.131-17.721-38.508 0-28 22.698-50.698 50.698-50.698 15.376 0 29.154 6.845 38.451 17.654l0.056 0.067 35.996 35.996 35.996-35.996c8.807-7.577 20.353-12.191 32.977-12.191 28 0 50.698 22.698 50.698 50.698 0 12.624-4.614 24.17-12.247 33.044l0.056-0.067-35.996 35.996 35.996 35.996c8.221 8.98 13.258 20.994 13.258 34.184 0 13.965-5.646 26.612-14.781 35.781l0.002-0.002z" />
<glyph unicode="&#xe921;" glyph-name="english" data-tags="english" d="M512 960c-282.77 0-512-229.23-512-512s229.23-512 512-512c282.77 0 512 229.23 512 512v0c0 282.77-229.23 512-512 512v0zM512 38.4c-226.216 0-409.6 183.384-409.6 409.6s183.384 409.6 409.6 409.6c226.216 0 409.6-183.384 409.6-409.6v0c0-226.216-183.384-409.6-409.6-409.6v0zM285.696 423.424h133.12v63.488h-133.12v87.040h156.16v63.488h-231.936v-378.88h237.568v63.488h-161.792v101.376zM742.4 637.44v-153.6c0-43.008 6.144-93.184 9.728-132.608h-2.56l-37.888 81.92-109.568 204.288h-77.312v-378.88h71.68v153.6c0 43.52-5.632 91.136-9.216 132.096l38.4-81.408 109.568-204.8h76.8v379.392z" />
<glyph unicode="&#xe922;" glyph-name="chinese" data-tags="chinese" d="M512 960c-282.77 0-512-229.23-512-512s229.23-512 512-512c282.77 0 512 229.23 512 512v0c0 282.77-229.23 512-512 512v0zM512 38.4c-226.216 0-409.6 183.384-409.6 409.6s183.384 409.6 409.6 409.6c226.216 0 409.6-183.384 409.6-409.6v0c0-226.216-183.384-409.6-409.6-409.6v0zM548.864 734.72h-77.312v-105.984h-211.968v-307.2h73.728v33.792h138.24v-194.048h77.312v191.488h138.752v-30.72h76.8v307.2h-215.552zM471.552 424.448h-138.24v132.096h138.24zM687.616 556.544v-132.096h-138.752v132.096z" />
<glyph unicode="&#xe923;" glyph-name="visible" data-tags="visible" d="M1020.933 465.92c0 3.584-137.216 366.080-508.928 366.080-362.496 0-502.784-350.208-508.416-365.056-2.299-5.61-3.634-12.121-3.634-18.944s1.335-13.334 3.757-19.286l-0.123 0.342c5.632-14.848 145.92-365.056 508.416-365.056 371.712 0 507.392 362.496 508.928 366.080 2.051 5.324 3.238 11.483 3.238 17.92s-1.188 12.596-3.356 18.271l0.118-0.351zM646.661 598.528c-0.29-36.256-29.749-65.536-66.046-65.536-36.477 0-66.048 29.571-66.048 66.048s29.57 66.047 66.046 66.048v0c0.001 0 0.001 0 0.002 0 36.477 0 66.048-29.571 66.048-66.048 0-0.18-0.001-0.36-0.002-0.54v0.028zM512.005 167.424c-251.904 0-373.248 214.016-404.992 280.576 47.754 100.307 123.015 181.003 216.040 234.16l2.584 1.36c-27.564-37.513-44.111-84.611-44.111-135.575 0-127.246 103.154-230.4 230.4-230.4s230.4 103.154 230.4 230.4c0 52.082-17.281 100.128-46.422 138.717l0.421-0.582c98.067-53.344 174.741-135.465 219.904-234.931l1.28-3.149c-29.184-65.024-145.92-280.576-405.504-280.576z" />
<glyph unicode="&#xe924;" glyph-name="down2" data-tags="down2" d="M242.176 378.368l218.624-221.184v703.488c0 28.277 22.923 51.2 51.2 51.2s51.2-22.923 51.2-51.2v0-703.488l218.624 220.672c9.255 9.201 22.011 14.889 36.096 14.889s26.842-5.687 36.098-14.891l-0.002 0.002c9.11-8.526 14.787-20.624 14.787-34.048s-5.677-25.522-14.761-34.024l-0.026-0.024-307.2-310.272c-9.807-9.017-22.946-14.545-37.376-14.545s-27.569 5.527-37.416 14.58l0.040-0.036-307.2 310.272c-9.11 8.526-14.787 20.624-14.787 34.048s5.677 25.522 14.761 34.024l0.026 0.024c9.446 10.977 23.355 17.885 38.878 17.885 15.284 0 29.005-6.697 38.386-17.318l0.048-0.055z" />
<glyph unicode="&#xe925;" glyph-name="up2" data-tags="up2" d="M242.176 517.632l218.624 221.184v-703.488c0-28.277 22.923-51.2 51.2-51.2s51.2 22.923 51.2 51.2v0 703.488l218.624-220.672c9.255-9.201 22.011-14.889 36.096-14.889s26.842 5.687 36.098 14.891l-0.002-0.002c9.11 8.526 14.787 20.624 14.787 34.048s-5.677 25.522-14.761 34.024l-0.026 0.024-307.2 310.272c-9.807 9.017-22.946 14.545-37.376 14.545s-27.569-5.527-37.416-14.58l0.040 0.036-307.2-310.272c-9.11-8.526-14.787-20.624-14.787-34.048s5.677-25.522 14.761-34.024l0.026-0.024c9.446-10.977 23.355-17.885 38.878-17.885 15.284 0 29.005 6.697 38.386 17.318l0.048 0.055z" />
<glyph unicode="&#xe926;" glyph-name="left" data-tags="left" d="M442.368 178.176l-221.184 218.624h703.488c28.277 0 51.2 22.923 51.2 51.2s-22.923 51.2-51.2 51.2h-703.488l221.184 218.624c9.201 9.255 14.889 22.011 14.889 36.096s-5.687 26.842-14.891 36.098l0.002-0.002c-8.526 9.11-20.624 14.787-34.048 14.787s-25.522-5.677-34.024-14.761l-0.024-0.026-310.272-307.2c-9.017-9.807-14.545-22.946-14.545-37.376s5.527-27.569 14.58-37.416l-0.036 0.040 310.272-307.2c8.526-9.11 20.624-14.787 34.048-14.787s25.522 5.677 34.024 14.761l0.024 0.026c10.825 9.438 17.627 23.253 17.627 38.656s-6.802 29.218-17.566 38.604l-0.061 0.052z" />
<glyph unicode="&#xe927;" glyph-name="right" data-tags="right" d="M581.632 178.176l221.184 218.624h-703.488c-28.277 0-51.2 22.923-51.2 51.2s22.923 51.2 51.2 51.2h703.488l-221.184 218.624c-9.201 9.255-14.889 22.011-14.889 36.096s5.687 26.842 14.891 36.098l-0.002-0.002c8.526 9.11 20.624 14.787 34.048 14.787s25.522-5.677 34.024-14.761l0.024-0.026 310.272-307.2c9.017-9.807 14.545-22.946 14.545-37.376s-5.527-27.569-14.58-37.416l0.036 0.040-310.272-307.2c-8.526-9.11-20.624-14.787-34.048-14.787s-25.522 5.677-34.024 14.761l-0.024 0.026c-10.825 9.438-17.627 23.253-17.627 38.656s6.802 29.218 17.566 38.604l0.061 0.052z" />
<glyph unicode="&#xe928;" glyph-name="star" data-tags="star" d="M796.672-41.472c-8.823 0.045-17.106 2.316-24.33 6.278l0.266-0.134-260.608 137.216-261.12-137.216c-6.884-3.674-15.056-5.833-23.733-5.833-28.277 0-51.2 22.923-51.2 51.2 0 2.964 0.252 5.869 0.735 8.696l-0.043-0.303 51.2 290.816-212.48 205.312c-9.366 9.282-15.165 22.15-15.165 36.372 0 25.679 18.905 46.943 43.556 50.633l0.281 0.035 291.84 42.496 130.048 264.704c8.485 17.233 25.922 28.882 46.080 28.882s37.595-11.649 45.946-28.582l0.134-0.3 130.56-264.192 291.84-42.496c24.938-3.72 43.848-24.986 43.848-50.669 0-14.479-6.010-27.555-15.672-36.868l-0.016-0.015-210.944-204.8 51.2-290.816c0.475-2.619 0.746-5.632 0.746-8.709 0-28.277-22.923-51.2-51.2-51.2-0.262 0-0.524 0.002-0.786 0.006h0.040z" />
<glyph unicode="&#xe929;" glyph-name="star2" data-tags="star2" d="M796.672-41.472c-8.823 0.045-17.106 2.316-24.33 6.278l0.266-0.134-260.608 137.216-261.12-137.216c-6.884-3.674-15.056-5.833-23.733-5.833-28.277 0-51.2 22.923-51.2 51.2 0 2.964 0.252 5.869 0.735 8.696l-0.043-0.303 51.2 290.816-212.48 205.312c-9.366 9.282-15.165 22.15-15.165 36.372 0 25.679 18.905 46.943 43.556 50.633l0.281 0.035 291.84 42.496 130.048 264.704c8.485 17.233 25.922 28.882 46.080 28.882s37.595-11.649 45.946-28.582l0.134-0.3 130.56-264.192 291.84-42.496c24.938-3.72 43.848-24.986 43.848-50.669 0-14.479-6.010-27.555-15.672-36.868l-0.016-0.015-210.944-204.8 51.2-290.816c0.475-2.619 0.746-5.632 0.746-8.709 0-28.277-22.923-51.2-51.2-51.2-0.262 0-0.524 0.002-0.786 0.006h0.040zM512 210.944c8.823-0.045 17.106-2.316 24.33-6.278l-0.266 0.134 193.024-102.4-36.864 215.040c-0.434 2.503-0.682 5.386-0.682 8.326 0 14.402 5.946 27.415 15.518 36.718l153.612 153.612-215.552 31.232c-16.977 2.619-31.004 13.262-38.266 27.862l-0.134 0.298-94.72 195.072-96.256-195.584c-7.396-14.898-21.423-25.541-38.113-28.123l-0.287-0.037-215.552-31.232 153.6-153.6c9.583-9.315 15.53-22.328 15.53-36.73 0-2.941-0.248-5.823-0.724-8.628l0.042 0.302-36.864-215.040 193.024 102.4c7.259 4.187 15.964 6.657 25.246 6.657 0.124 0 0.249 0 0.373-0.001h-0.019z" />
<glyph unicode="&#xe92a;" glyph-name="delect-circle2" data-tags="delect-circle2" d="M512 960c-282.77 0-512-229.23-512-512s229.23-512 512-512c282.77 0 512 229.23 512 512v0c0 282.77-229.23 512-512 512v0zM512 38.4c-226.216 0-409.6 183.384-409.6 409.6s183.384 409.6 409.6 409.6c226.216 0 409.6-183.384 409.6-409.6v0c0-226.216-183.384-409.6-409.6-409.6v0zM712.704 648.704c-9.255 9.201-22.011 14.889-36.096 14.889s-26.842-5.687-36.098-14.891l-128.51-128.51-128.512 128.512c-8.895 7.652-20.555 12.311-33.303 12.311-28.277 0-51.2-22.923-51.2-51.2 0-12.749 4.659-24.409 12.368-33.371l-0.057 0.067 128.512-128.512-128.512-128.512c-10.984-9.446-17.897-23.36-17.897-38.889 0-28.277 22.923-51.2 51.2-51.2 15.528 0 29.442 6.913 38.832 17.829l0.057 0.067 128.512 128.512 128.512-128.512c8.895-7.652 20.555-12.311 33.303-12.311 28.277 0 51.2 22.923 51.2 51.2 0 12.749-4.659 24.409-12.368 33.371l0.057-0.067-128.512 128.512 128.512 128.512c9.201 9.255 14.889 22.011 14.889 36.096s-5.687 26.842-14.891 36.098l0.002-0.002z" />
<glyph unicode="&#xe92b;" glyph-name="delect-circle1" data-tags="delect-circle1" d="M512 960c-282.77 0-512-229.23-512-512s229.23-512 512-512c282.77 0 512 229.23 512 512v0c0 282.77-229.23 512-512 512v0zM712.704 319.488c10.984-9.446 17.897-23.36 17.897-38.889 0-28.277-22.923-51.2-51.2-51.2-15.528 0-29.442 6.913-38.832 17.829l-0.057 0.067-128.512 128.512-128.512-128.512c-8.895-7.652-20.555-12.311-33.303-12.311-28.277 0-51.2 22.923-51.2 51.2 0 12.749 4.659 24.409 12.368 33.371l-0.057-0.067 128.512 128.512-128.512 128.512c-7.652 8.895-12.311 20.555-12.311 33.303 0 28.277 22.923 51.2 51.2 51.2 12.749 0 24.409-4.659 33.371-12.368l-0.067 0.057 128.512-128.512 128.512 128.512c8.895 7.652 20.555 12.311 33.303 12.311 28.277 0 51.2-22.923 51.2-51.2 0-12.749-4.659-24.409-12.368-33.371l0.057 0.067-128.512-128.512z" />
<glyph unicode="&#xe92c;" glyph-name="checkbox0" data-tags="checkbox0" d="M819.2-12.8h-614.4c-84.831 0-153.6 68.769-153.6 153.6v614.4c0 84.831 68.769 153.6 153.6 153.6v0h614.4c84.831 0 153.6-68.769 153.6-153.6v0-614.4c0-84.831-68.769-153.6-153.6-153.6v0zM204.8 806.4c-28.277 0-51.2-22.923-51.2-51.2v-614.4c0-28.277 22.923-51.2 51.2-51.2h614.4c28.277 0 51.2 22.923 51.2 51.2v0 614.4c0 28.277-22.923 51.2-51.2 51.2v0z" />
<glyph unicode="&#xe92d;" glyph-name="checkbox1" data-tags="checkbox1" d="M819.2 908.8h-614.4c-84.831 0-153.6-68.769-153.6-153.6v-614.4c0-84.831 68.769-153.6 153.6-153.6v0h614.4c84.831 0 153.6 68.769 153.6 153.6v0 614.4c0 84.831-68.769 153.6-153.6 153.6v0zM824.832 582.144l-337.408-338.944c-9.28-9.354-22.14-15.145-36.352-15.145s-27.072 5.791-36.349 15.142l-174.595 174.595c-9.194 9.258-14.877 22.013-14.877 36.096 0 28.293 22.936 51.229 51.229 51.229 14.21 0 27.069-5.786 36.349-15.13l138.243-139.267 301.056 302.080c9.283 9.347 22.142 15.133 36.352 15.133 28.293 0 51.229-22.936 51.229-51.229 0-14.083-5.682-26.838-14.88-36.099l0.003 0.003z" />
<glyph unicode="&#xe92e;" glyph-name="circle" data-tags="circle" d="M512-64c-282.77 0-512 229.23-512 512s229.23 512 512 512c282.77 0 512-229.23 512-512v0c0-282.77-229.23-512-512-512v0zM512 857.6c-226.216 0-409.6-183.384-409.6-409.6s183.384-409.6 409.6-409.6c226.216 0 409.6 183.384 409.6 409.6v0c0 226.216-183.384 409.6-409.6 409.6v0z" />
<glyph unicode="&#xe92f;" glyph-name="radus" data-tags="radus" d="M512 960c-282.77 0-512-229.23-512-512s229.23-512 512-512c282.77 0 512 229.23 512 512v0c0 282.77-229.23 512-512 512v0zM512 38.4c-226.216 0-409.6 183.384-409.6 409.6s183.384 409.6 409.6 409.6c226.216 0 409.6-183.384 409.6-409.6v0c0-226.216-183.384-409.6-409.6-409.6v0zM204.8 448c0-169.662 137.538-307.2 307.2-307.2s307.2 137.538 307.2 307.2v0c0 169.662-137.538 307.2-307.2 307.2s-307.2-137.538-307.2-307.2v0z" />
<glyph unicode="&#xe930;" glyph-name="down" data-tags="down" d="M972.92 510.464c-28.277 0-51.2-22.923-51.2-51.2v0-132.608l-301.056 301.056c-9.255 9.201-22.011 14.889-36.096 14.889s-26.842-5.687-36.098-14.891l-179.71-179.71-281.088 281.088c-9.303 9.303-22.156 15.057-36.352 15.057-28.393 0-51.409-23.017-51.409-51.409 0-14.196 5.754-27.049 15.057-36.352l317.44-317.44c9.255-9.201 22.011-14.889 36.096-14.889s26.842 5.687 36.098 14.891l179.71 179.71 264.704-264.704h-132.096c-28.277 0-51.2-22.923-51.2-51.2s22.923-51.2 51.2-51.2h256c28.277 0 51.2 22.923 51.2 51.2v0 256c0.002 0.152 0.003 0.332 0.003 0.512 0 28.277-22.923 51.2-51.2 51.2-0.001 0-0.002 0-0.003 0v0z" />
<glyph unicode="&#xe931;" glyph-name="rise" data-tags="rise" d="M972.92 385.536c-28.277 0-51.2 22.923-51.2 51.2v0 132.608l-301.056-301.056c-9.255-9.201-22.011-14.889-36.096-14.889s-26.842 5.687-36.098 14.891l-179.71 179.71-281.088-281.088c-9.303-9.303-22.156-15.057-36.352-15.057-28.393 0-51.409 23.017-51.409 51.409 0 14.196 5.754 27.049 15.057 36.352l317.44 317.44c9.255 9.201 22.011 14.889 36.096 14.889s26.842-5.687 36.098-14.891l179.71-179.71 264.704 264.704h-132.096c-28.277 0-51.2 22.923-51.2 51.2s22.923 51.2 51.2 51.2v0h256c28.277 0 51.2-22.923 51.2-51.2v0-256c0.002-0.152 0.003-0.332 0.003-0.512 0-28.277-22.923-51.2-51.2-51.2-0.001 0-0.002 0-0.003 0v0z" />
<glyph unicode="&#xe932;" glyph-name="left-right" data-tags="left-right" d="M51.204 499.2h921.6c28.277 0 51.2 22.923 51.2 51.2s-22.923 51.2-51.2 51.2v0h-809.984l147.456 171.52c7.639 8.891 12.291 20.542 12.291 33.28 0 28.278-22.924 51.203-51.203 51.203-15.541 0-29.465-6.924-38.855-17.854l-0.057-0.068-220.16-256c-7.64-8.891-12.291-20.542-12.291-33.28 0-28.277 22.923-51.2 51.2-51.2 0.001 0 0.002 0 0.004 0v0zM972.804 396.8h-921.6c-28.277 0-51.2-22.923-51.2-51.2s22.923-51.2 51.2-51.2h809.984l-147.456-171.52c-7.639-8.891-12.291-20.542-12.291-33.28 0-28.278 22.924-51.203 51.203-51.203 15.541 0 29.465 6.924 38.855 17.854l0.057 0.068 220.16 256c7.64 8.891 12.291 20.542 12.291 33.28 0 28.277-22.923 51.2-51.2 51.2-0.001 0-0.002 0-0.004 0v0z" />
<glyph unicode="&#xe933;" glyph-name="updown-arrow" data-tags="updown-arrow" d="M460.8-12.796v921.593c0 28.277-22.923 51.2-51.2 51.2s-51.2-22.923-51.2-51.2v0-809.978l-171.519 147.455c-8.891 7.639-20.542 12.29-33.28 12.29-28.278 0-51.202-22.924-51.202-51.202 0-15.541 6.924-29.464 17.854-38.855l0.068-0.057 255.998-220.158c8.891-7.64 20.542-12.291 33.28-12.291 28.277 0 51.2 22.923 51.2 51.2 0 0.001 0 0.002 0 0.004v0zM563.2 908.796v-921.593c0-28.277 22.923-51.2 51.2-51.2s51.2 22.923 51.2 51.2v0 809.978l171.519-147.455c8.891-7.639 20.542-12.29 33.28-12.29 28.278 0 51.202 22.924 51.202 51.202 0 15.541-6.924 29.464-17.854 38.855l-0.068 0.057-255.998 220.158c-8.891 7.64-20.542 12.291-33.28 12.291-28.277 0-51.2-22.923-51.2-51.2 0-0.001 0-0.002 0-0.004v0z" />
<glyph unicode="&#xe934;" glyph-name="dl-left" data-tags="dl-left" d="M474.624 38.4c0.561-0.022 1.219-0.035 1.88-0.035 28.277 0 51.2 22.923 51.2 51.2 0 14.487-6.017 27.569-15.688 36.883l-335.888 321.551 335.872 321.536c9.522 9.394 15.421 22.44 15.421 36.864 0 28.593-23.179 51.773-51.773 51.773-14.169 0-27.009-5.692-36.358-14.914l0.006 0.006-372.224-358.4c-9.666-9.326-15.669-22.394-15.669-36.864s6.002-27.538 15.653-36.849l0.015-0.015 372.224-358.4c9.146-8.825 21.594-14.28 35.317-14.336h0.011zM921.6 38.4c28.19 0.115 50.997 22.994 50.997 51.2 0 14.47-6.003 27.538-15.654 36.85l-0.015 0.015-333.824 321.536 333.824 321.536c9.657 9.331 15.652 22.397 15.652 36.864 0 28.297-22.939 51.236-51.236 51.236-13.83 0-26.381-5.48-35.599-14.387l0.015 0.014-373.76-358.4c-9.666-9.326-15.669-22.394-15.669-36.864s6.002-27.538 15.653-36.849l0.015-0.015 372.224-358.4c9.197-8.89 21.741-14.368 35.565-14.368 0.637 0 1.271 0.012 1.903 0.035l-0.091-0.003z" />
<glyph unicode="&#xe935;" glyph-name="dl-right" data-tags="dl-right" d="M549.376 38.4c-0.561-0.022-1.219-0.035-1.88-0.035-28.277 0-51.2 22.923-51.2 51.2 0 14.487 6.017 27.569 15.688 36.883l335.888 321.551-335.872 321.536c-9.657 9.331-15.652 22.397-15.652 36.864 0 28.297 22.939 51.236 51.236 51.236 13.83 0 26.381-5.48 35.599-14.387l-0.015 0.014 372.224-358.4c9.666-9.326 15.669-22.394 15.669-36.864s-6.002-27.538-15.653-36.849l-0.015-0.015-372.224-358.4c-8.782-8.488-20.617-13.866-33.703-14.333l-0.089-0.003zM102.4 38.4c-28.19 0.115-50.997 22.994-50.997 51.2 0 14.47 6.003 27.538 15.654 36.85l0.015 0.015 333.824 321.536-333.824 321.536c-8.147 9.030-13.131 21.052-13.131 34.237 0 28.277 22.923 51.2 51.2 51.2 12.419 0 23.806-4.422 32.671-11.777l-0.085 0.068 372.224-358.4c9.666-9.326 15.669-22.394 15.669-36.864s-6.002-27.538-15.653-36.849l-0.015-0.015-372.224-358.4c-9.146-8.825-21.594-14.28-35.317-14.336h-0.011z" />
<glyph unicode="&#xe936;" glyph-name="dl-down" data-tags="dl-down" d="M921.6 410.624c0.022 0.561 0.035 1.219 0.035 1.88 0 28.277-22.923 51.2-51.2 51.2-14.487 0-27.569-6.017-36.883-15.688l-321.551-335.888-321.536 335.872c-9.331 9.657-22.397 15.652-36.864 15.652-28.297 0-51.236-22.939-51.236-51.236 0-13.83 5.48-26.381 14.387-35.599l-0.014 0.015 358.4-372.224c9.326-9.666 22.394-15.669 36.864-15.669s27.538 6.002 36.849 15.653l0.015 0.015 358.4 372.224c8.488 8.782 13.866 20.617 14.333 33.703l0.003 0.089zM921.6 857.6c-0.115 28.19-22.994 50.997-51.2 50.997-14.47 0-27.538-6.003-36.85-15.654l-0.015-0.015-321.536-333.824-321.536 333.824c-9.46 11.404-23.634 18.613-39.491 18.613-28.277 0-51.2-22.923-51.2-51.2 0-15.092 6.53-28.659 16.918-38.029l0.045-0.040 358.4-372.224c9.326-9.666 22.394-15.669 36.864-15.669s27.538 6.002 36.849 15.653l0.015 0.015 358.4 372.224c8.825 9.146 14.28 21.594 14.336 35.317v0.011z" />
<glyph unicode="&#xe937;" glyph-name="dl-up" data-tags="dl-up" d="M921.6 485.376c-0.115-28.19-22.994-50.997-51.2-50.997-14.47 0-27.538 6.003-36.85 15.654l-0.015 0.015-321.536 333.824-321.536-335.872c-9.394-9.522-22.44-15.421-36.864-15.421-28.593 0-51.773 23.179-51.773 51.773 0 14.169 5.692 27.009 14.914 36.358l-0.006-0.006 358.4 372.224c9.326 9.666 22.394 15.669 36.864 15.669s27.538-6.002 36.849-15.653l0.015-0.015 358.4-372.224c8.825-9.146 14.28-21.594 14.336-35.317v-0.011zM921.6 38.4c-0.115-28.19-22.994-50.997-51.2-50.997-14.47 0-27.538 6.003-36.85 15.654l-0.015 0.015-321.536 333.824-321.536-333.824c-9.331-9.657-22.397-15.652-36.864-15.652-28.297 0-51.236 22.939-51.236 51.236 0 13.83 5.48 26.381 14.387 35.599l-0.014-0.015 358.4 372.224c9.326 9.666 22.394 15.669 36.864 15.669s27.538-6.002 36.849-15.653l0.015-0.015 358.4-372.224c8.871-9.194 14.337-21.725 14.337-35.532 0-0.108 0-0.216-0.001-0.324v0.017z" />
<glyph unicode="&#xe938;" glyph-name="more2" data-tags="more2" d="M409.6 857.6c0-56.554 45.846-102.4 102.4-102.4s102.4 45.846 102.4 102.4v0c0 56.554-45.846 102.4-102.4 102.4s-102.4-45.846-102.4-102.4v0zM409.6 448c0-56.554 45.846-102.4 102.4-102.4s102.4 45.846 102.4 102.4v0c0 56.554-45.846 102.4-102.4 102.4s-102.4-45.846-102.4-102.4v0zM409.6 38.4c0-56.554 45.846-102.4 102.4-102.4s102.4 45.846 102.4 102.4v0c0 56.554-45.846 102.4-102.4 102.4s-102.4-45.846-102.4-102.4v0z" />
<glyph unicode="&#xe939;" glyph-name="circle-more" data-tags="circle-more" d="M512 960c-282.77 0-512-229.23-512-512s229.23-512 512-512c282.77 0 512 229.23 512 512v0c0 282.77-229.23 512-512 512v0zM512 38.4c-226.216 0-409.6 183.384-409.6 409.6s183.384 409.6 409.6 409.6c226.216 0 409.6-183.384 409.6-409.6v0c0-226.216-183.384-409.6-409.6-409.6v0zM435.2 448c0-42.415 34.385-76.8 76.8-76.8s76.8 34.385 76.8 76.8v0c0 42.415-34.385 76.8-76.8 76.8s-76.8-34.385-76.8-76.8v0zM204.8 448c0-42.415 34.385-76.8 76.8-76.8s76.8 34.385 76.8 76.8v0c0 42.415-34.385 76.8-76.8 76.8s-76.8-34.385-76.8-76.8v0zM665.6 448c0-42.415 34.385-76.8 76.8-76.8s76.8 34.385 76.8 76.8v0c0 42.415-34.385 76.8-76.8 76.8s-76.8-34.385-76.8-76.8v0z" />
<glyph unicode="&#xe93a;" glyph-name="more" data-tags="more" d="M0 448c0-56.554 45.846-102.4 102.4-102.4s102.4 45.846 102.4 102.4v0c0 56.554-45.846 102.4-102.4 102.4s-102.4-45.846-102.4-102.4v0zM409.6 448c0-56.554 45.846-102.4 102.4-102.4s102.4 45.846 102.4 102.4v0c0 56.554-45.846 102.4-102.4 102.4s-102.4-45.846-102.4-102.4v0zM819.2 448c0-56.554 45.846-102.4 102.4-102.4s102.4 45.846 102.4 102.4v0c0 56.554-45.846 102.4-102.4 102.4s-102.4-45.846-102.4-102.4v0z" />
<glyph unicode="&#xe93b;" glyph-name="female" data-tags="female" d="M914.71 850.192c-66.988 63.362-157.635 102.318-257.38 102.318-207.040 0-374.879-167.839-374.879-374.879 0-82.129 26.411-158.090 71.202-219.852l-0.751 1.087-69.971-67.928-192.547 193.057c-9.28 9.28-22.101 15.020-36.262 15.020-28.322 0-51.282-22.96-51.282-51.282 0-14.161 5.74-26.982 15.020-36.262l193.057-193.057-193.057-192.547c-10.957-9.423-17.852-23.302-17.852-38.792 0-28.207 22.866-51.073 51.073-51.073 15.49 0 29.37 6.896 38.736 17.785l0.057 0.067 193.057 193.057 193.057-193.057c8.873-7.633 20.504-12.281 33.221-12.281 28.207 0 51.073 22.866 51.073 51.073 0 12.717-4.648 24.348-12.337 33.288l0.057-0.067-192.547 192.547 67.928 67.928c60.675-44.041 136.636-70.452 218.765-70.452 207.040 0 374.879 167.839 374.879 374.879 0 99.745-38.955 190.392-102.482 257.556l0.165-0.175zM842.697 390.532c-49.375-49.474-117.638-80.081-193.051-80.081-150.626 0-272.732 122.106-272.732 272.732s122.106 272.732 272.732 272.732c149.944 0 271.626-121.003 272.724-270.688l0.001-0.105c0-0.060 0-0.131 0-0.203 0-75.276-30.44-143.443-79.682-192.863l0.008 0.008z" />
<glyph unicode="&#xe93c;" glyph-name="male" data-tags="male" horiz-adv-x="1025" d="M974.195 960h-307.2c-28.277 0-51.2-22.923-51.2-51.2s22.923-51.2 51.2-51.2v0h183.808l-188.928-188.416c-68.802 54.186-156.717 86.908-252.274 86.908-226.216 0-409.6-183.384-409.6-409.6s183.384-409.6 409.6-409.6c226.216 0 409.6 183.384 409.6 409.6 0 94.54-32.029 181.599-85.829 250.918l0.695-0.931 188.928 188.928v-183.808c0-28.277 22.923-51.2 51.2-51.2s51.2 22.923 51.2 51.2v0 307.2c0 28.277-22.923 51.2-51.2 51.2v0zM628.083 128.512c-55.58-55.52-132.332-89.856-217.102-89.856-169.662 0-307.2 137.538-307.2 307.2s137.538 307.2 307.2 307.2c84.771 0 161.522-34.336 217.105-89.859l-0.003 0.003c55.664-55.604 90.098-132.453 90.098-217.344s-34.433-161.739-90.095-217.341l-0.003-0.003z" />
<glyph unicode="&#xe93d;" glyph-name="top" data-tags="top" d="M818.281 857.906h-612.562c-28.192 0-51.047 22.854-51.047 51.047s22.854 51.047 51.047 51.047v0h612.562c28.192 0 51.047-22.854 51.047-51.047s-22.854-51.047-51.047-51.047v0zM242.983 365.815l217.97 220.522v-599.29c0-28.192 22.854-51.047 51.047-51.047s51.047 22.854 51.047 51.047v0 599.29l217.97-220.012c9.227-9.174 21.945-14.844 35.988-14.844s26.761 5.67 35.99 14.846l-0.002-0.002c9.083 8.501 14.743 20.563 14.743 33.946s-5.66 25.445-14.717 33.922l-0.026 0.024-306.281 309.344c-9.777 8.99-22.877 14.501-37.264 14.501s-27.487-5.511-37.304-14.537l0.039 0.036-306.281-309.344c-9.083-8.501-14.743-20.563-14.743-33.946s5.66-25.445 14.717-33.922l0.026-0.024c9.418-10.944 23.286-17.831 38.762-17.831 15.239 0 28.918 6.677 38.271 17.266l0.048 0.055z" />
<glyph unicode="&#xe93e;" glyph-name="down3" data-tags="down3" d="M818.525 857.825h-613.049c-28.215 0-51.087 22.873-51.087 51.087s22.873 51.087 51.087 51.087v0h613.049c28.215 0 51.087-22.873 51.087-51.087s-22.873-51.087-51.087-51.087v0zM242.769 328.559l218.143-220.698v548.679c0 28.215 22.873 51.087 51.087 51.087s51.087-22.873 51.087-51.087v0-548.679l218.143 220.187c9.234 9.181 21.963 14.856 36.017 14.856s26.783-5.675 36.019-14.858l-0.002 0.002c9.090-8.508 14.755-20.579 14.755-33.973s-5.664-25.466-14.729-33.949l-0.026-0.024-306.525-309.59c-9.785-8.997-22.895-14.513-37.294-14.513s-27.509 5.515-37.333 14.548l0.040-0.036-306.525 309.59c-9.090 8.508-14.755 20.579-14.755 33.973s5.664 25.466 14.729 33.949l0.026 0.024c9.425 10.952 23.304 17.845 38.793 17.845 15.251 0 28.941-6.683 38.302-17.279l0.048-0.055z" />
<glyph unicode="&#xe93f;" glyph-name="up3" data-tags="up3" d="M818.544 38.181h-613.088c-28.217 0-51.091-22.874-51.091-51.091s22.874-51.091 51.091-51.091v0h613.088c28.217 0 51.091 22.874 51.091 51.091s-22.874 51.091-51.091 51.091v0zM242.752 567.48l218.157 220.712v-548.713c0-28.217 22.874-51.091 51.091-51.091s51.091 22.874 51.091 51.091v0 548.713l218.157-220.201c9.235-9.182 21.964-14.857 36.019-14.857s26.784 5.675 36.021 14.859l-0.002-0.002c9.091 8.508 14.756 20.58 14.756 33.975s-5.665 25.467-14.73 33.951l-0.026 0.024-306.544 309.609c-9.786 8.998-22.897 14.513-37.296 14.513s-27.51-5.516-37.336-14.549l0.040 0.036-306.544-309.609c-9.091-8.508-14.756-20.58-14.756-33.975s5.665-25.467 14.73-33.951l0.026-0.024c9.426-10.953 23.306-17.846 38.795-17.846 15.252 0 28.943 6.683 38.304 17.281l0.048 0.055z" />
<glyph unicode="&#xe940;" glyph-name="down-load2" data-tags="down-load2" d="M818.281 38.094h-612.562c-28.192 0-51.047-22.854-51.047-51.047s22.854-51.047 51.047-51.047h612.562c28.192 0 51.047 22.854 51.047 51.047s-22.854 51.047-51.047 51.047v0zM242.983 530.185l217.97-220.522v599.29c0 28.192 22.854 51.047 51.047 51.047s51.047-22.854 51.047-51.047v0-599.29l217.97 220.012c9.227 9.174 21.945 14.844 35.988 14.844s26.761-5.67 35.99-14.846l-0.002 0.002c9.083-8.501 14.743-20.563 14.743-33.946s-5.66-25.445-14.717-33.922l-0.026-0.024-306.281-309.344c-9.777-8.99-22.877-14.501-37.264-14.501s-27.487 5.511-37.304 14.537l0.039-0.036-306.281 309.344c-9.083 8.501-14.743 20.563-14.743 33.946s5.66 25.445 14.717 33.922l0.026 0.024c9.418 10.944 23.286 17.831 38.762 17.831 15.239 0 28.918-6.677 38.271-17.266l0.048-0.055z" />
<glyph unicode="&#xe941;" glyph-name="left-arrow" data-tags="left-arrow" d="M716.8-12.8c-0.088-0.001-0.192-0.001-0.296-0.001-14.065 0-26.806 5.671-36.059 14.852l-409.597 409.597c-9.201 9.255-14.889 22.011-14.889 36.096s5.687 26.842 14.891 36.098l409.598 409.598c8.895 7.652 20.555 12.311 33.303 12.311 28.277 0 51.2-22.923 51.2-51.2 0-12.749-4.659-24.409-12.368-33.371l0.057 0.067-373.248-373.248 373.248-373.248c9.354-9.28 15.145-22.14 15.145-36.352 0-28.202-22.801-51.078-50.974-51.2h-0.012z" />
<glyph unicode="&#xe942;" glyph-name="right-arrow" data-tags="right-arrow" d="M307.2-12.8c0.088-0.001 0.192-0.001 0.296-0.001 14.065 0 26.806 5.671 36.059 14.852l409.597 409.597c9.201 9.255 14.889 22.011 14.889 36.096s-5.687 26.842-14.891 36.098l-409.598 409.598c-9.283 9.347-22.142 15.133-36.352 15.133-28.293 0-51.229-22.936-51.229-51.229 0-14.083 5.682-26.838 14.88-36.099l-0.003 0.003 373.76-373.248-373.76-373.248c-9.355-9.28-15.146-22.14-15.146-36.353 0-28.277 22.923-51.2 51.2-51.2 0.105 0 0.209 0 0.314 0.001h-0.016z" />
<glyph unicode="&#xe943;" glyph-name="down-arrow" data-tags="down-arrow" d="M972.8 652.8c0.001-0.088 0.001-0.192 0.001-0.296 0-14.065-5.671-26.806-14.852-36.059l-409.597-409.597c-9.255-9.201-22.011-14.889-36.096-14.889s-26.842 5.687-36.098 14.891l-409.598 409.598c-9.347 9.283-15.133 22.142-15.133 36.352 0 28.293 22.936 51.229 51.229 51.229 14.083 0 26.838-5.682 36.099-14.88l-0.003 0.003 373.248-373.76 373.248 373.248c9.28 9.354 22.14 15.145 36.352 15.145 28.202 0 51.078-22.801 51.2-50.974v-0.012z" />
<glyph unicode="&#xe944;" glyph-name="up-arrow" data-tags="up-arrow" d="M972.8 243.2c0.001 0.088 0.001 0.192 0.001 0.296 0 14.065-5.671 26.806-14.852 36.059l-409.597 409.597c-9.255 9.201-22.011 14.889-36.096 14.889s-26.842-5.687-36.098-14.891l-409.598-409.598c-10.984-9.446-17.897-23.36-17.897-38.889 0-28.277 22.923-51.2 51.2-51.2 15.528 0 29.442 6.913 38.832 17.829l0.057 0.067 373.248 373.248 373.248-373.248c9.28-9.354 22.14-15.145 36.352-15.145 28.202 0 51.078 22.801 51.2 50.974v0.012z" />
<glyph unicode="&#xe945;" glyph-name="list3" data-tags="list3" d="M409.6 499.2h-358.4c-28.277 0-51.2 22.923-51.2 51.2v0 358.4c0 28.277 22.923 51.2 51.2 51.2v0h358.4c28.277 0 51.2-22.923 51.2-51.2v0-358.4c0-28.277-22.923-51.2-51.2-51.2v0zM102.4 601.6h256v256h-256zM409.6-64h-358.4c-28.277 0-51.2 22.923-51.2 51.2v0 358.4c0 28.277 22.923 51.2 51.2 51.2v0h358.4c28.277 0 51.2-22.923 51.2-51.2v0-358.4c0-28.277-22.923-51.2-51.2-51.2v0zM102.4 38.4h256v256h-256zM972.8 780.8h-358.4c-28.277 0-51.2 22.923-51.2 51.2s22.923 51.2 51.2 51.2v0h358.4c28.277 0 51.2-22.923 51.2-51.2s-22.923-51.2-51.2-51.2v0zM972.8 576h-358.4c-28.277 0-51.2 22.923-51.2 51.2s22.923 51.2 51.2 51.2h358.4c28.277 0 51.2-22.923 51.2-51.2s-22.923-51.2-51.2-51.2v0zM972.8 217.6h-358.4c-28.277 0-51.2 22.923-51.2 51.2s22.923 51.2 51.2 51.2h358.4c28.277 0 51.2-22.923 51.2-51.2s-22.923-51.2-51.2-51.2v0zM972.8 12.8h-358.4c-28.277 0-51.2 22.923-51.2 51.2s22.923 51.2 51.2 51.2h358.4c28.277 0 51.2-22.923 51.2-51.2s-22.923-51.2-51.2-51.2v0z" />
<glyph unicode="&#xe946;" glyph-name="list2" data-tags="list2" d="M409.6 499.2h-358.4c-28.277 0-51.2 22.923-51.2 51.2v0 358.4c0 28.277 22.923 51.2 51.2 51.2v0h358.4c28.277 0 51.2-22.923 51.2-51.2v0-358.4c0-28.277-22.923-51.2-51.2-51.2v0zM409.6-64h-358.4c-28.277 0-51.2 22.923-51.2 51.2v0 358.4c0 28.277 22.923 51.2 51.2 51.2v0h358.4c28.277 0 51.2-22.923 51.2-51.2v0-358.4c0-28.277-22.923-51.2-51.2-51.2v0zM972.8 780.8h-358.4c-28.277 0-51.2 22.923-51.2 51.2s22.923 51.2 51.2 51.2v0h358.4c28.277 0 51.2-22.923 51.2-51.2s-22.923-51.2-51.2-51.2v0zM972.8 576h-358.4c-28.277 0-51.2 22.923-51.2 51.2s22.923 51.2 51.2 51.2h358.4c28.277 0 51.2-22.923 51.2-51.2s-22.923-51.2-51.2-51.2v0zM972.8 217.6h-358.4c-28.277 0-51.2 22.923-51.2 51.2s22.923 51.2 51.2 51.2h358.4c28.277 0 51.2-22.923 51.2-51.2s-22.923-51.2-51.2-51.2v0zM972.8 12.8h-358.4c-28.277 0-51.2 22.923-51.2 51.2s22.923 51.2 51.2 51.2h358.4c28.277 0 51.2-22.923 51.2-51.2s-22.923-51.2-51.2-51.2v0z" />
<glyph unicode="&#xe947;" glyph-name="reduce3" data-tags="reduce3" d="M921.6 960h-819.2c-56.554 0-102.4-45.846-102.4-102.4v0-819.2c0-56.554 45.846-102.4 102.4-102.4v0h819.2c56.554 0 102.4 45.846 102.4 102.4v0 819.2c0 56.554-45.846 102.4-102.4 102.4v0zM768 396.8h-512c-28.277 0-51.2 22.923-51.2 51.2s22.923 51.2 51.2 51.2h512c28.277 0 51.2-22.923 51.2-51.2s-22.923-51.2-51.2-51.2v0z" />
<glyph unicode="&#xe948;" glyph-name="plus3" data-tags="plus3" d="M921.6 960h-819.2c-56.554 0-102.4-45.846-102.4-102.4v0-819.2c0-56.554 45.846-102.4 102.4-102.4v0h819.2c56.554 0 102.4 45.846 102.4 102.4v0 819.2c0 56.554-45.846 102.4-102.4 102.4v0zM768 396.8h-204.8v-204.8c0-28.277-22.923-51.2-51.2-51.2s-51.2 22.923-51.2 51.2v0 204.8h-204.8c-28.277 0-51.2 22.923-51.2 51.2s22.923 51.2 51.2 51.2h204.8v204.8c0 28.277 22.923 51.2 51.2 51.2s51.2-22.923 51.2-51.2v0-204.8h204.8c28.277 0 51.2-22.923 51.2-51.2s-22.923-51.2-51.2-51.2v0z" />
<glyph unicode="&#xe949;" glyph-name="plus2" data-tags="plus2" d="M863.232 499.2h-300.032v300.032c0.060 0.961 0.094 2.085 0.094 3.217 0 29.131-22.526 53-51.109 55.14l-0.184 0.011c-28.768-2.151-51.294-26.020-51.294-55.151 0-1.132 0.034-2.255 0.101-3.37l-0.007 0.153v-300.032h-300.032c-0.961 0.060-2.085 0.094-3.217 0.094-29.131 0-53-22.526-55.14-51.109l-0.011-0.184c2.151-28.768 26.020-51.294 55.151-51.294 1.132 0 2.255 0.034 3.37 0.101l-0.153-0.007h300.032v-300.032c-0.060-0.961-0.094-2.085-0.094-3.217 0-29.131 22.526-53 51.109-55.14l0.184-0.011c28.768 2.151 51.294 26.020 51.294 55.151 0 1.132-0.034 2.255-0.101 3.37l0.007-0.153v300.032h300.032c0.961-0.060 2.085-0.094 3.217-0.094 29.131 0 53 22.526 55.14 51.109l0.011 0.184c-2.151 28.768-26.020 51.294-55.151 51.294-1.132 0-2.255-0.034-3.37-0.101l0.153 0.007z" />
<glyph unicode="&#xe94a;" glyph-name="reduce2" data-tags="reduce2" d="M863.232 396.8h-702.464c-0.961-0.060-2.085-0.094-3.217-0.094-29.131 0-53 22.526-55.14 51.109l-0.011 0.184c2.151 28.768 26.020 51.294 55.151 51.294 1.132 0 2.255-0.034 3.37-0.101l-0.153 0.007h702.464c0.961 0.060 2.085 0.094 3.217 0.094 29.131 0 53-22.526 55.14-51.109l0.011-0.184c-2.151-28.768-26.020-51.294-55.151-51.294-1.132 0-2.255 0.034-3.37 0.101l0.153-0.007z" />
<glyph unicode="&#xe94b;" glyph-name="circle-reduce" data-tags="circle-reduce" d="M512 960c-282.77 0-512-229.23-512-512s229.23-512 512-512c282.77 0 512 229.23 512 512v0c0 282.77-229.23 512-512 512v0zM512 38.4c-226.216 0-409.6 183.384-409.6 409.6s183.384 409.6 409.6 409.6c226.216 0 409.6-183.384 409.6-409.6v0c0-226.216-183.384-409.6-409.6-409.6v0zM716.8 499.2h-409.6c-28.277 0-51.2-22.923-51.2-51.2s22.923-51.2 51.2-51.2v0h409.6c28.277 0 51.2 22.923 51.2 51.2s-22.923 51.2-51.2 51.2v0z" />
<glyph unicode="&#xe94c;" glyph-name="reduce" data-tags="reduce" d="M512 960c-282.77 0-512-229.23-512-512s229.23-512 512-512c282.77 0 512 229.23 512 512v0c0 282.77-229.23 512-512 512v0zM716.8 396.8h-409.6c-28.277 0-51.2 22.923-51.2 51.2s22.923 51.2 51.2 51.2h409.6c28.277 0 51.2-22.923 51.2-51.2s-22.923-51.2-51.2-51.2v0z" />
<glyph unicode="&#xe94d;" glyph-name="circle-plus" data-tags="circle-plus" d="M512 960c-282.77 0-512-229.23-512-512s229.23-512 512-512c282.77 0 512 229.23 512 512v0c0 282.77-229.23 512-512 512v0zM512 38.4c-226.216 0-409.6 183.384-409.6 409.6s183.384 409.6 409.6 409.6c226.216 0 409.6-183.384 409.6-409.6v0c0-226.216-183.384-409.6-409.6-409.6v0zM716.8 499.2h-153.6v153.6c0 28.277-22.923 51.2-51.2 51.2s-51.2-22.923-51.2-51.2v0-153.6h-153.6c-28.277 0-51.2-22.923-51.2-51.2s22.923-51.2 51.2-51.2h153.6v-153.6c0-28.277 22.923-51.2 51.2-51.2s51.2 22.923 51.2 51.2v0 153.6h153.6c28.277 0 51.2 22.923 51.2 51.2s-22.923 51.2-51.2 51.2v0z" />
<glyph unicode="&#xe94e;" glyph-name="plus" data-tags="plus" d="M512 960c-282.77 0-512-229.23-512-512s229.23-512 512-512c282.77 0 512 229.23 512 512v0c0 282.77-229.23 512-512 512v0zM716.8 396.8h-153.6v-153.6c0-28.277-22.923-51.2-51.2-51.2s-51.2 22.923-51.2 51.2v0 153.6h-153.6c-28.277 0-51.2 22.923-51.2 51.2s22.923 51.2 51.2 51.2h153.6v153.6c0 28.277 22.923 51.2 51.2 51.2s51.2-22.923 51.2-51.2v0-153.6h153.6c28.277 0 51.2-22.923 51.2-51.2s-22.923-51.2-51.2-51.2v0z" />
<glyph unicode="&#xe94f;" glyph-name="sort2" data-tags="sort2" d="M563.2 806.4h-512c-28.277 0-51.2-22.923-51.2-51.2s22.923-51.2 51.2-51.2v0h512c28.277 0 51.2 22.923 51.2 51.2s-22.923 51.2-51.2 51.2v0zM51.2 396.8h358.4c28.277 0 51.2 22.923 51.2 51.2s-22.923 51.2-51.2 51.2h-358.4c-28.277 0-51.2-22.923-51.2-51.2s22.923-51.2 51.2-51.2v0zM563.2 192h-512c-28.277 0-51.2-22.923-51.2-51.2s22.923-51.2 51.2-51.2h512c28.277 0 51.2 22.923 51.2 51.2s-22.923 51.2-51.2 51.2v0zM1005.056 627.712l-204.8 166.912c-8.726 7.123-19.988 11.439-32.257 11.439-28.159 0-51.008-22.731-51.199-50.845v-614.418c0-28.277 22.923-51.2 51.2-51.2s51.2 22.923 51.2 51.2v0 506.368l121.344-96.768c8.366-6.193 18.888-9.913 30.279-9.913 28.277 0 51.2 22.923 51.2 51.2 0 15.094-6.531 28.662-16.922 38.033l-0.045 0.040z" />
<glyph unicode="&#xe950;" glyph-name="sort1" data-tags="sort1" d="M563.2 806.4h-512c-28.277 0-51.2-22.923-51.2-51.2s22.923-51.2 51.2-51.2v0h512c28.277 0 51.2 22.923 51.2 51.2s-22.923 51.2-51.2 51.2v0zM51.2 396.8h358.4c28.277 0 51.2 22.923 51.2 51.2s-22.923 51.2-51.2 51.2h-358.4c-28.277 0-51.2-22.923-51.2-51.2s22.923-51.2 51.2-51.2v0zM563.2 192h-512c-28.277 0-51.2-22.923-51.2-51.2s22.923-51.2 51.2-51.2h512c28.277 0 51.2 22.923 51.2 51.2s-22.923 51.2-51.2 51.2v0zM1012.224 340.48c-9.429 10.679-23.152 17.378-38.439 17.378-12.72 0-24.356-4.638-33.31-12.316l0.069 0.058-121.344-96.768v506.368c0 28.277-22.923 51.2-51.2 51.2s-51.2-22.923-51.2-51.2v0-614.4c0.191-28.132 23.040-50.863 51.199-50.863 12.27 0 23.531 4.316 32.349 11.512l-0.092-0.073 204.8 166.912c11.529 9.461 18.827 23.712 18.827 39.666 0 12.392-4.402 23.755-11.728 32.612l0.069-0.086z" />
<glyph unicode="&#xe951;" glyph-name="uptoclude" data-tags="uptoclude" d="M815.616 648.192c-23.496 148.346-150.469 260.411-303.616 260.411s-280.12-112.065-303.388-258.666l-0.228-1.746c-119.087-23.512-207.652-127.11-207.652-251.393 0-141.127 114.198-255.582 255.228-255.999h51.24c28.277 0 51.2 22.923 51.2 51.2s-22.923 51.2-51.2 51.2h-51.2c-84.831 0-153.6 68.769-153.6 153.6s68.769 153.6 153.6 153.6v0c28.277 0 51.2 22.923 51.2 51.2v0c0 113.108 91.692 204.8 204.8 204.8s204.8-91.692 204.8-204.8v0c0-28.277 22.923-51.2 51.2-51.2v0c84.831 0 153.6-68.769 153.6-153.6s-68.769-153.6-153.6-153.6v0h-51.2c-28.277 0-51.2-22.923-51.2-51.2s22.923-51.2 51.2-51.2h51.2c141.070 0.416 255.268 114.871 255.268 255.999 0 124.283-88.565 227.881-206.025 251.125l-1.627 0.268zM531.456 541.184c-4.889 5.37-11.908 8.728-19.712 8.728s-14.823-3.357-19.693-8.706l-0.019-0.021-128-153.6c-3.69-4.405-5.931-10.134-5.931-16.386 0-14.138 11.462-25.6 25.6-25.6 0.105 0 0.21 0.001 0.315 0.002h76.784v-307.2c0-28.277 22.923-51.2 51.2-51.2s51.2 22.923 51.2 51.2v0 307.2h76.8c14.046 0.121 25.386 11.536 25.386 25.599 0 6.251-2.241 11.98-5.963 16.425l0.033-0.040z" />
<glyph unicode="&#xe952;" glyph-name="invisible" data-tags="invisible" d="M995.173 750.080c-6.373 3.063-13.855 4.852-21.756 4.852-20.37 0-37.962-11.896-46.207-29.12l-0.133-0.308c-80.018-136.561-226.045-226.816-393.153-226.816-7.586 0-15.128 0.186-22.623 0.554l1.055-0.041c-4.607-0.164-10.020-0.257-15.456-0.257-169.314 0-317.465 90.612-398.604 225.988l-1.172 2.109c-8.627 16.888-25.899 28.25-45.824 28.25-28.327 0-51.29-22.963-51.29-51.29 0-8.401 2.020-16.331 5.601-23.33l-0.135 0.29c46.598-81.696 110.952-148.345 188.139-196.287l2.325-1.345-86.528-149.504c-3.674-6.884-5.832-15.056-5.832-23.732 0-28.277 22.923-51.2 51.2-51.2 18.083 0 33.977 9.375 43.086 23.53l0.122 0.203 89.6 153.6c50.94-20.553 109.936-34.598 171.545-39.3l2.023-0.124v-204.8c0-28.277 22.923-51.2 51.2-51.2s51.2 22.923 51.2 51.2v0 204.8c63.623 4.214 122.881 17.563 178.244 38.778l-4.164-1.402 89.088-153.6c8.739-16.453 25.767-27.468 45.368-27.468 28.277 0 51.2 22.923 51.2 51.2 0 10.194-2.979 19.691-8.114 27.67l0.122-0.203-85.504 150.016c80.076 49.176 144.367 116.912 188.075 197.444l1.365 2.748c3.121 6.425 4.946 13.977 4.946 21.954 0 20.208-11.707 37.681-28.708 46.008l-0.302 0.134z" />
<glyph unicode="&#xe953;" glyph-name="edit3" data-tags="edit3" d="M823.884-64h-623.767c-110.703 0-200.116 89.414-200.116 200.116v623.767c0 110.703 89.414 200.116 200.116 200.116h372.557c23.418 0 42.578-19.16 42.578-42.578s-19.16-42.578-42.578-42.578h-372.557c-61.738-2.129-112.832-53.222-112.832-114.96v-623.767c0-61.738 51.094-112.832 112.832-112.832h623.767c61.738 0 112.832 51.094 112.832 112.832v404.491c0 23.418 19.16 42.578 42.578 42.578s42.578-19.16 42.578-42.578v-404.491c2.129-110.703-87.285-200.116-197.988-200.116zM977.164 842.911l-470.486-468.358c-19.16-19.16-53.222-19.16-72.383 0s-19.16 53.222 0 72.383l470.486 468.358c19.16 21.289 51.094 21.289 72.383 0 19.16-19.16 19.16-51.094 0-72.383z" />
<glyph unicode="&#xe954;" glyph-name="password" data-tags="password" d="M672 576h-128v98.672h128c17.673 0 32 14.327 32 32s-14.327 32-32 32v0h-128v61.328c0 17.673-14.327 32-32 32s-32-14.327-32-32v0-387.056c-81.792-15.104-144-86.832-144-172.944 0-97.040 78.96-176 176-176s176 78.96 176 176c0 86.112-62.208 157.84-144 172.944v99.056h128c17.673 0 32 14.327 32 32s-14.327 32-32 32v0zM624 240c0-61.744-50.256-112-112-112-61.76 0-112 50.256-112 112s50.24 112 112 112c61.744 0 112-50.256 112-112z" />
<glyph unicode="&#xe955;" glyph-name="phone" data-tags="phone" d="M702.374 898h-380.774c-57.354 0-103.848-46.494-103.848-103.848v0-692.304c0.007-57.351 46.497-103.841 103.847-103.848h380.788c57.354 0 103.848 46.494 103.848 103.848v0 692.304c-0.007 57.355-46.504 103.848-103.86 103.848v0zM477.385 863.384h69.23c9.559 0 17.308-7.749 17.308-17.308s-7.749-17.308-17.308-17.308v0h-69.23c-9.559 0-17.308 7.749-17.308 17.308s7.749 17.308 17.308 17.308v0zM512 40.293c-0.004 0-0.008 0-0.013 0-24.437 0-44.247 19.81-44.247 44.247 0 24.432 19.803 44.24 44.233 44.247h0.001c0.004 0 0.008 0 0.013 0 24.437 0 44.247-19.81 44.247-44.247 0-24.432-19.803-44.24-44.233-44.247h-0.001zM745.914 188.374c0-9.566-7.895-17.307-17.642-17.307h-429.432c-9.76 0-17.655 7.74-17.655 17.307v588.47c0 9.567 7.895 17.308 17.655 17.308h429.432c9.747 0 17.642-7.74 17.642-17.308v-588.47z" />
<glyph unicode="&#xe956;" glyph-name="tree" data-tags="tree" d="M544 720v-64h288v64h-288zM480 672h-112c-8.8 0-16 7.2-16 16s7.2 16 16 16h112v16c0 35.3 28.7 64 64 64h288c35.3 0 64-28.7 64-64v-64c0-35.3-28.7-64-64-64h-288c-35.3 0-64 28.7-64 64v16zM480 144h-256c-35.3 0-64 28.7-64 64v439.2l32-46v-393.2c0-17.7 14.3-32 32-32h256v32c0 35.3 28.7 64 64 64h288c35.3 0 64-28.7 64-64v-64c0-35.3-28.7-64-64-64h-288c-35.3 0-64 28.7-64 64zM480 416h-144c-35.3 0-64 28.7-64 64v136.8l32-25.9v-110.9c0-17.7 14.3-32 32-32h144v16c0 35.3 28.7 64 64 64h288c35.3 0 64-28.7 64-64v-64c0-35.3-28.7-64-64-64h-288c-35.3 0-64 28.7-64 64v16zM544 464v-64h288v64h-288zM544 208v-64h288v64h-288zM160 720v-64h160v64h-160zM160 784h160c35.3 0 64-28.7 64-64v-64c0-35.3-28.7-64-64-64h-160c-35.3 0-64 28.7-64 64v64c0 35.3 28.7 64 64 64z" />
<glyph unicode="&#xe957;" glyph-name="tools" data-tags="tools" d="M761 146.7c-18.3-3-37 2.8-50.1 15.7s-19.1 31.2-16 49.1c3.8 23.2 23 42 46.7 45.9 18.4 3.1 37.1-2.7 50.3-15.6s19.1-31.3 15.9-49.3c-3.9-23.4-23.1-42.1-46.8-45.8zM895.4 182.8l27 16.5c4.3 2.6 6.4 7.6 5.3 12.4l-13.2 56.8c-1.1 4.8-5.2 8.4-10.3 9l-31.7 3.4c-3.2 0.3-6 1.9-8 4.3l-5.3 6.5c-2 2.4-2.9 5.5-2.5 8.6l3.6 31c0.6 4.9-2.1 9.7-6.6 11.8l-53.6 25.3c-4.5 2.1-10 1.2-13.6-2.3l-22.5-21.9c-2.2-2.2-5.2-3.4-8.4-3.4h-8.5c-3.2 0-6.2 1.2-8.4 3.4l-22.5 22.1c-3.6 3.5-9 4.4-13.6 2.3l-53.6-25.3c-4.5-2.2-7.2-6.9-6.6-11.8l3.6-31c0.4-3.1-0.5-6.1-2.5-8.6l-5.3-6.5c-2-2.4-4.8-4-8-4.3l-31.7-3.5c-5-0.5-9.1-4.1-10.3-9l-13.2-56.8c-1.1-4.8 1-9.8 5.3-12.4l27-16.6c2.7-1.6 4.6-4.3 5.3-7.3l1.9-8.1c0.7-3 0.2-6.2-1.5-8.8l-17-26.4c-2.7-4.2-2.4-9.6 0.8-13.5l37.1-45.5c3.2-3.9 8.5-5.4 13.2-3.7l30.1 10.4c3 1 6.3 0.9 9.1-0.5l7.7-3.6c2.9-1.4 5-3.7 6.1-6.7l10.5-29.5c1.7-4.7 6.2-7.8 11.2-7.8h59.5c5.1 0 9.6 3.2 11.2 7.8l10.5 29.5c1 2.9 3.2 5.3 6.1 6.7l7.7 3.6c2.8 1.4 6.1 1.5 9.1 0.5l30.1-10.4c4.8-1.6 10.1-0.2 13.2 3.7l37.1 45.5c3.2 3.9 3.4 9.3 0.8 13.5l-17 26.4c-1.7 2.6-2.3 5.8-1.6 8.8l1.9 8.1c0.4 3.1 2.3 5.7 5 7.3zM507.9 406l45.7-45.7 51.9 51.9c-2.8 25.4 5.6 51.6 24.8 71 19.4 19.4 45.7 27.6 71 24.8l226.9 226.9-127.1 126.9-226.7-226.7c2.8-25.3-5.4-51.6-24.8-71s-45.7-27.6-71-24.8l-51.9-51.9 45.7-45.7-224.1-224.1-8.2 8.2-43.1-34.7-72.3-114.2 18.4-18.6 114.2 72.3 34.8 43.1-8.3 8.2 224.1 224.1zM330.3 497c0.1-0.1 0.3-0.4 0.6-0.6l83.6-83.7 29.2 29.2-45.7 45.7 72.9 72.9 9.6-1c2.5-0.3 5-0.4 7.5-0.4 5 0 9.9 0.6 14.8 1.8l-53.8 53.6c-1 1.2-2.2 2-3.4 3.2 16.7 59.5 1.5 125.9-45.3 172.7-46.5 46.4-112.3 61.6-171.4 45.7l100.2-100.4-26.3-98.2-98.3-26.3-100.2 100.3c-15.9-59.2-0.7-125 45.7-171.5 48.6-48.7 118.9-63 180.3-43zM680.4 383.1l-53.9 53.9c-1.6-7.2-2-14.6-1.3-22.2l1.2-9.6-58.7-58.7-14.3-14.2-45.7 45.6-29.1-29.1 86.9-86.9c18.2 55.5 60.6 100.1 114.9 121.2z" />
<glyph unicode="&#xe958;" glyph-name="edit2" data-tags="edit2" d="M908.2 653.2l-191 191c-12.249 12.239-29.166 19.808-47.85 19.808s-35.601-7.569-47.85-19.808l-505.7-505.7c-12.234-12.248-19.8-29.162-19.8-47.842 0-0.020 0-0.041 0-0.061v0.003-213.5c0-24.908 20.192-45.1 45.1-45.1v0h213.5c0.017 0 0.037 0 0.058 0 18.68 0 35.594 7.566 47.843 19.801l505.699 505.699c12.239 12.249 19.808 29.166 19.808 47.85s-7.569 35.601-19.808 47.85v0zM163.7 99.7v190.9l11.2 11.2 190.9-190.9-11.2-11.2zM796.5 541.5l-191 191-47.8-47.8 191-191-335-335-191 191 446.7 446.6 190.9-190.9z" />
<glyph unicode="&#xe959;" glyph-name="warn1" data-tags="warn1" d="M1015.132 100.268l-442.127 765.367c-12.269 21.219-34.854 35.267-60.719 35.267s-48.45-14.048-60.54-34.931l-0.18-0.336-442.127-765.367c-5.84-10.038-9.287-22.093-9.287-34.952 0-38.835 31.439-70.327 70.253-70.414h884.007c38.713 0.231 70.007 31.667 70.007 70.413 0 12.86-3.447 24.915-9.468 35.29l0.181-0.337zM462.282 592.144c0 28.18 22.844 51.024 51.024 51.024v0c27.626-0.713 49.749-23.277 49.749-51.009 0-0.006 0-0.011 0-0.017v0.001-262.776c-4.893-23.482-25.418-40.871-50.004-40.871s-45.111 17.389-49.946 40.539l-0.058 0.332zM563.055 69.654h-102.049v102.049h102.049z" />
<glyph unicode="&#xe95a;" glyph-name="data-statistics" data-tags="data-statistics" d="M175.5 29c-17.67 0-32 14.33-32 32v234.26c0 17.67 14.33 32 32 32s32-14.33 32-32v-234.26c0-17.67-14.33-32-32-32zM399.83 29c-17.67 0-32 14.33-32 32v353.41c0 17.67 14.33 32 32 32s32-14.33 32-32v-353.41c0-17.67-14.32-32-32-32zM624.17 29c-17.67 0-32 14.33-32 32v294.21c0 17.67 14.33 32 32 32s32-14.33 32-32v-294.21c0-17.67-14.33-32-32-32zM848.5 29c-17.67 0-32 14.33-32 32v403c0 17.67 14.33 32 32 32s32-14.33 32-32v-403c0-17.67-14.33-32-32-32zM169.46 441c-8.22 0-16.43 3.14-22.68 9.43-12.47 12.53-12.42 32.79 0.11 45.25l229.9 228.77c10.99 10.94 28.24 12.42 40.94 3.52l167.47-117.41 200.95 195.39c12.67 12.32 32.93 12.040 45.25-0.63s12.040-32.93-0.63-45.25l-219.95-213.86c-11.020-10.71-28.090-12.080-40.68-3.26l-167.22 117.23-210.9-209.87c-6.24-6.21-14.4-9.31-22.56-9.31zM854.5 690.62c-16.2 0-30.1 12.26-31.79 28.72l-7.4 71.85-82.65-0.030c-17.67 0-31.99 14.32-32 31.99s14.32 32 31.99 32.010l111.53 0.040c16.4 0 30.15-12.4 31.83-28.72l10.36-100.59c1.81-17.58-10.97-33.3-28.55-35.11-1.11-0.1-2.22-0.16-3.32-0.16z" />
<glyph unicode="&#xe95b;" glyph-name="chart1" data-tags="chart1" d="M651.179 468.781h82.439l166.571 143.46c-7.276 17.114-15.429 33.572-24.684 49.401l-224.326-192.861zM531.948 869.718v-67.566l67.818 58.519c-22.080 4.63-44.649 7.953-67.817 9.047zM880.748 468.781l48.087 41.392c-2.92 20.213-7.669 39.825-13.417 58.99l-116.724-100.39 82.055 0.008zM743.066 800.917l-211.119-181.458v-70.952l254.771 219.553c-13.832 11.909-28.44 22.834-43.653 32.858zM649.346 847.267l-117.398-101.002v-70.962l172.018 148.306c-17.584 8.974-35.662 17.13-54.62 23.659zM851.848 697.472c-10.533 14.338-21.887 28.007-34.115 40.859l-285.787-245.702v-23.849h54.435l265.468 228.692zM492.052 869.718c-223.665-10.481-401.909-194.644-401.909-420.845 0-97.937 33.635-187.827 89.62-259.389l312.289 268.523v411.711zM519.328 428.942l-313.583-269.656c76.952-81.328 185.508-132.318 306.271-132.318 226.225 0 410.376 178.273 420.878 401.974h-413.568z" />
<glyph unicode="&#xe95c;" glyph-name="refuse-bin" data-tags="refuse-bin" d="M308.224 791.186v33.938c0 56.32 45.641 101.888 101.888 101.888h203.776c56.32 0 101.888-45.641 101.888-101.888v-33.938h237.714c18.764 0 33.975-15.211 33.975-33.975s-15.211-33.975-33.975-33.975h-882.981c-18.764 0-33.975 15.211-33.975 33.975s15.211 33.975 33.975 33.975h237.714zM376.174 791.186h271.653v33.938c0 18.744-15.195 33.938-33.938 33.938h-203.776c-18.744 0-33.938-15.195-33.938-33.938v0-33.938zM783.36 80.603v574.61c0 18.845 15.277 34.121 34.121 34.121s34.121-15.277 34.121-34.121v0-605.915c0-40.396-32.747-73.143-73.143-73.143v0h-532.919c-40.396 0-73.143 32.747-73.143 73.143v0 606.062c0 18.764 15.211 33.975 33.975 33.975s33.975-15.211 33.975-33.975v0-574.757c0-20.198 16.374-36.571 36.571-36.571h469.87c20.198 0 36.571 16.374 36.571 36.571v0zM376.174 621.349c18.725 0 33.938-15.214 33.938-33.938v-407.479c-0.003-18.741-15.197-33.932-33.938-33.932s-33.935 15.191-33.938 33.932v0 407.479c0 18.725 15.141 33.938 33.938 33.938zM512 621.349c18.725 0 33.938-15.214 33.938-33.938v-407.479c0-18.744-15.195-33.938-33.938-33.938s-33.938 15.195-33.938 33.938v0 407.479c0 18.725 15.214 33.938 33.938 33.938zM647.826 621.349c18.798 0 33.938-15.214 33.938-33.938v-407.479c-0.003-18.741-15.197-33.932-33.938-33.932s-33.935 15.191-33.938 33.932v0 407.479c0 18.725 15.214 33.938 33.938 33.938z" />
<glyph unicode="&#xe95d;" glyph-name="technology" data-tags="technology" d="M871.546 450.393c38.19 44.274 65.576 87.894 81.493 129.809 18.446 48.609 17.746 90.818-1.964 125.395-19.8 34.645-56.049 56.353-107.706 64.526-44.342 6.976-95.717 5.193-153.391-5.441-19.089 55.326-43.089 100.831-71.412 135.431-32.963 40.301-69.934 60.722-109.851 60.722-39.996 0-76.978-20.523-109.907-61.038-28.335-34.814-52.143-80.364-70.848-135.555-57.652 10.927-109.026 12.858-153.346 5.881-51.635-8.173-87.86-29.87-107.717-64.549-19.733-34.589-20.376-76.775-1.964-125.384 15.827-41.757 43.349-85.365 81.888-129.73-38.483-44.421-65.926-87.917-81.606-129.549-18.276-48.485-17.486-90.547 2.258-125.045 19.778-34.645 55.868-56.444 107.322-64.763 44.195-7.191 95.548-5.351 153.222 5.554 19.033-55.134 42.886-100.605 71.074-135.307 32.737-40.323 69.629-60.745 109.636-60.745 39.939 0 76.91 20.421 109.884 60.699 28.267 34.589 52.188 80.195 71.345 135.747 57.606-11.514 108.868-13.693 152.883-6.536 51.194 8.32 87.397 30.062 107.728 64.786 19.733 34.589 20.354 76.775 1.942 125.384-15.872 41.723-43.078 85.286-80.963 129.707zM443.207 42.554c-20.579 27.477-38.337 64.143-52.854 109.185 40.007 11.379 79.89 25.84 118.87 43.123 39.059-17.509 78.931-31.981 118.791-43.168-14.788-44.929-32.726-81.584-53.497-109.094-42.479-56.308-89.136-56.308-131.31-0.045zM574.494 858.593c20.794-27.725 38.754-64.459 53.52-109.399-37.174-10.487-76.989-24.813-118.78-42.762-40.594 17.283-80.624 31.857-119.333 43.45 14.766 44.489 32.67 81.030 53.328 108.756 42.231 56.556 88.763 56.545 131.265-0.045zM737.266 488.843c16.267-13.321 31.1-26.224 44.41-38.63-9.042-8.704-18.491-17.328-28.199-25.671-5.328-4.538-10.69-9.178-16.165-13.806 0.474 14.043 0.722 27.488 0.722 40.244-0.034 11.594-0.26 24.259-0.768 37.862zM730.663 577.64c-4.82 43.744-12.384 85.76-22.634 125.158 46.295 9.539 87.104 12.361 121.365 8.297 34.995-4.12 58.453-16.064 69.64-35.322 11.413-20.037 10.16-45.663-3.883-78.344-13.558-31.665-36.429-65.508-68.026-100.797-29.825 28.583-62.178 55.766-96.462 81.008zM509.234 267.843c-27.499 12.779-54.795 27.138-81.222 42.773-30.13 18.085-55.913 34.555-76.718 49.106-2.292 26.574-3.443 57.2-3.443 91.269 0 33.968 1.151 64.402 3.42 90.626 22.566 15.432 48.654 31.936 77.441 48.993 25.908 14.72 52.967 28.933 80.511 42.254 27.432-13.445 54.491-27.624 80.173-42.017 27.014-16.199 53.113-32.636 77.813-48.891 2.258-26.788 3.443-57.335 3.443-90.953 0-34.058-1.174-64.876-3.454-91.721-22.871-15.714-48.756-32.037-77.215-48.688-25.513-15.251-52.617-29.678-80.748-42.75zM622.934 648.431c-10.126 5.938-21.403 12.26-33.742 18.965 19.518 7.439 38.337 13.975 56.319 19.507 4.425-19.394 8.229-39.036 11.39-58.758-10.871 6.762-22.216 13.546-33.968 20.286zM372.855 686.745c18.288-5.791 36.835-12.293 55.552-19.462-11.594-6.141-22.702-12.429-33.234-18.784-11.831-6.785-23.164-13.546-33.945-20.286 3.285 19.936 7.157 39.499 11.627 58.532zM281.259 411.199c-16.403 13.208-31.428 26.28-44.952 39.161 13.795 12.971 28.73 25.874 44.76 38.641-0.384-12.406-0.553-25.072-0.553-38.020-0.023-13.727 0.237-27.014 0.745-39.781zM310.033 703.757c-10.216-40.617-17.689-82.6-22.261-125.102-35.368-26.337-67.89-53.836-96.993-81.967-31.62 35.232-54.558 69.076-68.331 100.831-14.122 32.568-15.319 58.092-3.579 78.129 11.424 19.688 34.227 31.349 69.685 35.718 10.736 1.309 22.182 1.976 34.058 1.976 26.246-0.023 55.608-3.24 87.42-9.584zM122.787 303.448c13.625 31.789 36.316 65.61 67.495 100.695 29.396-28.459 62.088-56.139 97.489-82.464 4.561-42.4 12-83.864 22.205-123.6-46.239-9.505-86.98-12.305-121.184-8.297-35.232 4.177-57.911 15.883-69.471 36.101-11.661 19.631-10.532 45.008 3.466 77.565zM394.134 253.202c10.611-6.581 22.137-13.14 34.498-19.721-19.292-7.439-38.043-13.863-56.094-19.191-4.391 19.315-8.117 38.72-11.153 58.035 10.916-6.785 21.9-13.185 32.749-19.123zM645.512 214.222c-18.164 5.34-36.925 11.774-56.207 19.202 10.961 5.87 22.555 12.384 34.589 19.518 11.266 6.502 22.239 13.027 32.884 19.518-3.364-20.805-7.157-40.267-11.266-58.239zM707.837 198c9.968 39.883 17.441 81.516 22.273 124.176 35.232 26.122 67.732 53.599 96.993 81.934 31.27-35.503 53.926-69.448 67.574-101.158 13.975-32.658 15.274-58.092 3.895-77.723-11.277-19.45-34.623-31.439-69.414-35.695-10.228-1.276-21.144-1.897-32.466-1.897-26.574 0-56.353 3.477-88.854 10.363z" />
<glyph unicode="&#xe95e;" glyph-name="qs" data-tags="qs" d="M601.96 90.588c192.439 43.033 336.325 214.858 336.325 420.279 0 237.82-192.857 430.687-430.687 430.687-237.82 0-430.687-192.857-430.687-430.687 0-162.727 90.31-304.333 223.505-377.619-61.885-21.708-106.577-57.177-122.934-74.054 95.333 14.325 143.152 21.855 282.602-69.076 104.974-68.432 360.596-33.494 439.888 49.557-116.071-42.965-186.907-2.258-298.011 50.912zM367.042 215.881c-27.973 15.014-60.858 46.126-68.568-2.088l-34.261 1.479v170.776h32.726c39.781-140.714 91.54-163.596 200.804-172.018 32.037-2.495 70.464 10.363 90.727 36.203 13.874 17.644 18.367 54.039 12.892 77.35-8.783 37.253-59.559 70.78-143.66 115.010-138.829 73.061-201.323 108.722-209.078 188.86-12.44 128.364 104.432 201.605 258.658 208.841 47.909 2.224 93.933-9.934 139.653-32.929 20.692-10.442 69.437-38.009 75.657-5.667h39.793v-165.267l-35.605 1.389c-13.276 115.179-117.335 167.942-210.478 167.942-77.204 0-101.519-43.394-93.064-97.817 5.78-37.298 36.372-66.841 135.815-117.787 134.392-68.884 210.094-123.476 212.623-215.773 3.409-124.334-92.895-185.067-247.133-191.908-58.43-2.608-111.002 8.478-157.5 33.403z" />
<glyph unicode="&#xe95f;" glyph-name="cloud2" data-tags="cloud2" d="M795.208 520.202c0.061 2.376 0.348 4.69 0.348 7.076 0 127.636-103.47 231.127-231.122 231.127-91.976 0-171.162-53.868-208.369-131.625-16.092 8.095-34.207 12.754-53.443 12.754-59.034 0-107.93-42.941-117.484-99.267-70.303-24.115-120.934-90.65-120.934-169.149 0-98.775 80.046-178.821 178.775-178.918l552.576 0.041c90.199 0.471 163.169 73.672 163.169 163.968 0.005 90.414-73.139 163.717-163.517 163.994v0z" />
<glyph unicode="&#xe960;" glyph-name="cloud-data" data-tags="cloud-data" horiz-adv-x="1408" d="M660.055 960c-208.942 0-379.735-157.076-394.563-356.009-153.62-42.455-265.492-172.631-265.492-326.661 0-181.668 155.668-330.941 352-341.33h660.050c218.522 0 395.95 181.524 395.95 405.33 0 215.772-173.798 391.47-392.96 404.142-64.64 126.976-199.040 214.528-354.985 214.528zM405.335 512c0 35.348 28.8 64 63.913 64h469.504c35.348 0 64-28.657 64-64s-28.652-64-64-64h-469.504c-35.313 0.046-63.913 28.687-63.913 64zM405.335 341.33c0 35.348 28.8 64 63.913 64h469.504c35.348 0 64-28.652 64-64 0-35.338-28.652-64-64-64h-469.504c-35.313 0.051-63.913 28.692-63.913 64zM405.335 170.67c0 35.343 28.8 64 63.913 64h469.504c35.348 0 64-28.662 64-64 0-35.348-28.652-64-64-64h-469.504c-35.313 0.046-63.913 28.687-63.913 64v0z" />
<glyph unicode="&#xe961;" glyph-name="chart3" data-tags="chart3" horiz-adv-x="1064" d="M439.711 339.267l-320.256 320c-159.263-184.131-159.263-455.905 0-640l320.256 320zM640.031 826.947v-468.675l-331.264-331.392c74.496-55.613 164.992-90.88 264.996-90.88 248.735 0 450.237 201.252 450.237 449.889 0.031 225.853-167.424 408.863-383.969 441.057zM512 447.488v512.512c-139.489-8.643-265.503-62.013-367.263-145.183l367.263-367.329z" />
<glyph unicode="&#xe962;" glyph-name="chart2" data-tags="chart2" horiz-adv-x="1025" d="M1024.558 63.79h-1024.558v768.42h64.036v-704.384h960.527v-64.036zM320.174 191.862h-128.067v256.138h128.072v-256.138zM512.282 191.862h-128.072v512.276h128.072v-512.276zM704.384 191.862h-128.072v384.21h128.072v-384.21zM896.492 191.862h-128.072v576.312h128.072v-576.312z" />
<glyph unicode="&#xe963;" glyph-name="edit" data-tags="edit" d="M684.203 842.752c15.893 15.872 42.155 15.36 58.923-1.408l90.517-90.517c16.661-16.661 17.344-42.987 1.429-58.923l-445.653-445.653c-7.936-7.915-23.104-16.747-34.219-19.776l-143.701-39.253c-21.909-5.995-35.115 7.104-29.568 28.949l37.248 146.773c2.773 10.944 11.563 26.347 19.392 34.176l445.653 445.653zM268.736 366.933c-2.901-2.901-8.107-12.075-9.131-16.021l-29.12-114.773 111.957 30.571c4.437 1.216 13.632 6.549 16.811 9.728l445.653 445.653-90.517 90.496-445.653-445.653zM682.795 781.013l90.517-90.517-30.187-30.187-90.496 90.517 30.165 30.165zM320.768 418.965l90.496-90.517-30.165-30.165-90.517 90.496 30.165 30.187zM170.667 85.333c0 11.776 9.429 21.333 21.461 21.333h661.077c11.782 0 21.333-9.551 21.333-21.333s-9.551-21.333-21.333-21.333v0h-661.077c-0.038 0-0.083 0-0.128 0-11.782 0-21.333 9.551-21.333 21.333 0 0 0 0 0 0v0z" />
<glyph unicode="&#xe964;" glyph-name="edit4" data-tags="edit4" d="M768 814.336l-384-384v-110.336h110.336l384 384-110.336 110.336zM798.165 904.832l170.667-170.667c7.729-7.716 12.51-18.382 12.51-30.165s-4.781-22.449-12.509-30.165l-426.668-426.668c-7.702-7.723-18.354-12.501-30.121-12.501-0.015 0-0.031 0-0.046 0h-170.664c-23.564 0-42.667 19.103-42.667 42.667v0 170.667c0 11.307 4.48 22.187 12.501 30.165l426.667 426.667c7.716 7.729 18.382 12.51 30.165 12.51s22.449-4.781 30.165-12.509l0.001-0.001zM398.507 832c23.561-0.004 42.66-19.105 42.66-42.667s-19.099-42.663-42.66-42.667h-227.84c-23.564 0-42.667-19.103-42.667-42.667v0-597.333c0-23.564 19.103-42.667 42.667-42.667v0h597.333c23.564 0 42.667 19.103 42.667 42.667v0 227.84c0.004 23.561 19.105 42.66 42.667 42.66s42.663-19.099 42.667-42.66v0-227.84c0-70.692-57.308-128-128-128v0h-597.333c-70.692 0-128 57.308-128 128v0 597.333c0 70.692 57.308 128 128 128v0h227.84z" />
<glyph unicode="&#xe965;" glyph-name="exchange" data-tags="exchange" d="M631.808 960h-236.032c-35.328 0-64-28.672-64-64v-236.032c0-35.328 28.672-64 64-64h236.032c35.328 0 64 28.672 64 64v236.032c0.512 35.328-28.672 64-64 64zM395.776 659.968v236.032h236.032v-236.032h-236.032zM631.808 300.544h-236.032c-35.328 0-64-28.672-64-64v-236.032c0-35.328 28.672-64 64-64h236.032c35.328 0 64 28.672 64 64v236.032c0.512 34.816-28.672 64-64 64zM395.776 0v236.032h236.032v-236.032h-236.032zM226.816 357.888c-17.92 0-32.256-14.336-32.256-32.256v-98.816c-102.4 48.128-153.088 167.936-113.664 276.48 25.6 69.632 82.944 123.392 154.112 144.384 16.896 5.12 26.624 23.040 21.504 39.936s-22.528 26.624-39.936 21.504c-90.624-27.136-163.84-95.744-196.096-184.32-49.664-136.704 11.776-287.744 138.752-352.256h-123.904c-17.92 0-32.256-14.336-32.256-32.256s14.336-32.256 32.256-32.256h223.232v217.088c0 18.432-14.336 32.768-31.744 32.768zM870.912 646.656h117.76c17.92 0 32.256 14.336 32.256 32.256s-14.336 32.256-32.256 32.256h-223.232v-217.088c0-17.92 14.336-32.256 32.256-32.256s32.256 14.336 32.256 32.256v101.376c102.4-48.128 153.088-167.936 113.664-276.48-25.088-69.12-82.944-123.392-154.112-144.384-16.896-5.12-26.624-23.040-21.504-39.936s22.528-26.624 39.936-21.504c90.624 27.136 163.84 95.744 196.096 184.32 48.128 134.656-10.752 282.624-133.12 349.184z" />
<glyph unicode="&#xe966;" glyph-name="collection4" data-tags="collection4" d="M512.888 896.966c-247.706 0-448.511-200.805-448.511-448.511s200.805-448.511 448.511-448.511 448.511 200.805 448.511 448.511-200.805 448.511-448.511 448.511zM692.33 430.026l-97.39-56.228 73.423-127.174c6.143-10.64 1.147-25.017-11.108-32.093-12.257-7.077-27.172-4.185-33.311 6.448l-73.428 127.182-97.428-56.25c-12.258-7.078-27.172-4.185-33.311 6.448-16.46 28.51-16.465 63.947-0.303 99.177 7.293 15.789 16.96 30.574 29.737 44.694l-45.723 77.826c-5.989-0.332-11.974-0.211-17.459 0.319-28.848 2.685-51.455 15.798-63.657 36.932-6.139 10.633-1.186 24.994 11.069 32.070l161.084 93.002c12.257 7.077 27.172 4.185 33.311-6.448 12.202-21.134 12.255-47.239 0.358-73.19-2.481-5.415-5.367-10.66-9.083-16.297l46.225-77.576c17.367 3.689 35.004 4.664 51.657 3.132l0.005-0.007c39.249-3.647 69.935-21.372 86.403-49.896 6.142-10.637 1.187-24.994-11.071-32.071z" />
<glyph unicode="&#xe967;" glyph-name="collection3S" data-tags="collection3S" horiz-adv-x="1025" d="M1023.488-12.826c0-12.794-5.117-26.099-14.841-35.822-17.911-17.911-46.057-20.47-66.527-5.117l-288.112 212.886-166.829-166.829c-16.376-16.376-41.963-19.446-61.921-7.676-12.794 8.188-112.584 76.762-75.226 229.261 0.512 2.559 0.512 5.117 1.023 8.188 0.512 6.141 1.023 13.305 2.559 20.982 5.117 32.24-20.47 89.555-62.945 139.194-40.428 47.592-87.508 78.297-120.26 78.297-7.676 0-15.864 0-23.54-0.512-30.705-1.023-77.785-3.070-112.584 31.728-41.451 41.451-45.033 107.466-7.676 153.011 0.512 1.023 1.535 1.535 2.559 2.559 24.052 24.564 275.83 276.342 278.389 278.901 21.493 21.493 50.663 33.775 81.367 33.775s59.362-11.77 80.856-33.775c34.799-34.799 33.263-82.391 31.728-113.607 0-7.164-0.512-15.352-0.512-23.028 0-30.705 21.493-67.55 60.898-103.884 55.268-50.663 126.401-81.879 158.641-79.32 10.235 1.023 28.146 3.070 30.705 3.582 149.429 36.846 217.491-62.945 225.167-74.715 12.282-20.47 9.211-46.569-7.164-62.945l-178.087-178.087c-10.235-10.235-26.099-10.235-36.334 0s-10.235 26.099 0 36.334l177.063 178.599c-5.117 7.676-54.757 79.832-171.434 51.174-2.559-0.512-23.54-3.070-35.822-4.606-51.174-4.094-136.124 35.822-198.045 92.626-35.31 32.24-77.273 83.414-77.273 141.241 0 7.676 0 16.376 0.512 24.564 1.535 32.24 1.023 57.827-16.888 75.738-11.77 11.77-27.634 18.423-45.033 18.423-16.888 0-32.752-6.653-45.033-18.935-2.559-1.535-270.713-269.689-278.389-277.877-19.958-24.052-17.911-60.898 5.117-83.926 17.911-17.911 43.498-18.423 75.226-16.888 8.7 0 17.399 0.512 25.075 0.512 48.104 0 107.978-35.822 159.152-96.208 41.963-49.639 83.926-122.819 74.715-180.646-1.023-6.141-1.535-12.282-2.047-17.399-0.512-3.070-0.512-6.653-1.023-9.211 0-2.559-0.512-4.606-1.535-7.164-29.169-117.701 43.498-167.34 51.686-172.97l182.181 182.693c8.7 8.7 23.028 10.235 33.263 2.559l306.023-226.191-173.993 238.985c-8.188 11.258-5.629 27.634 5.629 35.822s27.634 5.629 35.822-5.629l173.993-238.473c6.653-9.211 9.723-19.958 9.723-30.193zM396.602 941.577l48.616-30.705 25.587-63.968 23.028-127.936 84.438-79.32 107.466-51.174h186.787l71.644-56.292v-43.498l-150.965-166.317 62.433-88.532 88.532-146.871 53.733-110.025-23.028-20.47-330.075 227.726-191.904-189.345-56.292 43.498-25.587 97.231v148.406l-63.968 130.495-133.053 71.644-115.142 12.794-35.822 89.555z" />
</font>
</defs>
</svg>
