<?xml version="1.0" standalone="no"?>
<!DOCTYPE svg PUBLIC "-//W3C//DTD SVG 1.1//EN" "http://www.w3.org/Graphics/SVG/1.1/DTD/svg11.dtd" >
<svg xmlns="http://www.w3.org/2000/svg">
<metadata>Generated by IcoMoon</metadata>
<defs>
<font id="mobox_userfont" horiz-adv-x="1024">
<font-face units-per-em="1024" ascent="960" descent="-64" />
<missing-glyph horiz-adv-x="1024" />
<glyph unicode="&#x20;" horiz-adv-x="512" d="" />
<glyph unicode="&#xe900;" glyph-name="address_book" d="M192 960v-1024h768v1024h-768zM576 703.67c70.51 0 127.67-57.16 127.67-127.67s-57.16-127.67-127.67-127.67-127.67 57.16-127.67 127.67 57.16 127.67 127.67 127.67v0 0zM768 192h-384v64c0 70.696 57.304 128 128 128v0h128c70.696 0 128-57.304 128-128v-64zM64 926h96v-192h-96v192zM64 670h96v-192h-96v192zM64 414h96v-192h-96v192zM64 158h96v-192h-96v192z" />
<glyph unicode="&#xe901;" glyph-name="barcode" d="M0 832h128v-640h-128v640zM192 832h64v-640h-64v640zM320 832h64v-640h-64v640zM512 832h64v-640h-64v640zM768 832h64v-640h-64v640zM960 832h64v-640h-64v640zM640 832h32v-640h-32v640zM448 832h32v-640h-32v640zM864 832h32v-640h-32v640zM0 128h64v-64h-64v64zM192 128h64v-64h-64v64zM320 128h64v-64h-64v64zM640 128h64v-64h-64v64zM960 128h64v-64h-64v64zM768 128h128v-64h-128v64zM448 128h128v-64h-128v64z" />
<glyph unicode="&#xe902;" glyph-name="book" d="M896 832v-832h-672c-53.028 0-96 42.98-96 96s42.972 96 96 96h608v768h-640c-70.398 0-128-57.6-128-128v-768c0-70.4 57.602-128 128-128h768v896h-64zM224.056 128v0c-0.018-0.002-0.038 0-0.054 0-17.672 0-32-14.326-32-32s14.328-32 32-32c0.018 0 0.038 0.002 0.054 0.002v-0.002h607.89v64h-607.89z" />
<glyph unicode="&#xe903;" glyph-name="books" horiz-adv-x="1152" d="M256 832h-192c-17.6 0-32-14.4-32-32v-704c0-17.6 14.4-32 32-32h192c17.6 0 32 14.4 32 32v704c0 17.6-14.4 32-32 32zM224 640h-128v64h128v-64zM576 832h-192c-17.6 0-32-14.4-32-32v-704c0-17.6 14.4-32 32-32h192c17.6 0 32 14.4 32 32v704c0 17.6-14.4 32-32 32zM544 640h-128v64h128v-64zM797.088 782.52l-171.464-86.394c-15.714-7.918-22.096-27.258-14.178-42.976l287.978-571.548c7.918-15.716 27.258-22.098 42.974-14.178l171.464 86.392c15.714 7.92 22.096 27.26 14.178 42.972l-287.978 571.552c-7.918 15.718-27.258 22.1-42.974 14.18v0z" />
<glyph unicode="&#xe904;" glyph-name="Cabinet" d="M954.168 960h-888.699c-31.375 0-43.576-18.954-43.576-51.635v-933.146c0-32.901 12.201-39.219 43.576-39.219h888.699c31.811 0 47.928 6.318 47.928 39.219v933.146c0.225 32.681-16.118 51.635-47.928 51.635zM958.746-20.424h-893.276v307.635h893.276v-307.635zM958.746 328.172h-893.276v285.85h-3.922l3.922 2.176v-1.961h893.276v-286.065zM958.746 654.981h-893.276v261.443h-3.922v1.526h3.922v-1.526h893.276v-261.443zM784.451 763.914h87.148c12.032 0 21.786 9.754 21.786 21.786v21.786c0 12.032-9.754 21.786-21.786 21.786h-87.148c-12.037 0-21.791-9.754-21.791-21.786v-21.786c0-12.032 9.754-21.786 21.791-21.786zM784.451 437.105h87.148c12.032 0 21.786 9.754 21.786 21.786v21.786c0 12.032-9.754 21.786-21.786 21.786h-87.148c-12.037 0-21.791-9.754-21.791-21.786v-21.786c0-12.032 9.754-21.786 21.791-21.786zM784.451 110.3h87.148c12.032 0 21.786 9.748 21.786 21.786v21.786c0 12.037-9.754 21.791-21.786 21.791h-87.148c-12.037 0-21.791-9.754-21.791-21.791v-21.786c0-12.037 9.754-21.786 21.791-21.786z" />
<glyph unicode="&#xe905;" glyph-name="cabinet2" d="M792.561 896h-561.121c-39.982-0.020-72.397-32.42-72.438-72.402v-325.811h706.002v325.811c-0.051 39.982-32.466 72.376-72.443 72.402zM358.139 610.852c0-22.461-20.26-40.658-45.251-40.658s-45.251 18.202-45.251 40.658v135.89c0 22.461 20.26 40.658 45.251 40.658s45.251-18.202 45.251-40.658v-135.89zM159.002 117.678c0.046-39.972 32.43-72.356 72.402-72.402h2.662c9.953-33.521 45.199-52.618 78.715-42.665 20.521 6.093 36.572 22.144 42.665 42.665h313.001c9.953-33.521 45.199-52.618 78.715-42.665 20.521 6.093 36.572 22.144 42.665 42.665h2.662c39.967 0.051 72.351 32.435 72.402 72.402v343.91h-705.889v-343.91zM267.602 348.529c0 22.451 20.26 40.658 45.251 40.658s45.251-18.202 45.251-40.658v-135.89c0-22.451-20.26-40.658-45.251-40.658s-45.251 18.202-45.251 40.658v135.89z" />
<glyph unicode="&#xe906;" glyph-name="calendar" d="M350 576h128v-128h-128v128zM542 576h128v-128h-128v128zM734 576h128v-128h-128v128zM158 192h128v-128h-128v128zM350 192h128v-128h-128v128zM542 192h128v-128h-128v128zM350 384h128v-128h-128v128zM542 384h128v-128h-128v128zM734 384h128v-128h-128v128zM158 384h128v-128h-128v128zM862 960v-64h-128v64h-448v-64h-128v64h-128v-1024h960v1024h-128zM926 0h-832v704h832v-704z" />
<glyph unicode="&#xe907;" glyph-name="camera" d="M304 352c0-114.876 93.124-208 208-208s208 93.126 208 208c0 114.876-93.126 208-208 208-114.876 0-208-93.124-208-208zM960 704h-224c-16 64-32 128-96 128h-256c-64 0-80-64-96-128h-224c-35.2 0-64-28.8-64-64v-576c0-35.2 28.798-64 64-64h896c35.2 0 64 28.8 64 64v576c0 35.2-28.8 64-64 64zM512 68c-156.85 0-284 127.148-284 284s127.15 284 284 284c156.852 0 284-127.15 284-284s-127.146-284-284-284zM960 512h-128v64h128v-64z" />
<glyph unicode="&#xe908;" glyph-name="car" d="M1018.22 648.793c0 0-3.861 7.71-7.281 14.145-3.432 5.994-24.88 5.159-24.88 5.159s-56.207-2.574-72.101-4.719c-15.432-2.585-11.548-19.304-11.548-19.304l6.875-41.633-17.181-12.451c-2.574 2.156-4.278 3.432-4.278 3.432l-69.087 160.469c-59.616 33.471-278.436 33.471-307.618 33.471-28.741 0-247.55 0-307.189-33.471l-69.076-160.469c0 0-1.705-1.276-4.278-3.432l-17.17 12.451 6.852 41.633c0 0 3.872 16.719-11.582 19.304-15.861 2.145-72.067 4.719-72.067 4.719s-21.449 0.847-24.88-5.159c-3.432-6.446-7.293-14.145-7.293-14.145s-6.864-9.437 9.449-15.872c15.861-6.435 71.638-30.897 71.638-30.897s15.872-15.432 13.727-30.886c-4.719-2.122-10.307-4.29-15.861-6.435-34.329-11.582-57.922-86.652-57.922-177.594v-185.779l-0.429-0.44 15.443-2.134v-63.939c0-14.156 12-26.167 26.596-26.167h176.759c14.596 0 26.167 12.011 26.167 26.167v34.34c20.591-1.287 34.747-1.287 38.596 1.298 9.878 6.401 37.772 19.721 61.365 30.434h282.297c23.605-10.724 51.499-24.034 61.377-30.434 3.861-2.585 17.159-2.585 36.451-1.298v-34.34c0-14.156 12.022-26.167 26.167-26.167h177.188c14.179 0 26.156 12.011 26.156 26.167v63.465c11.165 1.727 17.61 2.585 17.61 2.585s0 94.803 0 186.219c0 90.953-23.616 166.023-57.945 177.594-5.577 2.145-11.153 4.301-15.849 6.435-2.179 15.466 13.705 30.886 13.705 30.886s55.789 24.463 71.683 30.897c16.301 6.457 9.415 15.895 9.415 15.895zM229.669 724.743c18.457 48.034 544.884 48.034 563.33 0l54.039-141.154c-149.293-21.878-522.115-21.878-671.442 0l54.073 141.154zM274.305 386.635c-28.73 0-130.848 7.744-130.848 7.744s-16.73 1.693-30.886 15.872c-14.167 14.167-41.622 74.641-41.622 74.641s-6.006 18.863 2.585 30.897c8.579 11.582 36.022-2.122 36.022-2.122l130.012-45.482c21.426-7.304 28.719-7.744 36.892-27.928l14.585-34.747c-0.011 0 12.429-18.875-16.741-18.875zM716.202 431.71l-18.017-36.485c0 0-4.312-9.878-20.162-9.878-111.149 0-222.252 0-333.367 0-15.872 0-20.162 9.878-20.162 9.878l-18.006 36.485c-3.861 9.832-4.719 14.585-2.596 17.17 2.574 3.003 9.437 0.429 9.437 0.429 71.65-22.284 324.325-22.284 396.008 0 0 0 6.864 2.574 9.437-0.429 2.145-2.585 1.298-7.338-2.574-17.17zM949.19 515.789c8.579-12.022 2.574-30.897 2.574-30.897s-27.443-60.474-41.599-74.641c-14.156-14.179-30.909-15.872-30.909-15.872s-102.095-7.744-130.859-7.744c-29.17 0-16.719 18.875-16.719 18.875l14.585 34.747c8.139 20.184 15.42 20.613 36.892 27.928l130.012 45.482c-0.034 0 27.443 13.705 36.022 2.122z" />
<glyph unicode="&#xe909;" glyph-name="chart" d="M1010.601 565.202c-44.298 189-193.198 337.7-382.3 381.501-2.898 0.701-5.699 0.998-8.402 0.998-19.302 0-35.901-15.698-35.901-35.999v-390.702h391.501c23.204 0 40.3 21.601 35.103 44.201v0zM950.502 448h-438.502v438.502c0 19.999-16.2 36.101-35.901 36.101-0.998 0-1.9 0-2.898-0.102-244.7-19.799-437.202-224.701-437.202-474.501 0-262.902 213.1-476.001 476.001-476.001 249.8 0 454.702 192.502 474.399 437.202 1.7 20.9-14.899 38.799-35.896 38.799z" />
<glyph unicode="&#xe90a;" glyph-name="chart2" horiz-adv-x="1025" d="M1024.558 63.79h-1024.558v768.42h64.036v-704.384h960.527v-64.036zM320.174 191.862h-128.067v256.138h128.072v-256.138zM512.282 191.862h-128.072v512.276h128.072v-512.276zM704.384 191.862h-128.072v384.21h128.072v-384.21zM896.492 191.862h-128.072v576.312h128.072v-576.312z" />
<glyph unicode="&#xe90b;" glyph-name="chart3" horiz-adv-x="1064" d="M439.711 339.267l-320.256 320c-159.263-184.131-159.263-455.905 0-640l320.256 320zM640.031 826.947v-468.675l-331.264-331.392c74.496-55.613 164.992-90.88 264.996-90.88 248.735 0 450.237 201.252 450.237 449.889 0.031 225.853-167.424 408.863-383.969 441.057zM512 447.488v512.512c-139.489-8.643-265.503-62.013-367.263-145.183l367.263-367.329z" />
<glyph unicode="&#xe90c;" glyph-name="chart-arc" d="M690.35 123.73l-85.76 148.48c41.81 30.72 70.82 78.51 76.8 133.12h171.94c-7.142-114.237-67.487-218.501-162.98-281.6zM554.67 660.055v171.945c183.46-11.095 330.24-157.865 341.33-341.335h-171.95c-9.81 89.17-80.215 159.575-169.38 169.39zM298.665 426.67c0-27.31 5.545-53.34 16.215-76.8l-148.48-85.76c-25.395 50.417-38.548 106.107-38.4 162.56 0 193.28 151.040 351.145 341.335 362.665v-171.945c-96-10.67-170.67-91.735-170.67-190.72zM490.665 64c-126.72 0-238.080 64-302.935 162.99l148.48 85.76c36.035-49.234 93.445-78.259 154.455-78.080 27.305 0 53.335 5.54 76.8 16.21l85.76-148.48c-49.065-24.75-104.105-38.4-162.56-38.4z" />
<glyph unicode="&#xe90d;" glyph-name="arrow2" d="M355.174 857.6l432.794-368.64-432.794-368.691v245.811c-79.206 0-45.722 3.738-78.643 0-226.458-25.702-275.354-327.68-275.354-327.68-24.986 585.984 353.997 573.44 353.997 573.44v245.76zM669.85 816.64l354.15-327.68-354.15-327.68v122.88l196.762 204.8-196.762 204.8v122.931z" />
<glyph unicode="&#xe90e;" glyph-name="ChartUp" d="M0 0h1024v-64h-1024v64zM0 960h64v-1024h-64v1024zM224 64h64v-64h-64v64zM352 64h64v-64h-64v64zM480 64h64v-64h-64v64zM608 64h64v-64h-64v64zM736 64h64v-64h-64v64zM864 64h64v-64h-64v64zM64.031 192h64v-64h-64v64zM64.031 320h64v-64h-64v64zM64.031 448h64v-64h-64v64zM64.031 576h64v-64h-64v64zM64.031 704h64v-64h-64v64zM128.031 768h-64v64h64v-64zM281.6 236.769l-51.2 38.461 211.968 282.368 163.584-130.719 267.556 267.745 45.281-45.251-308.065-308.255-156.769 125.281-172.355-229.632zM928.348 416h-64v224h-224v64h288v-288z" />
<glyph unicode="&#xe90f;" glyph-name="chemistry" d="M314.493 92.417h396.268l-87.363 252.732h-221.473zM667.197 685.808v148.729h24.034c25.659 0 46.431 20.071 46.431 45.731 0 25.625-20.771 45.697-46.431 45.697h-357.198c-25.648 0-46.431-20.071-46.431-45.697 0-25.659 20.783-45.731 46.431-45.731h28.436v-148.729l-228.563-656.507v-2.382c0-24.677 15.928-44.207 32.726-57.324 16.978-13.411 41.272-18.875 64.165-18.875h563.702c22.837 0 41.802 5.441 58.735 18.875 16.843 13.117 27.319 32.658 27.319 57.324v2.427l-213.357 656.462zM214.429 26.942l224.205 658.866v148.729h152.398v-148.729l222.444-658.934-599.047 0.068z" />
<glyph unicode="&#xe911;" glyph-name="cloud" horiz-adv-x="1424" d="M1134.996 588.247c-22.687 206.223-208.251 355.011-414.474 332.324-128.952-14.188-241.464-93.906-297.595-210.867-18.171 6.098-37.181 9.339-56.346 9.6-103.731 0-187.827-84.091-187.827-187.827 0.307-19.917 3.835-39.644 10.435-58.435-129.551-74.358-174.295-239.667-99.937-369.213 48.404-84.332 138.348-136.192 235.587-135.828h751.299c172.892 0.742 312.438 141.491 311.706 314.378-0.635 149.181-106.455 277.187-252.846 305.869zM1076.142 51.482h-751.304c-103.639 0.23-187.597 84.188-187.827 187.827-0.026 66.816 35.835 128.497 93.916 161.531 57.18 32.973 60.938 39.235 37.146 98.504-3.651 10.332-5.627 21.181-5.847 32.138 0 57.631 46.72 104.346 104.346 104.346 19.241 0.64 38.405-2.621 56.346-9.6 48-19.2 53.012 0 75.546 48.42 70.149 145.316 244.818 206.254 390.139 136.105 90.419-43.648 152.090-130.668 163.318-230.436 5.012-59.689 5.012-59.689 67.62-73.882 124.739-21.371 208.532-139.817 187.162-264.55-19.139-111.78-117.171-192.732-230.559-190.403z" />
<glyph unicode="&#xe912;" glyph-name="cloud_data" horiz-adv-x="1408" d="M660.055 960c-208.942 0-379.735-157.076-394.563-356.009-153.62-42.455-265.492-172.631-265.492-326.661 0-181.668 155.668-330.941 352-341.33h660.050c218.522 0 395.95 181.524 395.95 405.33 0 215.772-173.798 391.47-392.96 404.142-64.64 126.976-199.040 214.528-354.985 214.528zM405.335 512c0 35.348 28.8 64 63.913 64h469.504c35.348 0 64-28.657 64-64s-28.652-64-64-64h-469.504c-35.313 0.046-63.913 28.687-63.913 64zM405.335 341.33c0 35.348 28.8 64 63.913 64h469.504c35.348 0 64-28.652 64-64 0-35.338-28.652-64-64-64h-469.504c-35.313 0.051-63.913 28.692-63.913 64zM405.335 170.67c0 35.343 28.8 64 63.913 64h469.504c35.348 0 64-28.662 64-64 0-35.348-28.652-64-64-64h-469.504c-35.313 0.046-63.913 28.687-63.913 64v0z" />
<glyph unicode="&#xe913;" glyph-name="cloud2" d="M795.208 520.202c0.061 2.376 0.348 4.69 0.348 7.076 0 127.636-103.47 231.127-231.122 231.127-91.976 0-171.162-53.868-208.369-131.625-16.092 8.095-34.207 12.754-53.443 12.754-59.034 0-107.93-42.941-117.484-99.267-70.303-24.115-120.934-90.65-120.934-169.149 0-98.775 80.046-178.821 178.775-178.918l552.576 0.041c90.199 0.471 163.169 73.672 163.169 163.968 0.005 90.414-73.139 163.717-163.517 163.994v0z" />
<glyph unicode="&#xe914;" glyph-name="contract" d="M838.932 924.846h-653.87c-35.169 0-63.698-28.529-63.698-63.698v-826.301c0-35.164 28.534-63.698 63.698-63.698h653.87c35.21 0 63.698 28.534 63.698 63.698v826.301c0.005 35.169-28.488 63.698-63.698 63.698zM859.090 39.204c0-11.735-9.492-21.228-21.228-21.228h-653.297c-11.735 0-21.233 9.492-21.233 21.228v819.205c0 11.735 9.498 21.233 21.233 21.233h653.297c11.735 0 21.228-9.498 21.228-21.233v-819.205zM463.795 310.149l-35.4 71.741-35.4-71.741-79.13-11.489 57.252-55.818-13.501-78.838 70.769 37.238 70.774-37.238-13.501 78.838 57.267 55.818-79.13 11.489zM300.564 803.584h424.673v-44.252h-424.673v44.252zM300.564 695.629h424.673v-44.252h-424.673v44.252zM300.564 590.331h424.673v-44.252h-424.673v44.252zM548.506 468.695c29.194-16.338 34.504-27.863 34.504-27.863h142.228v44.206h-223.846c0-0.005 17.92-0.005 47.114-16.343v0zM426.414 462.93c-108.283 0-196.081-87.757-196.081-196.081 0-108.283 87.798-196.081 196.081-196.081 108.303 0 196.076 87.793 196.076 196.081 0 108.324-87.772 196.081-196.076 196.081zM426.414 97.311c-93.65 0-169.539 75.94-169.539 169.539 0 93.645 75.894 169.539 169.539 169.539 93.619 0 169.539-75.894 169.539-169.539-0.005-93.599-75.924-169.539-169.539-169.539z" />
<glyph unicode="&#xe915;" glyph-name="back" d="M444.331 448l225.835 225.835c7.72 7.72 12.495 18.385 12.495 30.165 0 23.561-19.1 42.66-42.66 42.66-11.78 0-22.445-4.775-30.165-12.495l-256-256c-7.729-7.716-12.51-18.382-12.51-30.165s4.781-22.449 12.509-30.165l256.001-256.001c7.72-7.72 18.385-12.495 30.165-12.495 23.561 0 42.66 19.1 42.66 42.66 0 11.78-4.775 22.445-12.495 30.165l-225.835 225.835z" />
<glyph unicode="&#xe916;" glyph-name="cooperate" d="M615.89 196.499c-13.761-5.486-24.147-7.055-35.176 5.938l-65.475 115.54c-6.536 11.526-21.178 15.612-32.737 9.065-11.537-6.525-15.601-21.189-9.065-32.737l47.232-83.333 0.768-1.422 0.023 0.023 12.011-20.342 8.907-15.048 1.321-2.292c1.897-2.28 3.816-4.493 5.78-6.457 16.132-16.098 33.482-21.121 48.858-21.121 17.599 0 32.636 6.356 40.436 9.641 1.343 0.598 2.45 1.061 3.5 1.422l-9.245 14.438-17.136 26.687zM497.855 168.604c-1.468-0.79-13.908-6.638-27.556 10.103l-0.248 0.463-39.996 69.629c-6.593 11.526-21.279 15.477-32.782 8.884-11.526-6.593-15.488-21.313-8.884-32.805l38.867-67.665-0.181-0.113 1.456-2.45 1.039-1.738c18.728-25.862 41.238-33.956 60.27-33.956 12.722 0 23.853 3.533 31.191 7.563l-19.992 36.338-3.183 5.746zM381.356 153.489c-12.022 0.090-27.522 4.617-38.89 23.842l-105.967 181.387h-52.865v293.608h154.102l38.099 48.045h-192.19v56.161h-164.003v-48.034l-1.050-412.445v-48.056h165.052v62.415h25.422l91.981-157.41c21.776-36.903 54.287-47.435 81.064-47.435 9.516 0 18.231 1.366 25.569 3.33l-26.325 44.59zM1016.753 668.841v48.045h-164.33v-48.056l-150.377 65.576v0.745l-186.772-0.124c-5.317-0.068-53.317-2.404-99.691-60.688l-129.369-168.642 6.468-13.332c2.438-5.046 25.208-49.58 70.713-60.372 6.491-1.569 13.005-2.303 19.575-2.303 22.002 0 44.41 8.613 66.852 25.75l88.278 89.328c13.953-1.208 38.19-3.308 57.595-4.933l149.688-286.056c-0.056-0.102-0.102-0.203-0.169-0.282-7.293-13.693-15.646-25.377-22.916-30.863-1.874-1.456-3.68-2.427-5.362-2.912-0.553-0.181-1.151-0.553-1.648-0.643-2.201-0.181-7.293 1.987-14.224 9.505l-96.936 151.619c-7.134 11.142-22.002 14.427-33.166 7.293-11.176-7.146-14.461-21.979-7.293-33.166l55.608-86.98 26.585-41.373 17.125-26.562 0.361-0.632c0.621-0.711 1.185-1.332 1.806-2.021 0.237-0.237 0.44-0.531 0.711-0.745 8.478-9.257 17.328-15.94 26.562-20.015 7.18-3.195 14.551-4.978 22.137-4.978 0.79 0 1.592 0.113 2.337 0.135 1.095 0.045 2.122 0.045 3.217 0.158 9.731 1.027 18.581 4.606 26.63 9.9 25.354 16.64 42.231 49.828 50.89 70.701l54.795 0.214v-43.631h165.357v48l-1.039 412.343zM852.423 300.039l-76.91-0.237-149.169 285.063 0.056 0.7c-13.038 0.835-94.566 7.959-95.39 8.026l-11.266 0.993-100.391-101.948c-16.515-12.293-31.496-17.023-44.669-13.953-13.129 3.048-24.079 13.648-31.134 22.826l109.918 143.254c31.857 40.019 61.738 42.175 62.19 42.242l175.009 0.124 161.779-70.69-0.023-316.4zM983.214 245.548h-92.409v430.8h92.409v-430.8z" />
<glyph unicode="&#xe917;" glyph-name="copy" d="M640 704v256h-448l-192-192v-576h384v-256h640v768h-384zM192 869.49v-101.49h-101.49l101.49 101.49zM64 256v448h192v192h320v-192l-192-192v-256h-320zM576 613.49v-101.49h-101.49l101.49 101.49zM960 0h-512v448h192v192h320v-640z" />
<glyph unicode="&#xe918;" glyph-name="cube" d="M544 29.148l365.732 199.424v363.428l-365.732-133.151v-429.701zM507.423 523.423l398.843 145.152-398.843 145.152-398.848-145.152 398.848-145.152zM982.851 667.423v-438.851c0-13.332-3.425-25.713-10.276-37.151-6.845-11.433-16.179-20.383-28.001-26.849l-402.268-219.423c-10.665-6.098-22.287-9.149-34.852-9.149s-24.182 3.052-34.847 9.149l-402.273 219.423c-11.817 6.487-21.151 15.437-28.001 26.849-6.845 11.412-10.271 23.793-10.271 37.151v438.851c0 15.232 4.383 29.138 13.148 41.728 8.771 12.585 20.383 21.535 34.852 26.849l402.268 146.273c8.387 3.052 16.768 4.577 25.155 4.577s16.768-1.526 25.155-4.577l402.273-146.273c14.49-5.335 26.102-14.285 34.852-26.849s13.128-26.476 13.148-41.728h-0.061z" />
<glyph unicode="&#xe919;" glyph-name="cubes" horiz-adv-x="1244" d="M365.716 27.428l219.428 109.711v179.43l-219.428-93.711v-195.43zM329.144 286.858l230.856 98.857-230.856 98.857-230.856-98.857 230.856-98.857zM950.861 27.428l219.423 109.711v179.43l-219.423-93.711v-195.43zM914.283 286.858l230.856 98.857-230.856 98.857-230.856-98.857 230.856-98.857zM658.284 454.287l219.428 94.29v151.997l-219.428-93.716v-152.571zM621.716 670.858l252.001 108.001-252.001 108.001-252.001-108.001 252.001-108.001zM1243.428 374.861v-237.722c0-13.711-3.62-26.47-10.86-38.282s-17.142-20.767-29.711-26.86l-256-128c-9.528-5.33-20.378-8.003-32.573-8.003-12.191 0-23.045 2.668-32.568 8.003l-256 128c-1.905 0.758-3.236 1.526-3.999 2.284-0.763-0.758-2.094-1.526-3.999-2.284l-256-128c-9.523-5.33-20.383-8.003-32.573-8.003s-23.045 2.668-32.568 8.003l-256 128c-12.575 6.093-22.477 15.048-29.716 26.86s-10.86 24.571-10.86 38.282v237.722c0 14.469 4.096 27.812 12.283 40.003 8.192 12.191 18.954 21.33 32.287 27.423l248.003 106.286v228.572c0 14.479 4.096 27.812 12.283 40.003s18.954 21.335 32.287 27.428l256 109.711c8.765 3.809 18.284 5.714 28.575 5.714 10.286 0 19.809-1.905 28.57-5.714l256-109.711c13.332-6.098 24.095-15.242 32.287-27.428s12.288-25.523 12.288-40.003v-228.572l248.003-106.286c13.711-6.093 24.571-15.237 32.568-27.423s11.996-25.533 11.996-40.003v0z" />
<glyph unicode="&#xe91a;" glyph-name="develop" d="M142.167 691.369c-0.005-9.426 7.634-17.070 17.060-17.075s17.070 7.634 17.075 17.060c0 0.005 0 0.010 0 0.015 0.005 9.426-7.634 17.070-17.060 17.075s-17.070-7.634-17.075-17.060c0 0 0-0.010 0-0.015zM256 691.369c-0.005-9.426 7.634-17.070 17.060-17.075s17.070 7.634 17.075 17.060c0 0.005 0 0.010 0 0.015 0.005 9.426-7.634 17.070-17.060 17.075s-17.070-7.634-17.075-17.055c0-0.005 0-0.015 0-0.020zM199.168 691.369c-0.005-9.426 7.634-17.070 17.060-17.075s17.070 7.634 17.075 17.060c0 0.005 0 0.010 0 0.015 0 9.426-7.634 17.070-17.060 17.075s-17.070-7.634-17.075-17.060c0 0 0-0.010 0-0.015zM341.335 443.73l51.2 51.2c6.692 6.692 6.692 17.541 0 24.233s-17.541 6.692-24.233 0l-63.488-63.657c-6.615-6.656-6.615-17.408 0-24.064l63.488-63.657c6.641-6.697 17.444-6.738 24.136-0.102 0.031 0.031 0.067 0.061 0.097 0.102 6.615 6.651 6.615 17.403 0 24.059l-51.2 51.886zM585.728 368.128c6.656-6.62 17.403-6.62 24.059 0l63.662 62.802c6.62 6.661 6.62 17.408 0 24.069l-63.657 63.657c-6.692 6.646-17.5 6.61-24.151-0.087-6.641-6.692-6.605-17.5 0.092-24.151l51.2-51.2-51.2-51.2c-6.513-6.63-6.513-17.254-0.005-23.89v0zM529.070 513.705c-8.161 4.726-18.601 1.94-23.327-6.211-0.020-0.036-0.041-0.072-0.061-0.102l-62.976-110.592c-5.059-7.956-2.708-18.499 5.243-23.562 7.956-5.053 18.504-2.703 23.562 5.248 0.256 0.399 0.497 0.819 0.722 1.239l63.657 110.080c4.823 8.1 2.171 18.57-5.929 23.398-0.292 0.184-0.589 0.348-0.891 0.502zM953.344 277.33c-2.063 0.020-3.896 1.311-4.608 3.246-6.789 17.864-16.415 34.519-28.498 49.326-1.172 1.69-1.172 3.937 0 5.632 10.824 18.76 4.403 42.742-14.336 53.591l-12.8 7.68v311.634c0 28.278-22.927 51.2-51.2 51.2v0h-705.367c-28.273 0-51.2-22.922-51.2-51.2v-432.471c0.097-21.924 17.843-39.675 39.767-39.772h233.298l-17.065-63.14h-22.697c-34.222-0.026-63.949-23.537-71.849-56.832h-41.989c-9.426-0.015-17.055-7.665-17.044-17.096 0.010-9.405 7.634-17.024 17.044-17.039h434.688c-0.292-4.081 0.108-8.177 1.188-12.119 2.591-10.112 9.18-18.739 18.263-23.89l36.009-20.818c18.801-10.793 42.793-4.301 53.586 14.5 0 0 0 0 0.005 0.005 1.132 1.782 3.205 2.714 5.289 2.391 18.744-3.246 37.914-3.246 56.658 0 2.125 0.343 4.244-0.681 5.294-2.56 7.081-12.124 20.091-19.538 34.13-19.456 6.881-0.072 13.655 1.7 19.63 5.12l36.009 20.818c9.032 5.212 15.601 13.809 18.258 23.89 2.744 10.030 1.331 20.736-3.932 29.701-1.198 1.751-1.198 4.055 0 5.801 12.052 14.771 21.668 31.36 28.503 49.157 0.666 1.966 2.529 3.277 4.603 3.246 21.642 0.092 39.158 17.608 39.255 39.25v41.641c-0.343 21.274-17.608 38.385-38.892 38.564zM119.465 708.439c0 9.426 7.639 17.065 17.065 17.065h705.367c9.426 0 17.065-7.644 17.065-17.065v-51.2h-739.497v51.2zM125.097 270.336c-3.108 0-5.632 2.524-5.632 5.637v0 347.131h739.497v-209.234c-16.573 4.398-34.089-2.519-43.177-17.070-1.091-1.72-3.118-2.601-5.12-2.222-18.765 3.077-37.898 3.077-56.663 0-2.007-0.435-4.065 0.461-5.12 2.222-10.732 18.729-34.616 25.211-53.34 14.479-0.087-0.051-0.164-0.097-0.251-0.143l-36.009-20.818c-9.057-5.094-15.657-13.665-18.258-23.726-2.729-10.061-1.382-20.792 3.753-29.865 1.28-1.654 1.28-3.973 0-5.637-12.088-14.802-21.709-31.457-28.498-49.321-0.712-1.935-2.55-3.226-4.608-3.241-8.361-0.015-16.497-2.703-23.209-7.68l-463.365-0.512zM580.27 173.056h-204.8l17.065 63.145h179.2v-39.081c0.108-8.74 3.103-17.203 8.535-24.064zM318.807 138.921h303.785c3.901-7.864 8.351-15.452 13.317-22.697h-353.116c6.574 13.834 20.516 22.666 35.84 22.697h0.174zM958.464 197.12c0-2.831-2.294-5.12-5.12-5.12-16.276-0.041-30.843-10.071-36.695-25.262-5.453-14.392-13.174-27.812-22.871-39.767-10.23-12.636-11.648-30.254-3.579-44.375 0.548-1.188 0.548-2.56 0-3.748-0.302-1.372-1.172-2.55-2.391-3.246l-35.502-20.137c-2.468-1.382-5.591-0.492-6.963 1.981-0.010 0.020-0.026 0.046-0.036 0.067-8.259 14.080-24.34 21.617-40.443 18.944-15.027-2.56-30.377-2.56-45.394 0-16.143 2.637-32.241-4.972-40.448-19.113-1.469-2.376-4.541-3.195-6.999-1.874l-36.009 20.818c-1.219 0.691-2.089 1.869-2.391 3.241-0.553 1.188-0.553 2.565 0 3.753 7.977 14.136 6.554 31.698-3.579 44.375-9.779 11.919-17.567 25.349-23.040 39.767-5.862 14.776-20.122 24.504-36.009 24.576-2.831 0-5.12 2.289-5.12 5.12v41.641c-0.102 2.734 2.038 5.028 4.772 5.12 0.113 0.010 0.23 0.010 0.348 0 16.22 0.067 30.735 10.102 36.521 25.262 5.443 14.433 13.22 27.868 23.040 39.772 10.138 12.672 11.556 30.228 3.579 44.37-0.558 1.249-0.558 2.678 0 3.927 0.287 1.336 1.167 2.468 2.391 3.077l36.009 20.818c0.84 0.23 1.725 0.23 2.56 0 1.741-0.020 3.343-0.922 4.27-2.391 8.248-14.111 24.31-21.699 40.448-19.113 15.022 2.56 30.372 2.56 45.394 0 16.246-2.196 32.164 5.806 40.105 20.137 1.393 2.355 4.429 3.128 6.779 1.741 0.020-0.010 0.031-0.020 0.051-0.031l36.009-20.818c1.229-0.599 2.109-1.736 2.391-3.072 0.558-1.249 0.558-2.678 0-3.932-8.038-14.060-6.62-31.621 3.579-44.201 9.702-12.012 17.418-25.492 22.871-39.941 5.509-15.442 19.963-25.892 36.357-26.281 2.729 0.097 5.023-2.038 5.12-4.772 0.005-0.118 0.005-0.236 0-0.348v-40.965zM782.167 295.424c-42.793 0-77.486-34.688-77.486-77.486 0-42.788 34.688-77.481 77.486-77.481s77.486 34.688 77.486 77.481c-0.005 42.798-34.693 77.486-77.486 77.486v0zM782.167 174.592c-23.941 0-43.351 19.41-43.351 43.351s19.41 43.351 43.351 43.351c23.946 0 43.351-19.41 43.351-43.351-0.184-23.803-19.538-43.008-43.351-43.008v-0.343z" />
<glyph unicode="&#xe91b;" glyph-name="disk" d="M936.259 701.522l-160.748 160.753c-4.664 4.664-10.875 7.24-17.48 7.24h-607.831c-32.645 0-59.208-26.563-59.208-59.223v-734.080c0-32.66 26.563-59.223 59.208-59.223h734.080c32.655 0 59.218 26.563 59.218 59.223v607.841c0 6.502-2.632 12.867-7.24 17.469v0 0zM617.242 820.096h53.581v-182.738h-53.581v182.738zM362.619 820.096h205.204v-182.738h-205.204v182.738zM755.379 66.406h-460.585v259.773c0 47.58 38.707 86.292 86.287 86.292h288c47.585 0 86.292-38.712 86.292-86.292v-259.773h0.005zM894.085 76.211c0-5.412-4.393-9.81-9.805-9.81h-79.473v259.779c0 74.824-60.887 135.7-135.716 135.7h-288.005c-74.829 0-135.7-60.877-135.7-135.7v-259.779h-95.181c-5.396 0-9.789 4.398-9.789 9.81v734.075c0 5.407 4.393 9.81 9.789 9.81h163.005v-184.858c0-26.081 21.212-47.299 47.283-47.299h312.468c26.071 0 47.283 21.217 47.283 47.299v184.858h27.566l146.278-146.273-0.005-597.612z" />
<glyph unicode="&#xe91c;" glyph-name="disk2" d="M288.768 407.040h445.783v-371.369h-445.783v371.369zM748.887 860.329h-19.113v-218.455c0-34.816-28.672-63.488-63.488-63.488h-308.567c-34.816 0-63.488 28.672-63.488 63.488v218.455h-150.871c-24.576 0-44.375-19.799-44.375-44.375v-736.594c0-24.576 19.799-44.37 44.375-44.37h77.143v376.832c0 34.816 28.672 63.488 63.488 63.488h455.337c34.816 0 63.483-28.672 63.483-63.488v-376.151h77.829c24.576 0 44.37 19.799 44.37 44.37v604.846l-176.123 175.442zM362.496 860.329h192.512v-213.673h-192.512v213.673zM623.273 860.329h38.231v-213.673h-38.231v213.673z" />
<glyph unicode="&#xe91d;" glyph-name="doctor" d="M945.085 593.357l-425.974 183.194c-2.56 1.111-5.33 1.684-8.12 1.69-2.765 0-5.524-0.563-8.146-1.69l-425.974-183.194c-8.98-3.845-14.93-13.655-14.93-24.591 0-10.957 5.949-20.741 14.93-24.607l425.964-183.199c5.187-2.268 11.085-2.268 16.276 0l331.182 142.433v-145.71c-17.751-9.4-30.080-29.85-30.080-53.632s12.329-44.227 30.080-53.627v-50.836h43.628v50.826c17.766 9.4 30.106 29.85 30.106 53.637s-12.339 44.242-30.106 53.642v164.46l51.164 22.006c8.975 3.866 14.925 13.655 14.925 24.607-0.005 10.936-5.955 20.746-14.925 24.591v0zM510.986 324.188c-6.548 0.010-13.025 1.362-19.031 3.958l-265.549 114.222v-157.696c0-129.167 193.659-167.941 254.208-167.941h60.692c45.353 0 254.223 38.774 254.223 167.941v157.691l-265.554-114.212c-6.001-2.606-12.462-3.948-19-3.958h0.010z" />
<glyph unicode="&#xe91e;" glyph-name="excel" d="M728.346 895.78h-504.289v-257.116h68.69v188.319h378.849v-187.781h186.916v-569.774h-565.76v84.27h-0.717v68.797h0.717v53.048h-68.695v-274.908h703.135v702.879l-198.845 192.266zM660.275 541.599h129.213v-67.077h-129.213v67.077zM660.275 381.614h129.213v-67.077h-129.213v67.077zM660.275 221.629h129.213v-67.077h-129.213v67.077zM586.148 551.214h-68.69v-328.724h-225.434v-68.797h294.124v397.522zM98.007 638.659v-363.121h362.547v363.121h-362.547zM411.827 345.119l-85.786 0.722-49.766 59.95-49.766-59.95-85.786-0.722 93.844 110.915-93.85 113.044 81.807-0.225 53.75-63.524 53.75 63.524 81.807 0.225-93.85-113.044 93.844-110.915z" />
<glyph unicode="&#xe91f;" glyph-name="factory" d="M271.787 387.504c-5.046 131.92-15.454 340.818-34.871 517.531h7.778c7.225 0 13.095 5.87 13.095 13.084s-5.881 13.095-13.095 13.095h-96.677c-7.213 0-13.095-5.881-13.095-13.095s5.881-13.084 13.095-13.084h7.789c-19.417-176.714-29.825-385.623-34.893-517.531h150.874zM929.773 390.789l-266.47 102.073-266.459-102.073v-33.482h-370.27v-392.204h968.967v392.204h-65.768v33.482zM206.538 32.011h-101.508v101.486h101.508v-101.486zM206.538 188.89h-101.508v101.508h101.508v-101.508zM384.167 32.011h-101.508v101.486h101.508v-101.486zM384.167 188.89h-101.508v101.508h101.508v-101.508zM561.817 32.011h-101.497v101.486h101.497v-101.486zM561.817 188.89h-101.497v101.508h101.497v-101.508zM739.423 32.011h-101.508v101.486h101.508v-101.486zM739.423 188.89h-101.508v101.508h101.508v-101.508zM917.085 32.011h-101.497v101.486h101.497v-101.486zM917.085 188.89h-101.497v101.508h101.497v-101.508z" />
<glyph unicode="&#xe920;" glyph-name="factory2" horiz-adv-x="1026" d="M213.54 511.375c-8.76 0-17.403 4.029-22.994 11.633-9.324 12.692-6.595 30.531 6.093 39.854l213.816 157.092c8.658 6.364 20.301 7.311 29.885 2.458 9.59-4.854 15.77-14.689 15.77-25.436v-100.767l168.294 123.74c8.668 6.364 21.212 7.311 30.781 2.458 9.6-4.854 16.671-14.689 16.671-25.436v-100.767l167.332 123.74c8.658 6.364 19.338 7.311 28.918 2.458 9.59-4.854 14.802-14.689 14.802-25.436v-157.092c0-15.744-12.979-28.508-28.718-28.508s-28.718 12.764-28.718 28.508v100.782l-167.941-123.745c-8.658-6.369-19.61-7.316-29.199-2.458-9.6 4.859-15.089 14.689-15.089 25.436v100.767l-168.74-123.745c-8.658-6.369-20.393-7.316-29.983-2.458-9.595 4.859-15.862 14.689-15.862 25.436v100.767l-168.346-123.745c-5.084-3.732-10.911-5.535-16.773-5.535zM783.688-30.29h-526.397c-15.744 0-28.508 12.769-28.508 28.518v201.928c0 15.739 12.764 28.508 28.508 28.508h526.403c15.739 0 28.508-12.769 28.508-28.508v-201.928c0-15.749-12.769-28.518-28.513-28.518zM285.798 26.742h469.381v144.911h-469.381v-144.911zM997.499-31.519h-969.288c-15.744 0-28.211 13.998-28.211 29.752v912.266c0 15.744 12.467 25.303 28.211 25.303h185.308c15.744 0 28.022-9.559 28.022-25.303v-370.611c0-15.744-12.396-28.503-28.14-28.503s-28.14 12.759-28.14 28.503v339.635h-126.638v-854.764h909.875v485.422h-113.541c-15.749 0-28.508 11.812-28.508 27.551 0 15.744 12.759 27.556 28.508 27.556h142.541c15.749 0 28.452-9.661 28.452-25.4v-541.655c0-15.754-12.703-29.752-28.452-29.752zM493.066 385.608h60.518v-60.508h-60.518v60.508zM753.429 385.608h60.508v-60.508h-60.508v60.508zM232.709 385.608h60.508v-60.508h-60.508v60.508z" />
<glyph unicode="&#xe921;" glyph-name="file_ok" d="M683.858 542.208h-448.85v-57.856h448.855v57.856zM235.008 353.961h420.014v57.861h-420.014v-57.861zM235.008 223.57h289.111v57.692h-289.111v-57.692zM235.008 672.599v-57.856h246.103v57.856h-246.103zM147.799 832.169h405.842v-217.257h217.431v-280.402h57.692v319.314l-221.189 236.201h-466.775c-27.991 0-50.519-22.702-50.519-50.519v-782.341c0-27.986 22.702-50.683 50.519-50.683h383.488v57.518h-376.489v768.169zM611.502 672.599v117.586l109.737-117.417h-109.742v-0.169zM927.913 322.56c-13.993 10.578-33.966 8.018-44.713-5.97l-177.152-232.11-112.128 98.13c-13.312 11.612-33.449 10.24-44.887-3.072-11.607-13.312-10.24-33.449 3.077-45.056l137.723-120.489c13.824-12.114 35.154-10.071 46.418 4.603l197.806 259.077c10.578 13.993 8.018 33.966-5.975 44.713v0.174h-0.169z" />
<glyph unicode="&#xe922;" glyph-name="file-music" d="M917.806 730.924c-22.208 30.292-53.174 65.7-87.178 99.704s-69.412 64.964-99.704 87.178c-51.574 37.82-76.592 42.194-90.924 42.194h-496c-44.112 0-80-35.888-80-80v-864c0-44.112 35.884-80 80-80h736c44.112 0 80 35.888 80 80v624c0 14.332-4.372 39.35-42.194 90.924v0 0zM785.374 785.374c30.7-30.7 54.8-58.398 72.58-81.374h-153.954v153.946c22.98-17.78 50.678-41.878 81.374-72.572v0 0zM896 16c0-8.672-7.328-16-16-16h-736c-8.672 0-16 7.328-16 16v864c0 8.672 7.328 16 16 16 0 0 495.956 0.002 496 0v-224c0-17.672 14.322-32 32-32h224v-624zM756.288 568.748c-7.414 6.080-17.164 8.514-26.562 6.632l-320-64c-14.958-2.994-25.726-16.126-25.726-31.38v-236.876c-18.832 8.172-40.678 12.876-64 12.876-70.694 0-128-42.98-128-96s57.306-96 128-96c70.692 0 128 42.98 128 96v229.766l256 51.204v-133.844c-18.832 8.176-40.68 12.876-64 12.876-70.694 0-128-42.98-128-96s57.306-96 128-96c70.692 0 128 42.98 128 96v319.998c0 9.586-4.298 18.668-11.712 24.748v0z" />
<glyph unicode="&#xe923;" glyph-name="file-picture" d="M832 64h-640v128l192 320 263-320 185 128v-256zM832 480c0-53.020-42.98-96-96-96-53.024 0-96 42.98-96 96s42.976 96 96 96c53.020 0 96-42.98 96-96zM917.806 730.924c-22.21 30.292-53.174 65.7-87.178 99.704s-69.412 64.964-99.704 87.178c-51.574 37.82-76.592 42.194-90.924 42.194h-496c-44.112 0-80-35.888-80-80v-864c0-44.112 35.886-80 80-80h736c44.112 0 80 35.888 80 80v624c0 14.332-4.372 39.35-42.194 90.924v0zM785.374 785.374c30.7-30.7 54.8-58.398 72.58-81.374h-153.954v153.946c22.982-17.78 50.678-41.878 81.374-72.572v0zM896 16c0-8.672-7.328-16-16-16h-736c-8.672 0-16 7.328-16 16v864c0 8.672 7.328 16 16 16 0 0 495.956 0.002 496 0v-224c0-17.672 14.324-32 32-32h224v-624z" />
<glyph unicode="&#xe924;" glyph-name="file-play2" d="M384 576l320-224-320-224v448zM917.806 730.924c-22.21 30.292-53.174 65.7-87.178 99.704s-69.412 64.964-99.704 87.178c-51.574 37.82-76.592 42.194-90.924 42.194h-496c-44.112 0-80-35.888-80-80v-864c0-44.112 35.886-80 80-80h736c44.112 0 80 35.888 80 80v624c0 14.332-4.372 39.35-42.194 90.924v0zM785.374 785.374c30.7-30.7 54.8-58.398 72.58-81.374h-153.954v153.946c22.982-17.78 50.678-41.878 81.374-72.572v0zM896 16c0-8.672-7.328-16-16-16h-736c-8.672 0-16 7.328-16 16v864c0 8.672 7.328 16 16 16 0 0 495.956 0.002 496 0v-224c0-17.672 14.324-32 32-32h224v-624z" />
<glyph unicode="&#xe925;" glyph-name="cabinet3" horiz-adv-x="1027" d="M774.702 449.802h-494.7c-11.899 0-21.601 9.702-21.601 21.601v276.198c0 12.001 9.702 21.601 21.601 21.601h494.7c12.001 0 21.601-9.702 21.601-21.601v-276.101c-0.005-12.001-9.605-21.699-21.601-21.699zM301.599 493.102h451.4v232.796h-451.4v-232.796zM588.298 587.899h-121.999c-11.899 0-21.601 9.702-21.601 21.601s9.702 21.601 21.601 21.601h121.999c12.001 0 21.601-9.702 21.601-21.601 0.102-11.899-9.6-21.601-21.601-21.601zM588.298 77.102h-121.999c-11.899 0-21.601 9.702-21.601 21.601s9.702 21.601 21.601 21.601h121.999c12.001 0 21.601-9.702 21.601-21.601 0.102-12.001-9.6-21.601-21.601-21.601zM339.502 228.9c-8.499 0-16.599 5.1-20.101 13.501-4.5 11.1 0.799 23.7 11.899 28.201l322.299 131.799c24.003 10.501 45 1.5 54.001-21.002l58.9-122.102c4.803-10.9-0.102-23.7-10.998-28.498s-23.7 0.102-28.498 10.998l-43.1 97.398c-5.898 13.199-21.202 19.4-34.601 13.998l-301.701-122.691c-2.601-1.004-5.402-1.603-8.1-1.603zM894.1 844.401v1.198c0 0.399-0.102 0.799-0.102 1.198 0 0.302-0.102 0.599-0.102 0.901-0.102 0.399-0.2 0.901-0.2 1.3 0 0.2-0.102 0.399-0.102 0.599-0.901 3.4-2.499 6.6-4.9 9.201l-61.901 71.101c-14.3 14.1-28.8 28.001-43.802 28.001h-507.991c-17.5 0-30.3-10.998-34.401-15.498l-74.501-83.702c0 0 0-0.102-0.102-0.102-0.399-0.399-0.799-0.901-1.101-1.398l-0.2-0.2c-0.399-0.502-0.701-0.998-0.998-1.5 0-0.102-0.102-0.102-0.102-0.2-0.302-0.502-0.599-1.101-0.901-1.603v-0.102c-0.799-1.7-1.5-3.599-1.802-5.499l-0.302-1.802v-0.2c0-0.599-0.102-1.198-0.102-1.802v-800.502c0-33.7 27.402-61.102 61.102-61.102h25.6c6.098 0 10.998-4.9 10.998-10.998v-10.998c0-12.001 9.702-21.699 21.699-21.699h494.7c11.899 0 21.601 9.702 21.601 21.601v10.998c0 6.098 4.9 10.998 10.998 10.998h25.8c33.7 0 61.102 27.402 61.102 61.102v800.707zM258.099 896.2c10.501 11.699 25.498 18.401 41.298 18.401h455.9c15.8 0 30.802-6.702 41.298-18.401s2.202-30.403-13.501-30.403h-511.396c-15.8 0.005-24.1 18.703-13.599 30.403zM753.101-6.702c0-6.098-4.9-10.998-10.998-10.998h-429.404c-6.098 0-10.998 4.9-10.998 10.998v235.602c0 0 0 0.102 0.102 0.102h451.2c0 0 0.102 0 0.102-0.102v-235.602zM811.402 25.999h-15.099v224.502c0 12.001-9.702 21.699-21.699 21.699h-494.505c-12.001 0-21.699-9.702-21.699-21.699v-224.502h-15.002c-21.801 0-39.501 17.7-39.501 39.501v727.199c0 16.502 13.399 29.901 29.901 29.901h587.203c16.502 0 29.901-13.399 29.901-29.901v-727.199c-0.005-21.801-17.705-39.501-39.501-39.501z" />
<glyph unicode="&#xe926;" glyph-name="seal" d="M632.422 691.098h-426.665c-14.136 0.005-25.595 11.474-25.59 25.61 0.005 14.126 11.459 25.585 25.59 25.59h426.665c14.141-0.005 25.6-11.474 25.59-25.61-0.005-14.131-11.464-25.585-25.59-25.59zM333.276 31.539h-211.215c-67.379 0.077-121.984 54.682-122.061 122.061v684.339c0.077 67.379 54.682 121.984 122.061 122.061h588.698c67.379-0.077 121.984-54.682 122.061-122.061v-215.383c0-14.136-11.459-25.6-25.6-25.6s-25.6 11.464-25.6 25.6v215.383c-0.061 39.112-31.749 70.804-70.861 70.861h-588.698c-39.101-0.077-70.784-31.759-70.861-70.861v-684.339c0-39.081 31.811-70.861 70.861-70.861h211.215c14.141 0 25.6-11.459 25.6-25.6s-11.459-25.6-25.6-25.6zM457.933 523.366h-256c-14.136 0-25.6 11.464-25.6 25.6 0 14.141 11.464 25.6 25.6 25.6h256c14.141 0 25.6-11.459 25.6-25.6s-11.459-25.6-25.6-25.6zM327.168 364.477h-119.465c-14.141 0-25.6 11.464-25.6 25.6 0 14.141 11.459 25.6 25.6 25.6h119.465c14.141 0 25.6-11.459 25.6-25.6 0-14.136-11.459-25.6-25.6-25.6zM719.8-59.904c-164.69 0-298.665 133.975-298.665 298.665 0 164.695 133.975 298.67 298.665 298.67 164.7 0 298.67-133.975 298.67-298.67 0-164.69-133.97-298.665-298.67-298.665v0zM719.8 486.231c-136.458 0-247.465-111.002-247.465-247.47 0-136.458 111.002-247.465 247.465-247.465 136.468 0 247.47 111.007 247.47 247.465 0 136.468-111.002 247.47-247.47 247.47zM852.792 301.332l-70.728 10.271-31.672 64.108c-5.699 11.689-17.582 19.092-30.592 19.046h-0.031c-13 0.031-24.873-7.363-30.587-19.046l-31.642-64.108-70.758-10.271c-12.933-1.91-23.516-10.819-27.546-23.245s-0.722-25.841 8.668-34.985l51.169-49.869-12.088-70.451c-1.275-7.409-0.072-15.043 3.43-21.693 8.781-16.686 29.42-23.096 46.1-14.316l63.278 33.28 63.288-33.28c4.884-2.596 10.337-3.953 15.872-3.958 7.199 0.010 14.218 2.299 20.035 6.548 10.547 7.629 15.826 20.588 13.619 33.418l-12.114 70.415 51.2 49.905c5.458 5.268 9.001 12.221 10.061 19.738 2.632 18.632-10.337 35.86-28.964 38.492zM796.672 217.6c-7.977-7.864-11.622-19.123-9.759-30.177l12.078-70.451-63.247 33.28c-5.012 2.627-10.481 3.927-15.944 3.927-5.504 0-10.931-1.352-15.8-3.927l-63.278-33.28 12.078 70.518c1.879 11.023-1.838 22.354-9.866 30.177l-51.164 49.869 70.83 10.307c11.064 1.649 20.623 8.612 25.6 18.637l31.57 64.241 15.36 7.439-15.329-7.542 31.683-64.072c4.972-10.086 14.582-17.091 25.702-18.739l70.758-10.24-51.272-49.966z" />
<glyph unicode="&#xe927;" glyph-name="seal2" horiz-adv-x="1026" d="M396.8 81.92h-312.32c-5.12 0-7.68 2.56-7.68 7.68v785.92c0 5.12 2.56 7.68 7.68 7.68h739.84c5.12 0 7.68-2.56 7.68-7.68v-171.52c0-20.48 17.92-38.4 38.4-38.4s38.4 17.92 38.4 38.4v171.52c-2.56 46.080-38.4 84.48-84.48 84.48h-739.84c-46.080 0-84.48-38.4-84.48-84.48v-785.92c0-46.080 38.4-84.48 84.48-84.48h312.32c20.48 0 38.4 17.92 38.4 38.4s-17.92 38.4-38.4 38.4zM373.76 209.92c28.16 0 51.2 23.040 51.2 51.2s-23.040 51.2-51.2 51.2h-197.12c-28.16 0-51.2-23.040-51.2-51.2s23.040-51.2 51.2-51.2h197.12zM494.080 478.72c0 28.16-23.040 51.2-51.2 51.2h-266.24c-28.16 0-51.2-23.040-51.2-51.2s23.040-51.2 51.2-51.2h263.68c30.72 0 53.76 23.040 53.76 51.2zM176.64 750.080c-28.16 0-51.2-23.040-51.2-51.2s23.040-51.2 51.2-51.2h529.92c28.16 0 51.2 23.040 51.2 51.2s-23.040 51.2-51.2 51.2h-529.92zM985.6 153.6h-15.36l-148.48 212.48c35.84 25.6 58.88 64 58.88 112.64 0 74.24-58.88 135.68-133.12 135.68s-133.12-61.44-133.12-135.68c0-46.080 23.040-87.040 58.88-112.64l-148.48-212.48h-15.36c-20.48 0-38.4-17.92-38.4-38.4v-140.8c0-20.48 17.92-38.4 38.4-38.4h478.72c20.48 0 38.4 17.92 38.4 38.4v140.8c-2.56 20.48-20.48 38.4-40.96 38.4zM947.2 12.8h-401.92v64h401.92v-64z" />
<glyph unicode="&#xe928;" glyph-name="cancel" d="M414.165 392.832c7.72-7.72 12.495-18.385 12.495-30.165 0-23.561-19.1-42.66-42.66-42.66-11.78 0-22.445 4.775-30.165 12.495l-213.333 213.333-3.115 3.499-0.299 0.341-0.725 0.939c-1.072 1.378-2.077 2.928-2.945 4.562l-0.084 0.174c-0.722 1.281-1.495 2.866-2.182 4.496l-0.122 0.325-0.939 2.56-0.555 1.92c-0.146 0.462-0.382 1.393-0.598 2.332l-0.085 0.441-0.384 2.261c-0.296 1.895-0.466 4.084-0.469 6.311v0.003l0.171-3.797c-0.069 0.792-0.13 1.828-0.167 2.871l-0.003 0.115v1.621c0 0.981 0.085 1.963 0.171 2.987l0.299 2.56 0.384 2.219c0.171 0.939 0.427 1.877 0.64 2.773l0.64 1.963c0.256 0.853 0.597 1.664 0.896 2.517 0.734 1.885 1.508 3.472 2.393 4.986l-0.089-0.165 0.896 1.536c1.84 3.009 3.914 5.612 6.267 7.931l0.005 0.005-3.413-3.84c1.108 1.404 2.225 2.657 3.412 3.838l213.335 213.335c7.72 7.72 18.385 12.495 30.165 12.495 23.561 0 42.66-19.1 42.66-42.66 0-11.78-4.775-22.445-12.495-30.165l-140.501-140.459h409.003c0.008 0 0.018 0 0.029 0 114.556 0 208.018-90.31 213.075-203.619l0.016-0.456 0.213-9.259v-298.667c-0.004-23.561-19.105-42.66-42.667-42.66s-42.663 19.099-42.667 42.66v0 298.667c0 70.692-57.308 128-128 128v0h-409.003l140.501-140.501z" />
<glyph unicode="&#xe929;" glyph-name="stamp" d="M850.522 331.987c-112.399 0-228.292 70.536-228.774 145.769 0 1.566-11.927 61.139 35.177 116.616 40.909 38.621 66.375 93.222 66.375 153.77 0 116.701-94.605 211.305-211.305 211.305s-211.305-94.605-211.305-211.305c0-54.048 20.292-103.357 53.674-140.724l-0.181 0.206h-0.241c0.422-0.422 1.024-0.843 1.446-1.325 3.012-3.313 6.204-6.626 9.397-9.698 44.755-51.080 37.225-118.483 37.225-118.483 0-75.294-116.134-146.010-228.774-146.010-45.538 0-82.643-28.311-82.643-63.006v-62.645c0-11.746 12.469-21.203 28.070-21.203h786.251c15.36 0 28.070 9.638 27.949 21.203v62.645c0.361 34.635-36.744 62.886-82.342 62.886zM791.974-25.992h-562.236c-38.768 0.136-70.158 31.527-70.295 70.281v0.013c0 38.671 31.684 70.295 70.295 70.295h561.995c38.671 0 70.295-31.684 70.295-70.295 0-0.018 0-0.039 0-0.060 0-38.726-31.342-70.131-70.044-70.234h-0.010z" />
<glyph unicode="&#xe92a;" glyph-name="star" d="M752 20.8c-9.6 0-20.8 3.2-30.4 8l-208 104-209.6-104c-20.8-11.2-48-9.6-67.2 4.8s-30.4 40-25.6 64l43.2 224-164.8 153.6c-17.6 17.6-24 44.8-17.6 67.2 8 24 27.2 41.6 52.8 44.8l228.8 41.6 102.4 208c11.2 22.4 33.6 36.8 57.6 36.8s48-14.4 57.6-36.8l102.4-208 228.8-40c24-3.2 44.8-20.8 51.2-44.8 8-24 1.6-49.6-16-67.2l-164.8-155.2 41.6-224c4.8-25.6-6.4-49.6-25.6-64-9.6-8-22.4-12.8-36.8-12.8z" />
<glyph unicode="&#xe92b;" glyph-name="files2" d="M83.502 631.9l415.299-226.299c4.198-2.299 8.801-3.4 13.399-3.4 4.5 0 9.098 1.101 13.302 3.4l419.702 226.299c9.201 4.9 14.802 14.5 14.7 25.001-0.102 10.399-6.001 19.901-15.299 24.602l-415.299 211c-7.9 3.999-17.3 3.999-25.298 0l-419.599-211.098c-9.298-4.7-15.299-14.1-15.401-24.602-0.205-10.301 5.391-20.004 14.495-24.904zM516.5 842.199l361.098-186.501-365.302-199.798-361.098 199.598 365.302 186.701zM939.802 475.699l-83 42.199-53.898-32.302 69.898-35.502-365.302-199.9-361.098 199.608 74.501 37.499-53.699 32.599-87.706-44.099c-9.298-4.7-15.299-14.1-15.401-24.499-0.2-10.399 5.499-20.101 14.602-25.001l415.299-226.401c4.198-2.299 8.801-3.4 13.399-3.4 4.5 0 9.098 1.101 13.302 3.4l419.702 226.299c9.201 4.9 14.802 14.602 14.7 25.001-0.2 10.301-6.098 19.799-15.299 24.499zM939.802 279.798l-78.7 38.702-11.203-32.302 22.902-32-365.302-199.9-361.098 199.501 26.598 31.401-10.998 32.599-82.499-38.001c-9.298-4.7-15.299-14.1-15.401-24.499-0.2-10.399 5.499-20.101 14.602-25.098l415.299-226.299c4.198-2.299 8.801-3.4 13.399-3.4 4.5 0 9.098 1.101 13.302 3.4l419.702 226.299c9.201 4.9 14.802 14.5 14.7 25.001-0.205 10.399-6.103 19.799-15.304 24.596z" />
<glyph unicode="&#xe92c;" glyph-name="del_user1" d="M470.66 444.43c-113.11 0-205.13 92.020-205.13 205.13s92.020 205.12 205.13 205.12 205.12-92.010 205.12-205.12-92.020-205.13-205.12-205.13zM470.66 800.1c-83.010 0-150.55-67.53-150.55-150.55s67.53-150.55 150.55-150.55 150.54 67.54 150.54 150.55-67.53 150.55-150.54 150.55zM793.72 41.33h-646.13c-28.12 0-54.17 12.48-69.67 33.4-13.31 17.95-17.31 40.21-10.99 61.080 52.16 171.96 218.18 292.060 403.72 292.060 185.53 0 351.55-120.1 403.73-292.060 6.33-20.88 2.32-43.14-10.99-61.090-15.51-20.91-41.56-33.39-69.67-33.39zM470.66 373.29c-161.7 0-306.25-104.17-351.49-253.33-1.33-4.35-0.45-8.63 2.59-12.74 4.060-5.48 12.98-11.33 25.83-11.33h646.13c12.86 0 21.77 5.85 25.83 11.33 3.050 4.1 3.92 8.39 2.6 12.74-45.25 149.16-189.78 253.33-351.49 253.33zM932.71 386.23c-6.98 0-13.96 2.66-19.29 7.99l-153.3 153.3c-10.66 10.65-10.66 27.93 0 38.59s27.93 10.66 38.59 0l153.3-153.3c10.66-10.65 10.66-27.93 0-38.59-5.33-5.33-12.32-7.99-19.3-7.99zM779.41 386.23c-6.98 0-13.96 2.66-19.29 7.99-10.66 10.65-10.66 27.93 0 38.59l153.3 153.3c10.66 10.66 27.93 10.66 38.59 0 10.66-10.65 10.66-27.93 0-38.59l-153.3-153.3c-4.929-4.936-11.742-7.99-19.269-7.99-0.011 0-0.022 0-0.033 0h0.002z" />
<glyph unicode="&#xe92d;" glyph-name="folder" horiz-adv-x="1127" d="M989.542 19.328h-858.926c0 0-68.408-10.639-68.408 80.573v737.311c0 0 1.521 82.094 85.13 82.094h301.005c0 0 36.485 7.598 66.888-39.526 28.882-45.609 45.604-74.491 45.604-74.491s10.639-12.16 34.964-12.16c-21.284 0 387.656 0 387.656 0s68.408 7.598 68.408-68.408v-629.371c0.005-0.005 10.644-76.022-62.321-76.022v0zM925.691 597.012c0 18.243-15.201 33.444-33.439 33.444h-668.902c-19.763 0-34.964-15.201-34.964-33.444v-3.041c0-19.763 15.201-34.964 34.964-34.964h668.902c18.243 0 33.439 15.206 33.439 34.964v3.041z" />
<glyph unicode="&#xe92e;" glyph-name="folder2" d="M399.084 699.325l24.576-37.996h429.67c23.537 0 42.67-19.133 42.67-42.665v-469.335c0-23.532-19.133-42.66-42.67-42.66h-682.665c-23.532 0-42.665 19.128-42.665 42.66v597.335c0 23.532 19.133 42.665 42.665 42.665h170.665l57.754-90.004zM384 874.665h-213.335c-70.723 0-128-57.283-128-128v-597.335c0-70.723 57.283-128 128-128h682.665c70.723 0 128 57.283 128 128v469.335c0 70.723-57.283 128-128 128h-384l-85.33 128z" />
<glyph unicode="&#xe92f;" glyph-name="folder-multiple" d="M938.67 789.335h-341.34l-85.33 85.33h-256c-47.13 0-85.335-38.205-85.335-85.335v0-512c0-47.124 38.205-85.33 85.335-85.33h682.67c47.124 0 85.33 38.205 85.33 85.33v426.67c0 47.13-38.205 85.335-85.33 85.335zM85.335 704h-85.335v-597.33c0-47.13 38.205-85.34 85.335-85.34h768v85.34h-768v597.33z" />
<glyph unicode="&#xe930;" glyph-name="folderopen" d="M917.801 511.698c-6.799 8.402-16.302 13.798-26.798 15.299v86.006c0 33.9-27.5 61.399-61.399 61.399h-338.903c-0.599 0.302-1.7 1.101-2.099 1.7l-13.701 56.3c-3.4 14.5-12.099 27.802-24.602 37.499s-27.5 15.099-42.301 15.099h-250.598c-33.9 0-61.399-27.5-61.399-61.399v-553.4c0-13.701 4.598-26.998 13.102-37.801l-0.2-0.399 2.801-3c11.802-13 27.899-20.198 45.399-20.198 3.2 0 221.901-0.302 410.998-0.302 95.299 0 183.101 0.102 232.1 0.302 26.998 0.102 50.898 19.901 56.801 47.099l33.7 155.802 35.599 164.198c2.698 12.703-0.399 25.702-8.499 35.799zM884.803 521.4v0zM427.402 660.5l0.2-0.799c3.4-13.302 11.3-25.201 22.902-34.202 11.899-9.4 25.6-14.3 39.7-14.3h337.7v-83.999h-598.205c-20.101 0-37.202-13.701-41.498-33.398l-29-133.801v361.8h248.899c0.302 0 1.7-0.399 3.4-1.7 1.101-0.901 1.802-1.802 2.002-2.299l13.901-57.303zM858.798 464.2l-31.099-144.302-32-147.702h-612.7l63.201 291.999h612.598z" />
<glyph unicode="&#xe931;" glyph-name="GBPart1" d="M767.99 883.185h-511.98l-255.985-447.98 255.99-447.974h511.98l255.985 447.974-255.99 447.98zM730.865 51.22h-437.729l-219.428 383.985 219.428 383.98h437.729l219.366-383.98-219.366-383.985zM512 627.195c-106.122 0-191.99-85.934-191.99-191.99 0-106.061 85.868-191.995 191.99-191.995 105.994 0 191.99 85.939 191.99 191.995s-85.996 191.99-191.99 191.99zM512 307.21c-70.62 0-127.995 57.436-127.995 127.995s57.375 127.995 127.995 127.995c70.559 0 127.99-57.436 127.99-127.995s-57.431-127.995-127.99-127.995z" />
<glyph unicode="&#xe932;" glyph-name="gear" d="M511.918 609.987c-89.405 0-161.951-72.545-161.951-162.017 0-89.38 72.545-162.048 161.951-162.048 89.411 0 161.439 72.668 161.439 162.048 0.005 89.472-71.997 162.017-161.439 162.017zM836.623 354.944l-29.184-70.303 58.947-115.743-72.197-72.192-118.431 55.936-70.303-28.867-35.681-109.245-4.577-14.5h-102.011l-44.16 123.331-70.303 28.989-115.907-58.685-72.161 72.125 55.875 118.502-28.959 70.241-123.52 40.32v101.98l123.392 44.221 28.959 70.18-51.907 102.461-6.845 13.44 72.064 72.064 118.595-55.839 70.205 29.025 35.645 109.184 4.608 14.464h102.016l44.191-123.459 70.113-29.020 116.060 58.813 72.131-72.064-55.869-118.4 28.861-70.339 123.745-40.253v-101.955l-123.392-44.416z" />
<glyph unicode="&#xe933;" glyph-name="gears" horiz-adv-x="1097" d="M512 448c0 40.381-14.285 74.86-42.86 103.429-28.57 28.57-63.048 42.854-103.429 42.854s-74.86-14.285-103.429-42.854c-28.57-28.575-42.86-63.048-42.86-103.429s14.29-74.86 42.86-103.429c28.575-28.57 63.048-42.854 103.429-42.854s74.86 14.285 103.429 42.854c28.575 28.57 42.86 63.048 42.86 103.429zM950.861 155.428c0 19.809-7.24 36.951-21.719 51.43-14.469 14.469-31.616 21.709-51.425 21.709s-36.956-7.24-51.43-21.709c-14.474-14.479-21.714-31.621-21.714-51.43 0-20.188 7.148-37.432 21.432-51.717s31.524-21.432 51.717-21.432 37.427 7.148 51.717 21.432c14.275 14.29 21.422 31.529 21.422 51.717zM950.861 740.572c0 19.809-7.24 36.951-21.719 51.425-14.469 14.474-31.616 21.714-51.425 21.714s-36.956-7.24-51.43-21.714-21.714-31.621-21.714-51.425c0-20.193 7.148-37.432 21.432-51.717s31.524-21.427 51.717-21.432c20.188 0 37.427 7.142 51.717 21.432 14.275 14.29 21.422 31.524 21.422 51.717v0zM731.428 499.999v-105.713c0-3.809-1.336-7.526-3.999-11.146-2.668-3.615-5.714-5.617-9.144-6.001l-88.571-13.711c-4.188-13.332-10.286-27.812-18.284-43.428 12.948-18.284 30.095-40.192 51.43-65.715 2.668-4.188 3.999-8.003 3.999-11.423 0-4.577-1.336-8.192-3.999-10.86-8.765-11.428-24.479-28.477-47.145-51.139-22.666-22.671-37.622-34.002-44.856-34.002-4.188 0-8.192 1.331-12.001 3.999l-65.715 51.425c-14.095-7.235-28.764-13.143-44.001-17.715-4.188-41.139-8.571-70.666-13.143-88.571-2.668-9.139-8.381-13.716-17.142-13.716h-106.286c-4.193 0-8.003 1.428-11.428 4.285-3.425 2.862-5.335 6.19-5.714 9.999l-13.143 87.429c-12.954 3.809-27.238 9.713-42.86 17.715l-67.425-50.857c-2.668-2.668-6.477-3.999-11.428-3.999-4.193 0-8.192 1.521-12.001 4.572-54.856 50.668-82.289 81.142-82.289 91.428 0 3.425 1.336 7.045 3.999 10.854 3.809 5.335 11.622 15.427 23.429 30.285s20.762 26.476 26.86 34.862c-8.76 16.758-15.432 32.379-19.999 46.853l-86.856 13.716c-3.809 0.379-7.045 2.191-9.713 5.432-2.673 3.236-4.004 6.948-4.004 11.141v105.713c0 3.809 1.331 7.521 3.999 11.141s5.714 5.617 9.144 6.001l88.571 13.716c4.188 13.332 10.286 27.807 18.284 43.428-12.954 18.284-30.095 40.192-51.425 65.715-2.668 4.188-3.999 8.003-3.999 11.428 0 4.572 1.331 8.381 3.999 11.428 8.381 11.428 24.003 28.38 46.853 50.857 22.856 22.477 37.903 33.715 45.143 33.715 4.188 0 8.192-1.331 12.001-3.999l65.715-51.43c12.954 6.856 27.622 12.954 44.001 18.284 4.188 41.144 8.571 70.477 13.143 88.003 2.668 9.144 8.381 13.716 17.147 13.716h106.286c4.188 0 8.003-1.428 11.428-4.285 3.43-2.857 5.335-6.19 5.714-9.999l13.143-87.429c12.954-3.809 27.238-9.713 42.86-17.715l67.43 50.857c3.046 2.668 6.856 3.999 11.428 3.999 4.188 0 8.192-1.521 12.001-4.572 54.856-50.668 82.278-81.147 82.278-91.428 0-3.046-1.331-6.666-3.999-10.86-4.572-6.093-12.57-16.379-24.003-30.858-11.423-14.474-19.999-25.902-25.708-34.284 8.76-18.284 15.242-33.905 19.43-46.858l86.856-13.143c3.804-0.763 7.045-2.765 9.713-6.001 2.662-3.236 3.994-6.948 3.994-11.141v0zM1097.139 195.43v-80c0-6.098-28.38-12.001-85.14-17.715-4.572-10.286-10.286-20.188-17.142-29.716 19.425-43.049 29.138-69.33 29.138-78.858 0-1.521-0.758-2.857-2.284-3.999-46.474-27.044-70.093-40.571-70.856-40.571-3.052 0-11.812 8.955-26.291 26.86-14.474 17.9-24.381 30.853-29.711 38.856-7.619-0.758-13.338-1.147-17.147-1.147s-9.523 0.384-17.147 1.147c-5.33-8.003-15.242-20.956-29.711-38.856-14.479-17.905-23.24-26.86-26.291-26.86-0.758 0-24.381 13.527-70.856 40.571-1.526 1.147-2.284 2.478-2.284 3.999 0 9.528 9.708 35.809 29.138 78.858-6.856 9.523-12.57 19.43-17.142 29.716-56.76 5.714-85.146 11.617-85.146 17.715v80c0 6.093 28.385 12.001 85.146 17.71 4.951 11.049 10.665 20.956 17.142 29.722-19.43 43.044-29.138 69.33-29.138 78.853 0 1.526 0.758 2.857 2.284 3.999 1.526 0.758 8.192 4.572 19.999 11.423 11.807 6.861 23.045 13.332 33.715 19.43 10.665 6.098 16.379 9.144 17.142 9.144 3.052 0 11.812-8.852 26.291-26.573 14.469-17.71 24.381-30.572 29.711-38.569 7.619 0.758 13.332 1.147 17.147 1.147s9.523-0.384 17.147-1.147c19.425 27.049 36.951 48.379 52.572 64l3.43 1.147c1.521 0 25.139-13.332 70.856-40.003 1.526-1.147 2.284-2.473 2.284-3.999 0-9.523-9.713-35.809-29.138-78.853 6.472-8.765 12.191-18.668 17.142-29.722 56.76-5.709 85.14-11.617 85.14-17.71zM1097.139 780.575v-80c0-6.098-28.38-12.001-85.14-17.715-4.572-10.286-10.286-20.188-17.142-29.716 19.43-43.049 29.143-69.335 29.143-78.858 0-1.521-0.758-2.857-2.284-3.999-46.474-27.049-70.093-40.571-70.856-40.571-3.052 0-11.812 8.955-26.291 26.86-14.474 17.905-24.381 30.858-29.711 38.856-7.619-0.763-13.338-1.147-17.147-1.147s-9.523 0.384-17.147 1.147c-5.33-8.003-15.242-20.956-29.711-38.856-14.479-17.905-23.24-26.86-26.291-26.86-0.758 0-24.381 13.522-70.856 40.571-1.526 1.142-2.284 2.478-2.284 3.999 0 9.523 9.708 35.809 29.138 78.858-6.856 9.523-12.57 19.425-17.142 29.716-56.76 5.714-85.146 11.617-85.146 17.715v80c0 6.093 28.385 12.001 85.146 17.71 4.951 11.049 10.665 20.951 17.142 29.716-19.43 43.049-29.138 69.335-29.138 78.858 0 1.521 0.758 2.857 2.284 3.999 1.526 0.763 8.192 4.572 19.999 11.428s23.045 13.332 33.715 19.43c10.665 6.093 16.379 9.144 17.142 9.144 3.052 0 11.812-8.858 26.291-26.573 14.469-17.71 24.381-30.572 29.711-38.569 7.619 0.758 13.332 1.142 17.147 1.142s9.523-0.384 17.147-1.142c19.425 27.049 36.951 48.379 52.572 64l3.43 1.142c1.521 0 25.139-13.332 70.856-40.003 1.526-1.142 2.284-2.478 2.284-3.999 0-9.523-9.713-35.809-29.138-78.858 6.472-8.76 12.191-18.668 17.142-29.716 56.755-5.714 85.135-11.617 85.135-17.71z" />
<glyph unicode="&#xe934;" glyph-name="homepage" horiz-adv-x="1025" d="M155.29 352v-309.693c0-23.363 19.072-42.307 42.624-42.307h236.544v281.533h186.173v-281.533h236.611c23.552 0 42.691 18.944 42.691 42.307v321.536l-377.221 289.981-367.421-301.824zM1009.111 524.16l-107.709 86.528v241.725c0 22.912-18.821 41.539-42.051 41.539h-91.648c-23.229 0-42.045-18.627-42.045-41.539v-100.669l-167.107 134.144c-18.939 15.232-59.392 11.008-70.973 2.115l-472.387-377.856c-16.963-12.995-20.224-37.376-7.229-54.4l23.552-30.787c12.995-16.963 37.248-20.163 54.211-7.107l436.859 349.44 416.389-334.403c16.763-12.867 40.832-9.723 53.688 7.107l23.363 30.464c12.928 16.773 9.856 40.771-6.912 53.699z" />
<glyph unicode="&#xe935;" glyph-name="idea" d="M819.042 858.898c-4.832 3.375-119.92 82.712-286.587 82.712-96.699 0-190.825-26.811-278.459-78.965-6.152-3.229-149.643-81.234-104.59-296.927 0.316-27.872-3.093-58.837-7.484-68.41l-100.154-117.764c-2.066-2.404-3.691-5.159-4.798-8.15-1.795-4.707-10.002-29.238 3.917-51.352 6.367-10.115 19.326-22.521 45.155-25.208l47.074-9.674c7.778-17.464 18.581-45.798 20.015-67.055 2.055-30.57-4.109-68.714-5.723-77.949-10.431-29.757-16.527-84.575 23.052-113.881 2.021-1.501 4.233-2.709 6.57-3.612 0.023 0 0.045-0.023 0.090-0.068 7.913-4.075 26.382-13.671 72.383-13.671 35.311 0 81.030 5.554 136.153 16.561 4.504-13.027 10.69-37.388 15.793-79.574h56.139c-10.51 92.624-27.68 122.234-37.614 131.547-6.672 6.254-15.985 8.873-24.925 6.909-60.812-13.106-109.783-19.71-145.557-19.71-32.387 0-42.762 5.407-46.679 7.405-0.282 0.147-0.587 0.282-0.903 0.463-12.068 12.011-4.256 42.66-1.411 50.472 0.576 1.524 1.016 3.059 1.309 4.662 0.305 1.58 5.565 29.78 7.055 61.456l57.403-0.948c0.158 0 0.305 0 0.474 0 15.183 0 27.635 12.169 27.872 27.42 0.248 15.375-12.011 28.075-27.409 28.335l-61.851 1.027c-7.823 36.824-25.795 72.699-28.211 77.418-3.849 7.53-10.905 12.892-19.18 14.596l-62.19 12.768c-1.095 0.237-2.213 0.395-3.319 0.485-0.858 0.113-1.592 0.181-2.224 0.282l95.965 112.831c0.914 1.072 1.75 2.213 2.506 3.443 16.572 26.935 16.73 85.377 16.403 102.66-0.034 1.772-0.248 3.533-0.621 5.283-37.614 174.941 70.938 236.126 76.684 239.276 80.206 47.706 164.748 71.875 251.287 71.875 148.39 0 253.579-71.909 254.041-72.214 230.188-169.59 89.079-428.317 77.847-447.982-56.387-81.64-83.966-203.942-85.117-209.146-0.294-1.411-0.519-2.867-0.598-4.335-4.583-74.393 6.164-156.992 14.359-206.29h56.624c-7.744 44.579-19.586 127.924-15.511 200.589 3.793 15.974 29.768 120.925 76.639 188.307 0.429 0.598 0.801 1.208 1.174 1.84 1.942 3.138 182.663 319.268-92.872 522.261zM604.624 306.293h-119.107c-7.281 0-13.174-5.893-13.174-13.163 0-7.293 5.893-13.185 13.174-13.185h119.107c7.281 0 13.174 5.881 13.174 13.185 0 7.27-5.893 13.163-13.174 13.163zM574.494 254.331h-58.826c-7.293 0-13.174-5.881-13.174-13.163 0-7.293 5.904-13.163 13.174-13.163h58.826c7.293 0 13.174 5.87 13.174 13.163 0 7.27-5.881 13.163-13.174 13.163zM545.031 678.019c-87.521 0-158.505-69.663-158.505-155.592 0-40.741 12.519-69.516 29.486-90.355 29.136-31.518 58.713-45.347 63.747-99.318h130.543c5.035 53.971 34.6 67.8 63.894 99.318 19.676 23.255 29.441 49.614 29.441 90.355 0.011 85.93-71.051 155.592-158.607 155.592zM654.43 449.58c-5.712-6.141-11.718-11.752-17.486-17.181-19.642-18.491-39.86-37.479-48.903-73.264h-28.967v106.52l41.125 41.249c5.114 5.148 5.091 13.501-0.045 18.638-5.182 5.148-13.513 5.136-18.649-0.034l-36.429-36.542-36.406 36.53c-5.159 5.17-13.49 5.193-18.66 0.034-5.159-5.148-5.17-13.49-0.023-18.638l42.717-42.863v-104.872h-30.705c-9.008 35.695-29.136 54.694-48.688 73.128-5.746 5.407-11.684 11.029-17.373 17.114-15.511 19.36-23.052 43.281-23.052 73.072 0 71.254 59.277 129.222 132.134 129.222 72.914 0 132.259-57.968 132.259-129.222-0.023-32.41-6.638-53.565-22.848-72.891zM544.41 705.259c7.293 0 13.174 5.893 13.174 13.185v33.798c0 7.281-5.881 13.174-13.174 13.174s-13.185-5.904-13.185-13.174v-33.798c0-7.27 5.893-13.185 13.185-13.185zM740.213 681.959c-5.159 5.125-13.524 5.114-18.638-0.045l-27.364-27.477c-5.114-5.159-5.114-13.501 0.068-18.649 2.563-2.574 5.927-3.838 9.268-3.838 3.409 0 6.785 1.287 9.347 3.872l27.375 27.477c5.125 5.17 5.091 13.513-0.056 18.66zM395.918 635.788c5.159 5.125 5.17 13.467 0.034 18.649l-27.353 27.477c-5.125 5.159-13.49 5.17-18.649 0.023-5.17-5.136-5.182-13.479-0.034-18.638l27.375-27.477c2.574-2.585 5.938-3.872 9.324-3.872 3.364 0 6.728 1.276 9.302 3.838z" />
<glyph unicode="&#xe936;" glyph-name="sys_log" horiz-adv-x="1078" d="M822.613 453.461c-18.851 0-34.133-15.282-34.133-34.133v0-415.061h-682.667v204.8c0 18.851-15.282 34.133-34.133 34.133s-34.133-15.282-34.133-34.133v0-238.933c0-0.051 0-0.111 0-0.171 0-17.649 13.395-32.17 30.574-33.95l0.146-0.012h750.933c18.851 0 34.133 15.282 34.133 34.133v0 449.195c0 0.051 0 0.111 0 0.171 0 17.649-13.395 32.17-30.574 33.95l-0.146 0.012zM68.267 661.675c18.851 0 34.133 15.282 34.133 34.133v0 195.925h682.667c0-18.851 15.282-34.133 34.133-34.133s34.133 15.282 34.133 34.133v0 34.133c0 18.851-15.282 34.133-34.133 34.133h-750.933c-18.851 0-34.133-15.282-34.133-34.133v-230.059c0-18.851 15.282-34.133 34.133-34.133v0zM34.133 550.4h68.267c18.851 0 34.133 15.282 34.133 34.133s-15.282 34.133-34.133 34.133h-68.267c-18.851 0-34.133-15.282-34.133-34.133s15.282-34.133 34.133-34.133v0zM34.133 413.867h68.267c18.851 0 34.133 15.282 34.133 34.133s-15.282 34.133-34.133 34.133h-68.267c-18.851 0-34.133-15.282-34.133-34.133s15.282-34.133 34.133-34.133v0zM136.533 311.467c0 18.851-15.282 34.133-34.133 34.133v0h-68.267c-18.851 0-34.133-15.282-34.133-34.133s15.282-34.133 34.133-34.133h68.267c18.851 0 34.133 15.282 34.133 34.133v0zM1069.056 766.805l-130.389 130.389c-6.187 6.236-14.76 10.097-24.235 10.097s-18.048-3.86-24.232-10.094l-0.002-0.002-521.557-520.875c-2.101-2.173-3.916-4.642-5.374-7.333l-0.088-0.177-109.909-242.347c-1.994-4.205-3.158-9.136-3.158-14.339 0-18.851 15.282-34.133 34.133-34.133 0.15 0 0.3 0.001 0.45 0.003h-0.023c2.154-0.494 4.628-0.777 7.168-0.777s5.014 0.283 7.392 0.819l-0.224-0.042 237.568 108.544c3.93 2.907 7.139 6.552 9.47 10.752l0.087 0.171 521.557 521.557c6.452 6.219 10.459 14.936 10.459 24.589 0 8.968-3.458 17.128-9.114 23.219l0.020-0.022zM352.939 181.077l50.517 111.957 60.757-60.757zM523.605 269.824l-82.603 81.92 473.088 471.723 81.92-81.92z" />
<glyph unicode="&#xe937;" glyph-name="table_set" d="M896 519.68h64v344.32h-896v-832h350.72v317.44h1.28v98.56h113.531c38.743 37.407 87.772 64.215 142.469 75.679v132.321h224v-136.32zM352 96h-224v147.2h224v-147.2zM352 307.2h-224v140.8h224v-140.8zM352 512h-224v144h224v-144zM608 512h-192v144h192v-144zM996.157 247.875c-3.195 3.205-7.378 4.803-11.566 4.803h-25.006c-10.378 0-21.345 8.090-24.428 17.976l-12.979 31.514c-4.864 9.114-2.872 22.569 4.419 29.891l17.766 17.731c2.954 2.964 4.792 7.060 4.792 11.581 0 4.531-1.812 8.627-4.792 11.607l-30.136 30.085c-2.964 2.959-7.050 4.792-11.561 4.792-4.521 0-8.632-1.843-11.592-4.792l-17.761-17.761c-7.286-7.306-20.787-9.308-29.911-4.408l-31.488 12.959c-9.846 3.057-17.966 14.039-17.966 24.407v25.047c0 4.188-1.603 8.381-4.803 11.587-3.2 3.2-7.388 4.797-11.571 4.797h-42.552c-4.204 0-8.387-1.603-11.587-4.797-3.205-3.205-4.803-7.398-4.803-11.587v-25.047c0-10.363-8.044-21.35-17.946-24.407l-31.514-12.959c-9.149-4.9-22.579-2.918-29.87 4.408l-17.818 17.751c-2.959 2.959-7.066 4.782-11.592 4.782-4.521 0-8.602-1.848-11.561-4.797l-30.054-30.060c-2.975-2.97-4.782-7.045-4.803-11.576 0-4.516 1.838-8.612 4.803-11.571l17.72-17.772c7.342-7.337 9.349-20.772 4.419-29.88l-12.964-31.549c-3.057-9.887-14.034-17.976-24.397-17.976l-25.037 0.026c-4.209 0-8.392-1.603-11.592-4.803-3.195-3.2-4.803-7.393-4.803-11.587v-42.542c0-4.193 1.608-8.387 4.803-11.592 3.2-3.185 7.378-4.787 11.592-4.787h25.037c10.363-0.031 21.315-8.115 24.366-17.992l12.995-31.503c4.884-9.139 2.893-22.63-4.419-29.921l-17.772-17.725c-2.959-2.959-4.808-7.066-4.808-11.602 0-4.521 1.848-8.627 4.808-11.592l30.131-30.085c2.959-2.954 7.045-4.787 11.566-4.787 4.516 0 8.627 1.828 11.587 4.787l17.787 17.746c7.276 7.306 20.716 9.308 29.809 4.367l31.58-12.964c9.892-3.077 17.946-14.024 17.946-24.402v-24.97c0-4.178 1.603-8.392 4.808-11.587 3.195-3.18 7.373-4.787 11.587-4.787h42.527c4.214 0 8.392 1.603 11.592 4.787 3.2 3.195 4.803 7.398 4.803 11.587v24.97c0 10.373 8.125 21.325 17.966 24.402l31.539 12.964c9.129 4.946 22.6 2.939 29.942-4.367l17.649-17.725c2.964-2.975 7.050-4.823 11.597-4.823 4.516-0.015 8.632 1.818 11.587 4.787l30.126 30.106c2.99 2.975 4.803 7.071 4.803 11.602 0 4.526-1.833 8.622-4.803 11.592l-17.751 17.72c-7.286 7.296-9.288 20.782-4.419 29.926l12.979 31.503c3.077 9.876 14.095 17.961 24.407 17.961h25.021c4.188 0 8.361 1.603 11.566 4.803 3.205 3.195 4.803 7.398 4.803 11.587v42.557c0 4.193-1.597 8.387-4.803 11.587zM756.372 120.975c-51.994 0-94.116 42.092-94.116 94.070 0 51.968 42.122 94.090 94.116 94.090 51.963 0 94.095-42.122 94.095-94.090-0.005-51.978-42.132-94.070-94.095-94.070z" />
<glyph unicode="&#xe938;" glyph-name="user_group" d="M512 704c70.6 0 128-71.7 128-159.8 0-17.7 14.3-32 32-32s32 14.3 32 32c0 58.7-19.3 114.2-54.3 156.1-14 16.8-29.9 30.7-47.1 41.4 23.1 23.2 37.3 55.1 37.3 90.3 0.1 70.6-57.3 128-127.9 128s-128-57.4-128-128c0-35.2 14.3-67.1 37.3-90.3-17.2-10.7-33.1-24.6-47.1-41.4-35-42-54.3-97.4-54.3-156.1 0-17.7 14.3-32 32-32s32 14.3 32 32c0.1 88.1 57.5 159.8 128.1 159.8zM448 832c0 35.3 28.7 64 64 64s64-28.7 64-64-28.7-64-64-64-64 28.7-64 64zM282.7 165.5c23.1 23.2 37.3 55.1 37.3 90.3 0 70.6-57.4 128-128 128s-128-57.4-128-128c0-35.2 14.3-67.1 37.3-90.3-17.2-10.7-33.1-24.6-47.1-41.4-34.9-41.9-54.2-97.4-54.2-156.1 0-17.7 14.3-32 32-32s32 14.3 32 32c0 88.1 57.4 159.8 128 159.8s128-71.7 128-159.8c0-17.7 14.3-32 32-32s32 14.3 32 32c0 58.7-19.3 114.2-54.3 156.1-14 16.8-29.8 30.7-47 41.4zM128 255.8c0 35.3 28.7 64 64 64s64-28.7 64-64-28.7-64-64-64-64 28.7-64 64zM969.7 124.1c-14 16.8-29.9 30.7-47.1 41.4 23.1 23.2 37.3 55.1 37.3 90.3 0 70.6-57.4 128-128 128s-128-57.4-128-128c0-35.2 14.3-67.1 37.3-90.3-17.2-10.7-33.1-24.6-47.1-41.4-35-42-54.3-97.4-54.3-156.1 0-17.7 14.3-32 32-32s32 14.3 32 32c0 88.1 57.4 159.8 128 159.8s128.2-71.7 128.2-159.8c0-17.7 14.3-32 32-32s32 14.3 32 32c0 58.7-19.3 114.2-54.3 156.1zM768 255.8c0 35.3 28.7 64 64 64s64-28.7 64-64-28.7-64-64-64-64 28.7-64 64zM544 396.5v82.8c0 17.7-14.3 32-32 32s-32-14.3-32-32v-82.8l-86.1-85.2c-12.6-12.4-12.7-32.7-0.2-45.3 6.3-6.3 14.5-9.5 22.7-9.5 8.1 0 16.3 3.1 22.5 9.3l73.1 72.3 73.1-72.3c6.2-6.2 14.4-9.3 22.5-9.3 8.2 0 16.5 3.2 22.7 9.5 12.4 12.6 12.3 32.8-0.2 45.3l-86.1 85.2z" />
<glyph unicode="&#xe939;" glyph-name="law" d="M853.371 716.536v-40.007l-0.44-0.034 133.5-314.515h22.927c0-184.492-335.523-184.492-335.523 0h12.282l131.796 310.44-259.991-30.084v-498.747h112.402l24.384-87.725h-353.551l29.249 87.725h112.684v497.268l-272.815 31.552 131.785-310.44h12.282c0-184.492-335.49-184.492-335.49 0h22.927l133.5 314.515-0.429 0.034v40.007c226.158 0.011 452.328 0.011 678.52 0.011v0zM965.265 361.969l-128.996 303.904-128.985-303.904h257.981zM471.191 746.146h96.078l-47.164 93.403-48.914-93.403zM320.927 361.969l-129.019 303.904-128.996-303.904h258.015z" />
<glyph unicode="&#xe93a;" glyph-name="manger" d="M901.111 880.415h-515.646c7.247-17.181 11.819-35.718 13.501-55.055h502.168c30.344 0 55.055-24.7 55.055-55.055v-389.393c0-30.344-24.7-55.055-55.055-55.055h-438.544v-55.055h438.522c60.553 0 110.133 49.546 110.133 110.11v389.393c0 60.575-49.58 110.11-110.133 110.11zM297.616 623.235h-163.020c-61.332 0-111.487-50.167-111.487-111.465v-212.77c0-50.844 34.543-93.922 81.324-107.175v-238.553h55.055l0.169 289.33h-25.061c-31.112 0-56.432 25.275-56.432 56.398v212.77c0 31.112 25.332 56.421 56.432 56.421h163.009c31.112 0 56.421-25.309 56.421-56.421v-212.77c0-10.318-2.98-19.868-7.846-28.177-9.787-16.798-27.804-28.222-48.575-28.222h-25.084l0.124-289.319h55.055v238.779c37.749 10.736 67.574 40.662 77.61 78.739 2.371 9.042 3.782 18.457 3.782 28.199v212.77c-0.011 61.298-50.156 111.465-111.476 111.465zM216.089 679.87c71.582 0 129.595 58.024 129.595 129.606 0 71.559-58.013 129.595-129.595 129.595-71.57 0-129.583-58.035-129.583-129.595-0.011-71.582 58.013-129.606 129.583-129.606zM216.089 884.004c41.091 0 74.539-33.437 74.539-74.539s-33.437-74.539-74.539-74.539-74.539 33.437-74.539 74.539 33.448 74.539 74.539 74.539zM493.746 401.152c-4.245 0-8.433 1.174-12.113 3.42-10.95 6.706-14.416 21.053-7.733 32.015l96.462 157.986c4.199 6.875 11.526 11.052 19.597 11.153 0.011 0 0.045 0 0.045 0 8.139 0 15.669-4.199 19.834-10.713l44.771-69.809 58.893 61.986c4.448 4.662 10.431 7.247 16.888 7.247 5.588 0 10.984-2.009 15.172-5.644l36.090-31.112 72.146 186.998c3.466 8.907 12.169 14.901 21.765 14.901 2.833 0 5.633-0.531 8.331-1.547 11.989-4.64 17.96-18.13 13.355-30.107l-84.033-217.838c-2.709-7.067-8.715-12.372-16.086-14.224-1.817-0.463-3.748-0.7-5.633-0.7-5.599 0-10.973 2.021-15.195 5.667l-44.297 38.212-64.052-67.405c-4.414-4.628-10.544-7.247-16.831-7.247-0.722 0-1.468 0.023-2.213 0.102-7.213 0.677-13.513 4.549-17.43 10.611l-40.707 63.476-77.057-126.23c-4.324-7.010-11.763-11.198-19.97-11.198z" />
<glyph unicode="&#xe93b;" glyph-name="meeting" horiz-adv-x="1160" d="M954.132 959.729h-747.735c-113.828 0-206.397-92.749-206.397-206.715v-278.528c0-14.479 11.735-26.214 26.214-26.214s26.214 11.735 26.214 26.214v278.528c0 85.033 69.059 154.214 153.969 154.214h747.781c84.89 0 153.948-69.181 153.948-154.214v-278.528c0.471-14.469 12.58-25.82 27.049-25.354 13.809 0.445 24.909 11.54 25.349 25.354v278.528c0.005 113.976-92.544 206.715-206.392 206.715zM943.145 229.504c-9.774-10.685-9.068-27.274 1.597-37.084 40.771-37.55 63.99-90.429 64.051-145.853 0-14.484 11.74-26.225 26.22-26.225s26.22 11.74 26.22 26.225v0c0 69.934-29.558 137.216-81.060 184.535-10.67 9.779-27.244 9.068-37.028-1.597v0zM355.886 248.96c7.183 4.398 12.396 11.802 12.836 20.838 0.712 14.459-10.44 26.757-24.899 27.464-0.015 0-0.031 0-0.046 0.005-61.389 2.842-109.67 53.489-109.568 114.944 0 50.954 34.135 96.42 83.011 110.643 13.901 4.045 21.893 18.591 17.853 32.492 0 0.010-0.005 0.020-0.005 0.031-4.024 13.901-18.55 21.908-32.451 17.889 0 0-0.005 0-0.005 0-71.137-20.685-120.832-86.876-120.832-161.029 0-55.706 27.075-105.17 69.043-135.66-92.165-39.188-151.88-129.792-151.552-229.949 0-14.474 11.735-26.209 26.214-26.209s26.214 11.735 26.214 26.209c-0.425 106.593 84.076 194.156 190.612 197.524 5.187 0.108 9.61 2.104 13.568 4.818v-0.010zM857.892 573.225c-13.88 4.050-28.421-3.922-32.471-17.807-0.005-0.026-0.015-0.051-0.020-0.077-4.040-13.901 3.942-28.447 17.828-32.507 48.891-14.228 83.011-59.709 83.011-110.659 0.102-61.445-48.169-112.087-109.548-114.934-14.495-0.338-25.969-12.36-25.631-26.854s12.36-25.964 26.86-25.626h1.224c89.4 4.152 159.698 77.921 159.555 167.414 0.026 74.179-49.659 140.411-120.812 161.065v-0.015zM580.265 654.070c-115.154 0-208.788-93.798-208.788-209.116 0-74.614 39.352-140.052 98.207-177.070-119.424-45-204.8-160.266-204.8-295.414 0-14.515 11.715-26.245 26.214-26.245 14.474 0 26.23 11.756 26.23 26.245 0 145.198 117.98 263.368 262.963 263.368 115.149 0 208.824 93.809 208.824 209.157-0.020 115.308-93.737 209.075-208.85 209.075zM580.265 288.323c-86.252 0-156.385 70.262-156.385 156.631 0 86.385 70.134 156.605 156.385 156.605 86.246 0 156.38-70.262 156.38-156.605 0.005-86.369-70.129-156.631-156.38-156.631zM756.378 203.674c-9.779-10.691-9.062-27.274 1.603-37.084 54.257-49.976 85.151-120.356 85.222-194.12 0-14.515 11.72-26.245 26.22-26.245 14.469 0 26.209 11.756 26.209 26.245-0.097 88.468-37.156 172.872-102.221 232.817-10.67 9.774-27.238 9.057-37.028-1.597v-0.015z" />
<glyph unicode="&#xe93c;" glyph-name="meeting_room" d="M183.9 379.699c10.501 0 19.098 8.602 19.098 19.098v432.604h432.599c10.501 0 19.098 8.602 19.098 19.098s-8.602 19.098-19.098 19.098h-451.697c-10.501 0-19.098-8.602-19.098-19.098v-451.702c0.097-10.598 8.596-19.098 19.098-19.098zM719.8 351.002h-38.999v67.2c0 10.501-8.602 19.098-19.098 19.098s-19.098-8.602-19.098-19.098v-86.2c0-10.501 8.602-19.098 19.098-19.098h40.499l24.499-297.4c0.799-9.999 9.201-17.5 19-17.5 0.502 0 1.101 0 1.603 0.102 10.501 0.901 18.299 10.102 17.398 20.598l-25.999 314.9c-0.701 9.795-8.904 17.398-18.903 17.398zM937.201 632.1c-2.202 1.9-55.301 47.498-144 47.498s-141.798-45.599-144-47.498c-0.901-0.799-1.7-1.603-2.401-2.601l-59.203-75.203-121.298 117.002c-7.598 7.301-19.702 7.101-26.998-0.502s-7.101-19.702 0.502-26.998l136.602-131.702c3.599-3.4 8.3-5.299 13.302-5.299 0.399 0 0.901 0 1.3 0.102 5.402 0.399 10.301 3 13.701 7.199l70.999 90.102c7.398 5.898 49.9 37.1 117.699 37.1 57.498 0 97.398-22.999 112.399-33.198v-257.101h-38.999c-9.902 0-18.202-7.598-19-17.5l-25.999-314.9c-0.901-10.501 6.999-19.702 17.398-20.598 0.502-0.102 1.101-0.102 1.603-0.102 9.8 0 18.202 7.501 19 17.5l24.499 297.4h40.499c10.501 0 19.098 8.602 19.098 19.098v285.901c-0.102 5.499-2.504 10.701-6.702 14.3zM784.799 711.501c51.4 0 93.199 41.8 93.199 93.199s-41.8 93.302-93.199 93.302-93.199-41.8-93.199-93.199 41.8-93.302 93.199-93.302zM784.799 859.802c30.403 0 54.999-24.699 54.999-54.999 0-30.403-24.699-55.101-54.999-55.101-30.403 0-54.999 24.699-54.999 55.101 0 30.295 24.699 54.999 54.999 54.999zM554.501 346.199h-455.199c-10.501 0-19.098-8.602-19.098-19.098s8.602-19.098 19.098-19.098h455.199c10.501 0 19.098 8.602 19.098 19.098 0 10.598-8.499 19.098-19.098 19.098z" />
<glyph unicode="&#xe93d;" glyph-name="meeting2" d="M978.944 111.411c-8.607 39.788-41.626 66.381-82.714 66.642-11.238 0.077-22.502 0-33.766 0 46.387 19.753 76.477 65.321 76.442 115.732 0.108 69.407-55.885 125.824-124.974 125.901-68.946 0.108-125.266-56.346-125.389-125.645-0.118-50.493 30.029-96.143 76.513-115.866-12.083 0.026-24.141 0-36.224-0.282-38.989-0.896-71.24-26.772-79.616-64.748-2.637-12.006-1.997-22.932-2.534-35.379-0.328-7.757-0.077-21.811-0.077-21.811h-7.194c0 17.388 0.102 24.96-0.026 38.118-0.461 49.331-36.654 84.71-85.652 84.838-10.47 0.026-20.941-0.108-31.391-0.128 45.629 20.055 75.090 65.178 75.090 115.021 0.020 69.35-56.12 125.824-125.112 125.901-69.069 0.051-125.056-56.166-125.21-125.696-0.189-50.243 29.645-95.749 75.802-115.61-10.701-0.077-21.402-0.026-32.128-0.123-9.83-0.082-20.122-1.797-29.414-4.972-34.381-11.699-55.834-42.772-56.269-79.713-0.154-13.568-0.026-27.192-0.026-40.376l0.845-12.078c-100.122 15.13-177.203 101.632-177.203 206.080v34.765c0 113.792 91.443 206.464 204.595 208.486 222.536-0.128 415.027 0.179 639.693 0.179h7.624c0.108 0 0.21 2.662 0.21 3.763 0 40.576 0.077 80.973-0.082 121.549-0.020 5.74-0.64 11.464-1.838 17.075-8.602 39.782-41.631 66.381-82.714 66.637-11.233 0.077-22.508 0-33.766 0 46.387 19.753 76.483 65.316 76.442 115.732 0.102 69.402-55.885 125.824-124.979 125.901-68.941 0.108-125.261-56.34-125.389-125.64-0.113-50.499 30.029-96.148 76.518-115.866-12.078 0.026-24.141 0-36.219-0.282-38.989-0.896-71.25-26.778-79.621-64.742-2.642-12.006-2.002-22.963-2.534-35.379-0.333-7.757-0.077-21.811-0.077-21.811h-7.194c0 17.382 0.108 24.934-0.026 38.118-0.461 49.331-36.659 84.71-85.658 84.838-10.47 0.026-20.941-0.128-31.38-0.128 45.619 20.055 75.080 65.183 75.080 115.021 0.031 69.35-56.11 125.824-125.107 125.901-69.069 0.051-125.056-56.166-125.21-125.67-0.189-50.248 29.645-95.754 75.802-115.61-10.701-0.077-21.402-0.051-32.128-0.128-9.83-0.077-20.122-1.792-29.414-4.966-34.381-11.699-55.834-42.778-56.269-79.718-0.154-13.568-0.026-27.187-0.026-40.371l1.152-16.486c-138.675-15.411-246.938-133.453-246.938-276.403v-34.765c0-141.67 106.342-258.739 243.226-275.84l-0.154-2.355v-0.179c243.026-0.154 438.426 0.179 670.694 0.179h7.629c0.102 0 0.205 2.668 0.205 3.763 0 40.571 0.077 80.968-0.077 121.569-0.026 5.734-0.64 11.453-1.843 17.055z" />
<glyph unicode="&#xe93e;" glyph-name="meeting-record" d="M868.895 593.526c-14.147 0-25.615-11.469-25.615-25.61v-500.905c0-11.52-5.207-12.477-11.003-12.477h-683.566c-4.813 0-10.266 0-10.266 12.477v677.146c0 8.648 7.311 15.954 15.969 15.954h459.837c14.152 0 25.61 11.469 25.61 25.61 0 14.147-11.459 25.61-25.61 25.61h-459.837c-37.048 0-67.195-30.136-67.195-67.18v-677.146c0-37.504 25.288-63.698 61.491-63.698h683.561c36.639 0 62.228 26.189 62.228 63.698v500.905c0.010 14.147-11.459 25.615-25.605 25.615zM933.996 777.917c-3.297 17.736-13.302 33.126-28.165 43.331l-91.028 62.5c-9.16 6.292-21.56 9.897-34.012 9.897-17.49 0-32.328-6.979-40.724-19.154-1.976-2.857-198.436-286.694-254.587-369.787-12.375-18.319-19.625-39.706-20.982-61.839l-7.081-115.364c-1.295-13.338 3.354-26.685 13.143-37.668 9.559-10.732 22.717-17.731 36.193-19.523h-270.090c-14.147 0-25.61-11.459-25.61-25.61 0-14.141 11.469-25.61 25.61-25.61h508.406c14.141 0 25.61 11.469 25.61 25.61 0 14.152-11.469 25.61-25.61 25.61h-224.927c5.268 0.732 10.281 2.304 14.956 4.756 0.425 0.225 0.85 0.466 1.265 0.712 0.62 0.374 62.909 37.668 103.419 62.525 18.749 11.489 34.586 26.537 47.068 44.713l204.344 297.636c0.005 0 0.005 0 0.005 0.005 0 0 0 0 0.005 0.005l32.056 46.689c10.22 14.868 14.029 32.829 10.737 50.565zM512.645 321.28c-1.408 0.507-3.251 1.802-4.111 2.908l7.025 114.412 59.218-18.289 31.759-42.301c-35.174-21.509-82.396-49.838-93.891-56.73zM644.833 412.319l-29.844 39.752c-0.118 0.164-0.246 0.323-0.369 0.486-6.18 7.828-14.479 13.527-24.044 16.486l-55.726 17.203c41.042 60.411 131.261 191.16 190.638 277.105l108.984-74.824-189.64-276.209zM881.039 756.352l-17.572-25.59-108.851 74.732c12.6 18.222 21.683 31.355 25.528 36.91 0.2 0.010 0.41 0.015 0.64 0.015 2.468 0 4.511-0.65 5.13-0.973l90.916-62.423c3.584-2.463 6.006-6.18 6.794-10.46 0.804-4.285-0.113-8.617-2.586-12.211z" />
<glyph unicode="&#xe93f;" glyph-name="ok" d="M469.317 249.296c-8.737-0.023-17.114 2.055-23.379 4.696v0c-6.322 2.63-10.815 5.644-14.325 8.196v0c-6.468 4.832-10.216 8.658-14.066 12.429v0l-143.649 133.184c-21.37 19.8-22.645 53.113-2.845 74.46v0c19.744 21.358 53.147 22.634 74.404 2.845v0l122.483-113.576 234.422 246.049c20.083 21.087 53.418 21.878 74.551 1.84v0c20.997-20.083 21.855-53.43 1.772-74.494v0l-256.694-269.496c-3.104-3.025-6.062-5.994-10.273-9.528v0c-4.177-3.42-9.539-7.834-19.021-11.91v0c-6.164-2.619-14.495-4.696-23.164-4.696v0c-0.102 0-0.102 0-0.214 0v0zM513.682-46.728c-275.896 0-500.361 224.51-500.361 500.35 0 275.919 224.488 500.361 500.361 500.361 275.908 0 500.384-224.454 500.384-500.361 0-275.84-224.488-500.35-500.384-500.35zM513.682 856.911c-222.377 0-403.278-180.902-403.278-403.29 0-222.331 180.902-403.267 403.278-403.267s403.301 180.936 403.301 403.267c0 222.388-180.924 403.29-403.301 403.29z" />
<glyph unicode="&#xe940;" glyph-name="party_logo" d="M995.981 317.265c34.814 132.789 21.629 323.941-131.073 475.255-145.986 144.846-329.010 138.106-329.010 138.106s200.138-87.296 281.281-274.248c53.057-121.546 66.795-233.27-13.456-361.86-1.151-1.659-2.551-3.624-3.658-5.622l-336.855 337.713 121.546 117.617-66.558 66.536c-98.528-60.632-167.017-20.783-167.017-20.783l-226.237-214.734 140.635-138.648 78.050 62.585 326.188-328.152c-137.542-73.828-337.126-70.442-535.323 112.007l-80.85-66.231c0 0 21.9-38.19 65.971-83.954-7.022 2.235-14.314 3.364-22.171 3.364-42.671 0-77.475-34.792-77.475-77.452 0-42.976 34.803-77.779 77.475-77.779 42.942 0 77.757 34.803 77.757 77.779 0 10.081-2.246 19.925-5.904 28.91 48.846-39.014 113.136-76.379 193.692-94.317 100.21-22.442 216.134-33.403 332.904 6.423 33.437 11.255 66.276 26.664 97.997 46.329l79.732-80.285 125.474 123.521-76.075 76.357c30.875 42.66 57.539 92.59 72.959 151.562z" />
<glyph unicode="&#xe941;" glyph-name="project" horiz-adv-x="1025" d="M805.478 825.037c-8.556 2.166-15.002 2.166-23.562 2.166h0.005c8.561 0 17.142 0 23.557-2.166zM833.321 816.481c-2.104 0-2.104 2.14-4.27 2.14 2.166 0 4.27-2.14 4.27-2.14zM882.621 775.777c-2.171 2.14-4.311 6.415-6.441 8.556 2.13-4.28 4.27-6.42 6.441-8.556zM925.471 126.669h-30.019v601.979c0 8.556 0 15.002-2.135 23.562 2.135-6.446 2.135-15.007 2.135-23.562v-601.979h30.019zM944.748 133.069c-2.166-2.12-6.446-2.12-8.561-4.28 2.12 2.161 6.4 2.161 8.561 4.28zM993.992 934.298c-21.402 17.147-49.244 25.702-77.082 25.702h-670.551c-30.008 0-57.851-8.556-77.133-25.702-21.402-19.287-34.263-44.989-34.263-70.692v-34.258h-21.422c-30.008 0-57.851-8.586-77.133-25.728-23.567-21.432-36.408-47.13-36.408-74.972v-696.253c0-27.843 12.841-53.54 34.263-70.717 21.427-17.121 49.27-25.682 77.112-25.682h668.437c29.952 0 57.82 8.561 77.082 25.682 21.422 19.287 36.429 45.015 36.429 70.717v34.289h19.308c29.962 0 57.8 8.556 77.082 25.702 21.448 19.287 34.289 44.989 34.289 70.692v698.389c4.28 27.843-8.561 53.545-30.008 72.832zM837.632 34.54c0-21.432-25.702-38.569-55.711-38.569h-668.38c-30.008 0-55.716 17.142-55.716 38.569v694.108c0 21.422 25.708 38.569 55.716 38.569h668.38c30.008 0 55.716-17.147 55.716-38.569l-0.005-694.108zM970.429 167.357c0-8.556-4.28-17.116-10.67-23.562l-2.171-2.145c-2.14-2.14-4.28-4.28-6.42-4.28 0 0-2.14 0-2.14-2.135 0-2.171-2.14 0-2.14-2.171 0 0-2.14 0-2.14-2.115h-2.166c-2.115-2.161-6.395-2.161-8.561-4.28h-4.28c-2.14 0-4.275 0-6.415-2.161h-30.008v604.14c0 8.556 0 15.002-2.145 23.562 0 2.14 0 2.14-2.135 4.28 0 2.14 0 2.14-2.145 4.28 0 2.14 0 2.14-2.166 4.28 0 2.166-2.109 2.166-2.109 4.28-2.171 2.166-2.171 4.306-4.311 6.446-2.13 2.14-4.28 6.42-6.42 8.556-2.135 4.28-6.441 6.446-8.556 10.726-2.166 2.14-4.275 4.28-8.586 6.415l-6.42 6.42c-2.14 0-2.14 2.135-4.28 2.135-4.28 2.166-10.732 6.446-15.002 8.586-2.145 0-2.145 2.14-4.291 2.14-2.135 0-4.275 2.14-6.441 2.14h-2.109c-4.28 0-6.451 2.14-10.732 2.14h-6.42c-8.581 2.166-14.976 2.166-23.562 2.166h-584.812v34.258c0 4.275 0 8.556 2.115 12.836 2.166 4.306 4.28 6.42 8.556 10.726 10.726 10.701 25.733 17.147 45.015 17.147h668.38c30.008 0 55.685-17.147 55.685-38.569l0.005-696.243zM149.939 707.22h430.638v-57.851h-430.638v57.851zM674.831 677.217c0 17.142 12.841 30.008 29.983 32.148 17.142 0 29.972-12.867 32.118-29.983v-2.166c0-17.121-12.872-29.983-29.983-32.123-17.142 0-29.978 12.836-32.118 29.978v2.145zM57.825 597.97h779.807v-57.851h-779.807v57.851zM458.481 485.171c-117.975 0-213.601-95.657-213.601-213.601 0-117.949 95.626-213.576 213.601-213.576 117.949 0 213.601 95.626 213.601 213.576 0 117.944-95.652 213.601-213.601 213.601zM458.481 86.871c-102.021 0-184.73 82.673-184.73 184.699 0 102.021 82.708 184.724 184.73 184.724s184.699-82.708 184.699-184.724c0-102.026-82.678-184.699-184.699-184.699zM520.504 273.71c0 27.182 6.103 52.91 16.276 76.314 1.869 4.306-2.432 0.927-2.432 0.927-23.434-10.619-49.454-16.538-76.872-16.538-27.187 0-52.884 6.159-76.319 16.302-4.68 2.012-0.927-2.432-0.927-2.432 10.619-23.429 16.538-49.48 16.538-76.872 0-27.208-5.811-53.043-16.276-76.339 0 0-2.191-2.934 2.432-0.901 23.562 10.276 49.449 16.532 76.846 16.532 27.203 0 53.038-5.837 76.344-16.297 0 0 3.83-1.746 0.922 2.432-14.761 21.079-16.532 49.469-16.532 76.872z" />
<glyph unicode="&#xe942;" glyph-name="QS" d="M601.96 90.588c192.439 43.033 336.325 214.858 336.325 420.279 0 237.82-192.857 430.687-430.687 430.687-237.82 0-430.687-192.857-430.687-430.687 0-162.727 90.31-304.333 223.505-377.619-61.885-21.708-106.577-57.177-122.934-74.054 95.333 14.325 143.152 21.855 282.602-69.076 104.974-68.432 360.596-33.494 439.888 49.557-116.071-42.965-186.907-2.258-298.011 50.912zM367.042 215.881c-27.973 15.014-60.858 46.126-68.568-2.088l-34.261 1.479v170.776h32.726c39.781-140.714 91.54-163.596 200.804-172.018 32.037-2.495 70.464 10.363 90.727 36.203 13.874 17.644 18.367 54.039 12.892 77.35-8.783 37.253-59.559 70.78-143.66 115.010-138.829 73.061-201.323 108.722-209.078 188.86-12.44 128.364 104.432 201.605 258.658 208.841 47.909 2.224 93.933-9.934 139.653-32.929 20.692-10.442 69.437-38.009 75.657-5.667h39.793v-165.267l-35.605 1.389c-13.276 115.179-117.335 167.942-210.478 167.942-77.204 0-101.519-43.394-93.064-97.817 5.78-37.298 36.372-66.841 135.815-117.787 134.392-68.884 210.094-123.476 212.623-215.773 3.409-124.334-92.895-185.067-247.133-191.908-58.43-2.608-111.002 8.478-157.5 33.403z" />
<glyph unicode="&#xe943;" glyph-name="resource" d="M515.567-49.494c-275.806 0-500.226 224.409-500.226 500.192 0 275.84 224.42 500.226 500.226 500.226s500.237-224.386 500.237-500.226c-0.011-275.783-224.431-500.192-500.237-500.192zM515.567 853.863c-222.309 0-403.177-180.845-403.177-403.165 0-222.286 180.857-403.132 403.177-403.132 222.298 0 403.177 180.857 403.177 403.132 0 222.32-180.879 403.165-403.177 403.165zM477.332 133.214l-0.045 73.456-6.739 0.7c-97.647 9.9-172.288 52.12-193.252 108.518l81.753 19.992c13.874-17.554 54.31-38.054 109.783-45.437l8.478-1.151v128.522l-6.288 1.039c-75.939 12.192-118.701 30.57-137.474 40.493l-3.138 1.682c-38.811 26.224-59.3 59.153-59.3 95.277 0.023 71.3 82.058 129.414 199.449 141.256l6.751 0.643v71.627h82.080l0.023-72.112 6.626-0.779c87.883-10.047 156.812-46.656 182.618-96.394l-79.529-28.052c-15.206 15.804-50.652 33.742-101.113 41.328l-8.613 1.298v-134.155l6.175-1.14c54.412-9.697 98.957-22.352 128.782-36.609 13.49-6.502 23.718-12.88 31.089-19.473 2.732-2.54 5.136-5.069 7.383-7.451 17.904-20.5 27.116-43.281 27.116-67.597 0-69.832-79.732-127.709-193.929-140.714l-6.638-0.734-0.034-74.088-82.013 0.056zM559.413 290.048l8.625 1.321c64.718 9.832 109.828 38.122 109.828 57.347 0.113 19.112-44.986 47.277-109.828 57.042l-8.625 1.309v-117.019zM468.821 614.475c-71.514-9.528-115.551-40.244-115.664-58.069 0-17.825 44.037-48.462 115.664-58.013l8.478-1.129v118.351l-8.478-1.14z" />
<glyph unicode="&#xe944;" glyph-name="seal3" d="M835.717 280.422h-222.648c-5.555 19.072-8.463 39.997-8.463 61.583 0 52.895 18.038 102.164 45.983 125.542 1.014 0.86 1.971 1.782 2.872 2.76l8.914 9.923c53.862 44.948 84.7 110.787 84.7 180.961 0 129.94-105.702 235.643-235.653 235.643s-235.663-105.702-235.663-235.643c0-70.405 31.007-136.366 85.14-181.33l8.668-9.61c0.87-0.963 1.812-1.864 2.816-2.693 27.945-23.404 45.988-72.689 45.988-125.548 0-21.489-2.918-42.47-8.499-61.588h-222.751c-46.316 0-83.994-37.673-83.994-83.988v-111.99c0-46.321 37.678-83.999 83.994-83.999h648.591c46.321 0 83.994 37.678 83.994 83.999v111.99c0 46.305-37.678 83.988-83.988 83.988zM409.897 509.143l-8.832 9.789c-0.957 1.055-1.987 2.028-3.092 2.924-42.076 34.314-66.222 85.1-66.222 139.331 0 99.057 80.604 179.645 179.661 179.645s179.661-80.589 179.661-179.645c0-54.067-24.008-104.745-65.894-139.044-1.101-0.906-2.135-1.889-3.092-2.939l-9.052-10.092c-39.808-34.422-64.445-98.196-64.445-167.112 0-21.135 2.284-41.907 6.692-61.583h-87.624c4.413 19.732 6.717 40.525 6.717 61.583-0.005 68.91-24.668 132.695-64.476 167.142v0zM863.708 84.434c0-15.437-12.549-27.996-27.996-27.996h-648.591c-15.447 0-27.996 12.559-27.996 27.996v111.99c0 15.437 12.549 27.996 27.996 27.996h648.596c15.447 0 27.996-12.559 27.996-27.996v-111.99z" />
<glyph unicode="&#xe945;" glyph-name="select" d="M770.241-18.202h-586.697c-43.71 0-84.812 17.012-115.709 47.875-30.909 30.863-47.932 71.92-47.932 115.597v586.11c0 43.665 17.012 84.711 47.921 115.585 30.92 30.886 72.011 47.887 115.721 47.887h293.349c44.094 0 79.823-35.695 79.823-79.744 0-44.037-35.729-79.732-79.823-79.732h-293.349c-0.452 0-1.659 0-2.833-1.174-1.163-1.163-1.163-2.359-1.163-2.822v-586.099c0-0.44 0-1.648 1.174-2.822s2.371-1.174 2.822-1.174h586.709c0.452 0 1.648 0 2.822 1.174s1.174 2.382 1.174 2.822v293.044c0 44.037 35.74 79.732 79.834 79.732 44.071 0 79.811-35.706 79.811-79.732v-293.044c0-43.676-17.023-84.733-47.932-115.597s-71.999-47.887-115.721-47.887zM1000.757 767.087l-110.121 109.986-407.963-407.534-141.515 141.369-110.121-109.986 223.833-223.618 0.914 0.914 27.815-27.759z" />
<glyph unicode="&#xe947;" glyph-name="stand" d="M692.26 98.442c42.184 29.583 75.73 61.911 99.871 95.8 39.414 55.388 52.608 108.774 52.608 173.194v386.386c-7.383-0.246-14.956-0.374-23.091-0.374-92.027 0-169.062 18.156-230.784 47.432-19.871 9.308-38.845 20.434-56.689 33.213-8.433 5.975-16.41 12.564-23.875 19.712-6.236-5.053-14.577-12.268-25.917-20.495-19.215-13.763-39.757-25.58-61.312-35.277-65.961-30.106-148.884-47.396-248.484-44.211v-386.401c0-64.425 13.179-117.806 52.613-173.194 24.12-33.889 57.667-66.212 99.866-95.8 48.512-34.053 109.967-65.572 182.589-93.445 72.622 27.873 134.088 59.392 182.6 93.445v0.015zM595.231 871.916c9.605-6.968 21.427-14.049 35.502-20.716 42.772-20.265 97.859-33.244 165.929-33.244 6.702 0 12.769 0.113 18.729 0.312l101.448 3.461v-451.871c0-77.133-16.732-144.973-65.935-214.088-28.667-40.269-67.113-77.292-114.084-110.249-51.036-35.814-113.848-68.009-186.762-95.974l-35.267-13.548-35.261 13.542c-72.934 27.95-135.721 60.16-186.762 95.959-46.971 32.963-85.422 69.996-114.079 110.249-49.213 69.13-65.956 136.986-65.956 214.129v451.82l101.422-3.451c74.931-2.524 135.040 9.948 181.171 31.007 13.471 6.026 26.307 13.373 38.323 21.934 5.176 3.748 8.453 6.513 9.846 7.834l71.363 77.389 70.902-77.010c1.567-1.418 4.716-4.045 9.472-7.475v-0.010zM352.655 662.605h46.766v-80.819h47.677v-45.86h-47.677v-27.244c22.221-22.328 43.576-45.507 64.020-69.468l-26.788-40.412c-14.075 22.702-26.337 41.769-37.233 57.211v-212.5h-46.766v197.514c-12.713-33.603-27.699-65.388-44.954-94.444l-20.434 51.763c29.512 40.412 51.308 86.272 64.932 137.58h-49.946v45.86h50.401v80.819zM487.055 456.008l43.136-9.533c-14.075-63.565-34.053-118.057-60.39-164.372l-41.318 26.337c27.464 45.655 47.252 95.508 58.573 147.569zM665.953 460.093c18.171-53.596 33.326-108.17 45.404-163.461l-43.592-19.523c-13.619 63.57-28.15 119.419-44.042 168.458l42.23 14.525zM556.068 248.504h-45.86l-9.989 44.047c14.075-1.818 27.249-2.724 39.956-2.724 10.44 0 15.892 6.354 15.892 18.166v178.893h-105.339v45.409h258.811v-45.409h-106.245v-190.705c0-31.78-15.892-47.677-47.227-47.677v0zM474.342 641.265v-44.948h211.589v44.948h-211.589z" />
<glyph unicode="&#xe948;" glyph-name="storage" d="M1024 640h-1024v320h1024v-320zM64 704h896v192h-896v-192zM870.4 851.2c-25.6 0-51.2-25.6-51.2-51.2s25.6-51.2 51.2-51.2 51.2 25.6 51.2 51.2-19.2 51.2-51.2 51.2zM723.2 851.2c-25.6 0-51.2-25.6-51.2-51.2s25.6-51.2 51.2-51.2 51.2 25.6 51.2 51.2-19.2 51.2-51.2 51.2zM576 851.2c-25.6 0-51.2-19.2-51.2-51.2s25.6-51.2 51.2-51.2 51.2 25.6 51.2 51.2-19.2 51.2-51.2 51.2zM870.4 499.2c-25.6 0-51.2-25.6-51.2-51.2s25.6-51.2 51.2-51.2 51.2 25.6 51.2 51.2-19.2 51.2-51.2 51.2zM723.2 499.2c-25.6 0-51.2-25.6-51.2-51.2s25.6-51.2 51.2-51.2 51.2 25.6 51.2 51.2-19.2 51.2-51.2 51.2zM576 499.2c-25.6 0-51.2-25.6-51.2-51.2s25.6-51.2 51.2-51.2 51.2 25.6 51.2 51.2-19.2 51.2-51.2 51.2zM870.4 140.8c-25.6 0-51.2-25.6-51.2-51.2s25.6-51.2 51.2-51.2 51.2 25.6 51.2 51.2-19.2 51.2-51.2 51.2zM723.2 140.8c-25.6 0-51.2-25.6-51.2-51.2s25.6-51.2 51.2-51.2 51.2 25.6 51.2 51.2-19.2 51.2-51.2 51.2zM576 140.8c-25.6 0-51.2-25.6-51.2-51.2s25.6-51.2 51.2-51.2 51.2 25.6 51.2 51.2-19.2 51.2-51.2 51.2zM1024 288h-1024v320h1024v-320zM64 352h896v192h-896v-192zM1024-64h-1024v320h1024v-320zM64 0h896v192h-896v-192z" />
<glyph unicode="&#xe949;" glyph-name="storage2" d="M512 521.155c90.307 0 174.653 8.192 253.123 24.576 78.464 16.384 140.416 40.576 185.728 72.576v-97.152c0-26.307-19.651-50.688-58.88-73.155-39.235-22.467-92.544-40.32-160-53.443-67.395-13.123-140.739-19.712-219.971-19.712s-152.576 6.589-220.032 19.712c-67.395 13.184-120.704 30.976-160 53.443-39.235 22.467-58.88 46.848-58.88 73.155v97.152c45.312-32 107.264-56.192 185.728-72.576 78.531-16.384 162.877-24.576 253.184-24.576v0 0zM512 82.304c90.307 0 174.653 8.192 253.123 24.576s140.416 40.576 185.728 72.576v-97.152c0-26.307-19.651-50.688-58.88-73.155-39.235-22.461-92.544-40.32-160-53.443-67.395-13.117-140.739-19.707-219.971-19.707s-152.576 6.589-220.032 19.712c-67.456 13.123-120.765 30.981-160 53.443-39.235 22.467-58.88 46.848-58.88 73.155v97.147c45.312-32 107.264-56.192 185.728-72.576 78.531-16.384 162.877-24.576 253.184-24.576v0 0zM512 301.696c90.307 0 174.653 8.197 253.123 24.576 78.464 16.384 140.416 40.581 185.728 72.581v-97.157c0-26.307-19.651-50.683-58.88-73.149-39.235-22.467-92.544-40.253-160-53.443-67.395-13.123-140.739-19.651-219.971-19.651s-152.576 6.595-220.032 19.717c-67.456 13.123-120.765 30.976-160 53.443-39.235 22.461-58.88 46.843-58.88 73.149v97.085c45.312-32 107.264-56.197 185.728-72.581 78.531-16.379 162.877-24.571 253.184-24.571v0 0zM512 960c79.232 0 152.576-6.595 220.032-19.712 67.461-13.123 120.771-30.976 160-53.443 39.235-22.461 58.88-46.848 58.88-73.155v-73.149c0-26.307-19.645-50.688-58.88-73.155-39.229-22.467-92.539-40.259-160-53.443-67.456-13.123-140.8-19.645-220.032-19.645s-152.576 6.589-220.032 19.712c-67.456 13.123-120.765 30.976-160 53.443s-58.88 46.848-58.88 73.155v73.088c0 26.307 19.645 50.688 58.88 73.155 39.235 22.461 92.544 40.315 160 53.437 67.456 13.117 140.8 19.712 220.032 19.712v0 0z" />
<glyph unicode="&#xe94b;" glyph-name="table" d="M0 960h1024v-256h-1024v256zM0 960h64v-1024h-64v1024zM0 0h1024v-64h-1024v64zM0 960h1024v-64h-1024v64zM960 960h64v-1024h-64v1024zM64 512h896v-64h-896v64zM320 704h64v-704h-64v704zM640 704h64v-704h-64v704zM64 256h896v-64h-896v64z" />
<glyph unicode="&#xe94c;" glyph-name="table2" d="M855.47 960h-686.935c-92.928 0-168.535-75.607-168.535-168.535v-686.894c0-92.964 75.607-168.571 168.535-168.571h686.935c92.923 0 168.53 75.607 168.53 168.576v686.889c0 92.928-75.607 168.535-168.53 168.535zM318.935 614.4v-145.070h-276.27v202.67h276.265v-57.6zM361.6 672h619.73v-202.665h-619.73v202.665zM42.665 426.67h276.265v-202.691h-276.265v202.691zM361.6 426.67h619.73v-202.691h-619.73v202.691zM981.33 791.465v-76.8h-619.73v199.47c0 1.132-0.471 2.115-0.64 3.2h494.51c69.417 0 125.86-56.448 125.86-125.87zM168.535 917.335h151.060c-0.169-1.085-0.64-2.068-0.64-3.2v-199.465h-276.291v76.8c0 69.417 56.448 125.865 125.87 125.865zM42.665 104.576v76.733h276.265v-199.439c0-1.157 0.471-2.14 0.64-3.2h-151.040c-69.417 0-125.865 56.443-125.865 125.906zM855.47-21.33h-494.51c0.169 1.085 0.64 2.063 0.64 3.2v199.439h619.73v-76.733c0-69.463-56.443-125.906-125.86-125.906z" />
<glyph unicode="&#xe94d;" glyph-name="table3" d="M128 832h768v-16h-768v16zM128 816h16v-752h-16v752zM144 80h752v-16h-752v16zM880 816h16v-736h-16v736zM144 192h736v-16h-736v16zM144 320h752v-16h-752v16zM144 448h752v-16h-752v16zM144 576h736v-16h-736v16zM144 704h736v-16h-736v16zM368 704h16v-624h-16v624zM640 688h16v-624h-16v624zM256 784h512v-48h-512v48z" />
<glyph unicode="&#xe94e;" glyph-name="target" d="M928.302 714.399l-123.402 26.701-24.402 122.399-72.699-72.699c-59.3 34.299-126.802 52.301-196.398 52.301-53.299 0-105.098-10.501-153.8-31.099-47.099-19.901-89.298-48.399-125.599-84.7s-64.804-78.5-84.7-125.599c-20.598-48.701-31.099-100.5-31.099-153.8s10.501-105.098 31.099-153.8c19.901-47.099 48.399-89.298 84.7-125.599s78.5-64.799 125.599-84.7c48.701-20.598 100.5-31.099 153.8-31.099s105.098 10.501 153.8 31.099c47.099 19.901 89.298 48.399 125.599 84.7s64.799 78.5 84.7 125.599c20.598 48.701 31.099 100.5 31.099 153.8 0 69.1-17.802 136.3-51.702 195.302l73.405 71.194zM733.599 525.701l1.5 1.398c9.001-25.298 13.501-51.799 13.501-79.099 0-63.401-24.699-122.9-69.499-167.7s-104.3-69.499-167.7-69.499-122.9 24.699-167.7 69.499-69.499 104.3-69.499 167.7 24.699 122.9 69.499 167.7 104.3 69.499 167.7 69.499c26.9 0 52.9-4.398 77.599-13.102l-0.2-0.2 19.2-96-16-15.498c-22.702 16.302-50.499 25.999-80.599 25.999-76.201 0-138.301-61.998-138.301-138.296 0-76.201 61.998-138.301 138.301-138.301s138.301 61.998 138.301 138.301c0 31.002-10.199 59.602-27.5 82.698l15.601 15.698 95.795-20.797zM610.099 448c0-54.4-44.298-98.698-98.698-98.698s-98.703 44.298-98.703 98.698 44.298 98.698 98.698 98.698c20.101 0 38.799-6.001 54.4-16.399l-44.201-44.201c-3.302 0.901-6.702 1.398-10.301 1.398-21.801 0-39.598-17.7-39.598-39.598 0-21.801 17.7-39.598 39.598-39.598s39.7 17.9 39.7 39.7c0 3.502-0.502 6.999-1.398 10.301l44.201 44.201c10.301-15.703 16.302-34.401 16.302-54.502zM691.599 656.998l-12.298 49.5 23.199 23.199 12.498-50.002-23.398-22.697zM662.999 690.202l12.201-49.101-33.5-32.502-10.102 50.202 31.401 31.401zM747.802 594.499l-26.501-25.702-50.299 10.798 33.101 33.198 51.799-10.301-8.1-7.992zM773.202 619.1l-52.198 10.399 22.702 22.702 52.803-10.501-23.306-22.6zM813.701 658.401l-53.002 10.598 30.3 29.399 4.5 4.301 52.198-11.3-33.997-32.998zM766.602 731.1l-35.302-35.302-12.498 50.202 37.402 37.402 10.399-52.301zM867 448c0-95.002-37.002-184.3-104.202-251.5s-156.401-104.1-251.402-104.1-184.3 37.002-251.5 104.202-104.095 156.396-104.095 251.397 37.002 184.3 104.202 251.5 156.498 104.202 251.5 104.202c58.998 0 116.301-14.403 167.301-41.902l-59.3-59.3c-33.9 14.7-70.2 22.2-108.099 22.2-73.902 0-143.401-28.8-195.599-80.998s-80.998-121.702-80.998-195.599 28.8-143.401 80.998-195.599 121.702-80.998 195.599-80.998 143.401 28.8 195.599 80.998 80.998 121.702 80.998 195.599c0 37.898-7.501 74.501-22.298 108.902l59.699 57.902c27.397-51.005 41.595-108.206 41.595-166.907z" />
<glyph unicode="&#xe94f;" glyph-name="task_check" d="M880.297-27.418h-724.669c-59.29 0-107.356 48.020-107.356 107.366v670.925c0 59.341 48.072 107.407 107.356 107.407h107.361v13.425c0 22.221 18.028 40.259 40.253 40.259 22.257 0 40.264-18.038 40.264-40.259v-13.425h348.913v13.425c0 22.221 18.038 40.259 40.259 40.259s40.259-18.038 40.259-40.259v-13.425h107.351c59.295 0 107.366-48.067 107.366-107.407v-670.93c0-59.346-48.067-107.361-107.356-107.361v0 0zM907.141 724.091c0 29.635-24.049 53.673-53.678 53.673h-80.522v-13.42c0-22.226-18.038-40.259-40.259-40.259s-40.259 18.033-40.259 40.259v13.42h-348.918v-13.42c0-22.226-18.007-40.259-40.264-40.259-22.226 0-40.253 18.033-40.253 40.259v13.42h-80.522c-29.629 0-53.678-24.044-53.678-53.673v-617.313c0-29.66 24.049-53.678 53.678-53.678h670.991c29.629 0 53.678 24.018 53.678 53.678v617.313h0.005zM516.378 223.099c-0.031 0-0.031-0.051-0.051-0.051-15.729-15.729-41.201-15.729-56.929 0l-150.487 150.492c-15.703 15.677-15.703 41.201 0.020 56.929 15.698 15.718 41.201 15.718 56.929 0l122.015-122.045 209.024 209.055c15.729 15.729 41.231 15.729 56.96 0 15.698-15.729 15.698-41.196 0-56.919l-237.481-237.46z" />
<glyph unicode="&#xe950;" glyph-name="task_ok" d="M793.569 811.392c0 20.352-16.799 36.925-37.663 36.925h-94.080v-36.925c0-20.383-16.799-36.9-37.637-36.9h-319.903c-20.577-0.195-37.422 16.323-37.632 36.9v36.925h-112.896c-20.803 0-37.632-16.573-37.632-36.925v-701.312c0-20.383 16.835-36.895 37.632-36.895h301.087l75.233-73.892h-413.983c-41.569 0-75.264 33.121-75.264 73.892v775.132c0 40.765 33.695 73.825 75.264 73.825h150.559c0 20.383 16.835 36.895 37.632 36.895h319.903c20.803 0 37.637-16.512 37.637-36.895h131.743c41.564 0 75.295-33.060 75.295-73.825v-452.291l-75.295 36.9v378.465zM624.189 553.027h-338.719c-10.291-0.092-18.708 8.172-18.816 18.463v18.463c0 10.173 8.417 18.463 18.816 18.463h338.688c10.337 0 18.852-8.289 18.852-18.463v-18.463c-0.113-10.291-8.53-18.555-18.821-18.463zM643.041 368.451c-0.159-10.281-8.571-18.504-18.852-18.437h-338.719c-10.281-0.087-18.693 8.156-18.816 18.437v18.493c0.087 10.25 8.468 18.483 18.719 18.401 0.036 0 0.067 0 0.102 0h338.688c10.337 0 18.852-8.197 18.852-18.401v-18.493h0.026zM785.951 383.872c-82.688 1.71-151.112-63.939-152.822-146.632s63.939-151.117 146.632-152.827c2.063-0.046 4.132-0.046 6.19 0 82.693 1.71 148.347 70.134 146.637 152.827-1.664 80.287-66.345 144.968-146.637 146.632zM840.253 156.385l-54.687 30.111-55.009-29.563 11.648 61.312-45.025 43.203 61.921 7.808 27.136 56.218 26.624-56.479 61.855-8.417-45.507-42.783 11.044-61.409zM653.696 130.304l-64.988-131.809 81.92 6.692 43.105-68.255 63.616 129.085c-48.568 2.565-93.66 26.004-123.653 64.287zM918.144 130.304l64.963-131.809-81.92 6.692-43.075-68.255-63.58 129.085c48.558 2.545 93.645 25.989 123.612 64.287v0z" />
<glyph unicode="&#xe951;" glyph-name="task_ok2" d="M801.275 802.826c0 21.699-17.935 39.291-40.064 39.291h-100.163v-39.291c0-21.704-17.935-39.291-40.059-39.291h-340.547c-22.124 0-40.059 17.592-40.059 39.291v39.291h-120.192c-22.124 0-40.064-17.592-40.064-39.291v-746.568c0-21.704 17.935-39.301 40.064-39.301h320.507l80.128-78.587h-440.699c-44.252 0.010-80.128 35.19-80.128 78.587v825.165c0 43.402 35.876 78.592 80.128 78.592h160.256c0 21.693 17.935 39.286 40.059 39.286h340.547c22.124 0 40.059-17.592 40.059-39.291h140.227c44.257 0 80.123-35.19 80.123-78.592v-360.581l-80.123-81.613v402.903zM620.989 527.775h-360.576c-11.064 0-20.029 8.796-20.029 19.651v19.64c0 10.854 8.965 19.645 20.029 19.645h360.576c11.059 0 20.029-8.791 20.029-19.645v-19.64c0-10.854-8.97-19.651-20.029-19.651zM641.019 331.31c0-10.849-8.97-19.645-20.029-19.645h-360.576c-11.064 0-20.029 8.796-20.029 19.645v19.651c0 10.844 8.965 19.64 20.029 19.64h360.576c11.059 0 20.029-8.796 20.029-19.64v-19.651zM466.412 209.121l148.25-126.71 406.963 406.072-401.418-550.103-206.689 218.916 52.895 51.825z" />
</font>
</defs>
</svg>
