<?xml version="1.0" standalone="no"?>
<!DOCTYPE svg PUBLIC "-//W3C//DTD SVG 1.1//EN" "http://www.w3.org/Graphics/SVG/1.1/DTD/svg11.dtd" >
<svg xmlns="http://www.w3.org/2000/svg">
<metadata>
<json>
<![CDATA[
{
	"fontFamily": "mobox-dms",
	"majorVersion": 2,
	"minorVersion": 0,
	"version": "Version 2.0",
	"fontId": "mobox-dms",
	"psName": "mobox-dms",
	"subFamily": "Regular",
	"fullName": "mobox-dms",
	"description": "Font generated by IcoMoon."
}
]]>
</json>
</metadata>
<defs>
<font id="mobox-dms" horiz-adv-x="1024">
<font-face units-per-em="1024" ascent="960" descent="-64" />
<missing-glyph horiz-adv-x="1024" />
<glyph unicode="&#x20;" horiz-adv-x="512" d="" />
<glyph unicode="&#xe900;" glyph-name="add-file" data-tags="add-file" d="M921.6 192h-102.4v102.4c0 28.277-22.923 51.2-51.2 51.2s-51.2-22.923-51.2-51.2v0-102.4h-102.4c-28.277 0-51.2-22.923-51.2-51.2s22.923-51.2 51.2-51.2h102.4v-102.4c0-28.277 22.923-51.2 51.2-51.2s51.2 22.923 51.2 51.2v0 102.4h102.4c28.277 0 51.2 22.923 51.2 51.2s-22.923 51.2-51.2 51.2v0zM942.592 601.6l-328.192 328.192c-18.453 18.56-43.965 30.085-72.169 30.208h-388.631c-56.554 0-102.4-45.846-102.4-102.4v0-819.2c0-56.554 45.846-102.4 102.4-102.4v0h358.4c28.277 0 51.2 22.923 51.2 51.2s-22.923 51.2-51.2 51.2h-358.4v819.2h358.4v-256c0-56.554 45.846-102.4 102.4-102.4h256v-102.4c0-28.277 22.923-51.2 51.2-51.2s51.2 22.923 51.2 51.2v0 132.608c-0.123 28.227-11.648 53.739-30.203 72.187l-0.005 0.005zM614.4 785.408l183.808-183.808h-183.808z" />
<glyph unicode="&#xe901;" glyph-name="add-floder" data-tags="add-floder" d="M921.6 755.2h-179.2l-122.88 163.84c-18.88 24.983-48.534 40.96-81.92 40.96v0h-435.2c-56.554 0-102.4-45.846-102.4-102.4v0-819.2c0-56.554 45.846-102.4 102.4-102.4v0h409.6c28.277 0 51.2 22.923 51.2 51.2s-22.923 51.2-51.2 51.2h-409.6v614.4h819.2v-204.8c0-28.277 22.923-51.2 51.2-51.2s51.2 22.923 51.2 51.2v0 204.8c0 56.554-45.846 102.4-102.4 102.4v0zM537.6 857.6l76.8-102.4h-512v102.4zM972.8 243.2h-153.6v153.6c0 28.277-22.923 51.2-51.2 51.2s-51.2-22.923-51.2-51.2v0-153.6h-153.6c-28.277 0-51.2-22.923-51.2-51.2s22.923-51.2 51.2-51.2h153.6v-153.6c0-28.277 22.923-51.2 51.2-51.2s51.2 22.923 51.2 51.2v0 153.6h153.6c28.277 0 51.2 22.923 51.2 51.2s-22.923 51.2-51.2 51.2v0z" />
<glyph unicode="&#xe902;" glyph-name="book" data-tags="book" d="M896 832v-832h-672c-53.028 0-96 42.98-96 96s42.972 96 96 96h608v768h-640c-70.398 0-128-57.6-128-128v-768c0-70.4 57.602-128 128-128h768v896h-64zM224.056 128v0c-0.018-0.002-0.038 0-0.054 0-17.672 0-32-14.326-32-32s14.328-32 32-32c0.018 0 0.038 0.002 0.054 0.002v-0.002h607.89v64h-607.89z" />
<glyph unicode="&#xe903;" glyph-name="book2" data-tags="book2" d="M480 64v-58.688c0-0.017 0-0.037 0-0.056 0-35.346-28.654-64-64-64-6.456 0-12.689 0.956-18.565 2.734l0.453-0.118-320 94.4c-26.743 8.074-45.884 32.489-45.888 61.376v0 696.704c0 0.017 0 0.037 0 0.056 0 28.89 19.142 53.309 45.435 61.266l0.453 0.118 320 94.272c5.423 1.66 11.656 2.616 18.112 2.616 35.346 0 64-28.654 64-64 0-0.020 0-0.040 0-0.059v0.003-58.624h448c35.346 0 64-28.654 64-64v0-640c0-35.346-28.654-64-64-64v0h-448zM480 128h448v640h-448v-640zM576 640h256c17.673 0 32-14.327 32-32s-14.327-32-32-32v0h-256c-17.673 0-32 14.327-32 32s14.327 32 32 32v0zM576 480h256c17.673 0 32-14.327 32-32s-14.327-32-32-32v0h-256c-17.673 0-32 14.327-32 32s14.327 32 32 32v0zM576 320h256c17.673 0 32-14.327 32-32s-14.327-32-32-32v0h-256c-17.673 0-32 14.327-32 32s14.327 32 32 32v0zM96 796.352v-696.704l320-94.336v885.376l-320-94.336z" />
<glyph unicode="&#xe904;" glyph-name="books" data-tags="books" horiz-adv-x="1152" d="M256 832h-192c-17.6 0-32-14.4-32-32v-704c0-17.6 14.4-32 32-32h192c17.6 0 32 14.4 32 32v704c0 17.6-14.4 32-32 32zM224 640h-128v64h128v-64zM576 832h-192c-17.6 0-32-14.4-32-32v-704c0-17.6 14.4-32 32-32h192c17.6 0 32 14.4 32 32v704c0 17.6-14.4 32-32 32zM544 640h-128v64h128v-64zM797.088 782.52l-171.464-86.394c-15.714-7.918-22.096-27.258-14.178-42.976l287.978-571.548c7.918-15.716 27.258-22.098 42.974-14.178l171.464 86.392c15.714 7.92 22.096 27.26 14.178 42.972l-287.978 571.552c-7.918 15.718-27.258 22.1-42.974 14.18v0z" />
<glyph unicode="&#xe905;" glyph-name="box-file" data-tags="box-file" d="M961.536 428.749c-0.614 3.482-1.843 7.168-3.891 10.445l-130.253 214.016v28.877c0 10.445 0 20.275 0.205 29.901 0.819 89.702 1.434 174.285-101.376 179.2h-422.298c-33.587 0-58.368-8.602-76.186-26.624-30.72-30.925-30.31-79.258-29.696-140.288 0-8.602 0.205-17.408 0.205-26.419v-38.093c-2.867-2.253-5.325-4.915-7.168-8.192l-126.362-215.45c-1.638-2.867-2.662-5.734-3.277-8.806-6.144-12.288-9.626-26.010-9.626-40.346v-290.406c0-50.586 41.984-91.75 93.594-91.75h733.184c51.61 0 93.594 41.165 93.594 91.75v290.406c-0.205 14.95-4.096 29.286-10.65 41.779zM861.389 478.72h-33.997v55.91l33.997-55.91zM271.565 821.35c5.53 5.53 16.384 8.397 32.358 8.397h420.045c36.25-1.843 42.803-11.264 41.779-117.146 0-9.83-0.205-19.866-0.205-30.515v-203.366h-100.966c-16.998 0-30.925-13.722-30.925-30.925 0-64.307-54.682-116.736-122.061-116.736s-122.061 52.429-122.061 116.736c0 16.998-13.722 30.925-30.925 30.925h-98.714v219.136c0 9.421 0 18.432-0.205 27.034-0.41 43.008-0.819 83.558 11.878 96.461zM198.042 541.798v-63.078h-36.864l36.864 63.078zM910.336 96.358c0-16.179-14.541-30.106-31.949-30.106h-733.184c-17.203 0-31.949 13.722-31.949 30.106v290.611c0 16.179 14.541 30.106 31.949 30.106h185.549c15.155-83.763 90.522-147.456 181.043-147.456s165.888 63.898 181.043 147.456h185.549c17.203 0 31.949-13.722 31.949-30.106v-290.611zM385.638 681.472h270.131c16.998 0 30.925 13.722 30.925 30.925s-13.722 30.925-30.925 30.925h-270.131c-16.998 0-30.925-13.722-30.925-30.925s13.926-30.925 30.925-30.925zM354.714 611.021c0-16.998 13.722-30.925 30.925-30.925h270.131c16.998 0 30.925 13.722 30.925 30.925s-13.722 30.925-30.925 30.925h-270.131c-16.998 0-30.925-13.926-30.925-30.925z" />
<glyph unicode="&#xe906;" glyph-name="box-file2" data-tags="box-file2" d="M256 784h496v-64h-496zM464 672h-208v-208h208zM400 528h-80v80h80zM544 672h208v-64h-208zM544 528h208v-64h-208zM880 560v336h-736v-336l-80-32v-528h896v528zM816 832v-416l-304-128-304 128v416zM128 496h16v-48h-16zM896 64h-768v320l384-160 384 160zM880 448v48h16v-32z" />
<glyph unicode="&#xe907;" glyph-name="cabinet" data-tags="cabinet" d="M954.168 960h-888.699c-31.375 0-43.576-18.954-43.576-51.635v-933.146c0-32.901 12.201-39.219 43.576-39.219h888.699c31.811 0 47.928 6.318 47.928 39.219v933.146c0.225 32.681-16.118 51.635-47.928 51.635zM958.746-20.424h-893.276v307.635h893.276v-307.635zM958.746 328.172h-893.276v285.85h-3.922l3.922 2.176v-1.961h893.276v-286.065zM958.746 654.981h-893.276v261.443h-3.922v1.526h3.922v-1.526h893.276v-261.443zM784.451 763.914h87.148c12.032 0 21.786 9.754 21.786 21.786v21.786c0 12.032-9.754 21.786-21.786 21.786h-87.148c-12.037 0-21.791-9.754-21.791-21.786v-21.786c0-12.032 9.754-21.786 21.791-21.786zM784.451 437.105h87.148c12.032 0 21.786 9.754 21.786 21.786v21.786c0 12.032-9.754 21.786-21.786 21.786h-87.148c-12.037 0-21.791-9.754-21.791-21.786v-21.786c0-12.032 9.754-21.786 21.791-21.786zM784.451 110.3h87.148c12.032 0 21.786 9.748 21.786 21.786v21.786c0 12.037-9.754 21.791-21.786 21.791h-87.148c-12.037 0-21.791-9.754-21.791-21.791v-21.786c0-12.037 9.754-21.786 21.791-21.786z" />
<glyph unicode="&#xe908;" glyph-name="cabinet2" data-tags="cabinet2" d="M792.561 896h-561.121c-39.982-0.020-72.397-32.42-72.438-72.402v-325.811h706.002v325.811c-0.051 39.982-32.466 72.376-72.443 72.402zM358.139 610.852c0-22.461-20.26-40.658-45.251-40.658s-45.251 18.202-45.251 40.658v135.89c0 22.461 20.26 40.658 45.251 40.658s45.251-18.202 45.251-40.658v-135.89zM159.002 117.678c0.046-39.972 32.43-72.356 72.402-72.402h2.662c9.953-33.521 45.199-52.618 78.715-42.665 20.521 6.093 36.572 22.144 42.665 42.665h313.001c9.953-33.521 45.199-52.618 78.715-42.665 20.521 6.093 36.572 22.144 42.665 42.665h2.662c39.967 0.051 72.351 32.435 72.402 72.402v343.91h-705.889v-343.91zM267.602 348.529c0 22.451 20.26 40.658 45.251 40.658s45.251-18.202 45.251-40.658v-135.89c0-22.451-20.26-40.658-45.251-40.658s-45.251 18.202-45.251 40.658v135.89z" />
<glyph unicode="&#xe909;" glyph-name="cabinet3" data-tags="cabinet3" horiz-adv-x="1027" d="M774.702 449.802h-494.7c-11.899 0-21.601 9.702-21.601 21.601v276.198c0 12.001 9.702 21.601 21.601 21.601h494.7c12.001 0 21.601-9.702 21.601-21.601v-276.101c-0.005-12.001-9.605-21.699-21.601-21.699zM301.599 493.102h451.4v232.796h-451.4v-232.796zM588.298 587.899h-121.999c-11.899 0-21.601 9.702-21.601 21.601s9.702 21.601 21.601 21.601h121.999c12.001 0 21.601-9.702 21.601-21.601 0.102-11.899-9.6-21.601-21.601-21.601zM588.298 77.102h-121.999c-11.899 0-21.601 9.702-21.601 21.601s9.702 21.601 21.601 21.601h121.999c12.001 0 21.601-9.702 21.601-21.601 0.102-12.001-9.6-21.601-21.601-21.601zM339.502 228.9c-8.499 0-16.599 5.1-20.101 13.501-4.5 11.1 0.799 23.7 11.899 28.201l322.299 131.799c24.003 10.501 45 1.5 54.001-21.002l58.9-122.102c4.803-10.9-0.102-23.7-10.998-28.498s-23.7 0.102-28.498 10.998l-43.1 97.398c-5.898 13.199-21.202 19.4-34.601 13.998l-301.701-122.691c-2.601-1.004-5.402-1.603-8.1-1.603zM894.1 844.401v1.198c0 0.399-0.102 0.799-0.102 1.198 0 0.302-0.102 0.599-0.102 0.901-0.102 0.399-0.2 0.901-0.2 1.3 0 0.2-0.102 0.399-0.102 0.599-0.901 3.4-2.499 6.6-4.9 9.201l-61.901 71.101c-14.3 14.1-28.8 28.001-43.802 28.001h-507.991c-17.5 0-30.3-10.998-34.401-15.498l-74.501-83.702c0 0 0-0.102-0.102-0.102-0.399-0.399-0.799-0.901-1.101-1.398l-0.2-0.2c-0.399-0.502-0.701-0.998-0.998-1.5 0-0.102-0.102-0.102-0.102-0.2-0.302-0.502-0.599-1.101-0.901-1.603v-0.102c-0.799-1.7-1.5-3.599-1.802-5.499l-0.302-1.802v-0.2c0-0.599-0.102-1.198-0.102-1.802v-800.502c0-33.7 27.402-61.102 61.102-61.102h25.6c6.098 0 10.998-4.9 10.998-10.998v-10.998c0-12.001 9.702-21.699 21.699-21.699h494.7c11.899 0 21.601 9.702 21.601 21.601v10.998c0 6.098 4.9 10.998 10.998 10.998h25.8c33.7 0 61.102 27.402 61.102 61.102v800.707zM258.099 896.2c10.501 11.699 25.498 18.401 41.298 18.401h455.9c15.8 0 30.802-6.702 41.298-18.401s2.202-30.403-13.501-30.403h-511.396c-15.8 0.005-24.1 18.703-13.599 30.403zM753.101-6.702c0-6.098-4.9-10.998-10.998-10.998h-429.404c-6.098 0-10.998 4.9-10.998 10.998v235.602c0 0 0 0.102 0.102 0.102h451.2c0 0 0.102 0 0.102-0.102v-235.602zM811.402 25.999h-15.099v224.502c0 12.001-9.702 21.699-21.699 21.699h-494.505c-12.001 0-21.699-9.702-21.699-21.699v-224.502h-15.002c-21.801 0-39.501 17.7-39.501 39.501v727.199c0 16.502 13.399 29.901 29.901 29.901h587.203c16.502 0 29.901-13.399 29.901-29.901v-727.199c-0.005-21.801-17.705-39.501-39.501-39.501z" />
<glyph unicode="&#xe90a;" glyph-name="cloud-download" data-tags="cloud-download" d="M665.605 959.998c-143.742 0.515-273.722-85.375-327.773-218.355-24.343 8.592-52.414 13.556-81.644 13.556-0.064 0-0.128 0-0.192 0h0.010c-141.384 0-255.999-114.627-255.999-255.999s114.616-255.999 255.999-255.999h102.354v102.4h-102.354c-0.005 0-0.012 0-0.018 0-84.73 0-153.416 68.687-153.416 153.416s68.687 153.416 153.416 153.416c30.72 0 59.331-9.029 83.324-24.578l-0.598 0.363c7.883-5.201 17.554-8.296 27.948-8.296 24.195 0 44.473 16.776 49.835 39.33l0.070 0.348c27.263 114.31 128.529 197.999 249.342 197.999 141.385 0 255.999-114.615 255.999-255.999s-114.615-255.999-255.999-255.999c-0.107 0-0.214 0-0.32 0h0.016v-102.4c197.587 0 358.353 160.767 358.353 358.353s-160.767 358.445-358.353 358.445zM629.415 176.99l-66.21-66.187v337.196c-0.004 28.274-22.925 51.193-51.2 51.193s-51.196-22.919-51.2-51.192v0-337.196l-66.198 66.187c-9.184 8.821-21.68 14.252-35.444 14.252-28.277 0-51.2-22.923-51.2-51.2 0-13.765 5.432-26.261 14.269-35.462l-0.016 0.017 153.6-153.6c9.263-9.263 22.061-14.993 36.196-14.993s26.933 5.73 36.196 14.993l153.623 153.6c9.263 9.263 14.993 22.061 14.993 36.196 0 28.271-22.918 51.189-51.189 51.189-14.135 0-26.933-5.73-36.196-14.993v0z" />
<glyph unicode="&#xe90b;" glyph-name="collection" data-tags="collection" d="M867.417 960h-710.833c-39.258 0-71.084-38.205-71.084-85.333v-853.333c0-47.127 31.825-85.334 71.083-85.334l358.378 298.666 352.456-298.666c39.258 0 71.083 38.207 71.083 85.334v853.333c0 47.128-31.825 85.333-71.083 85.333zM852.5 15l-337.41 300.621-358.59-296.621c-16.674 0-12 19.641-12 58l0.287 753.544c0 38.359 28.107 69.456 62.781 69.456h606.812c34.673 0 62.781-31.097 62.781-69.456l0.339-758.544c0-24.359-3.327-57-25-57z" />
<glyph unicode="&#xe90c;" glyph-name="collection2" data-tags="collection2" d="M118.2 785.5v-675c0-62.2 50.3-112.5 112.5-112.5v900c-62.1 0-112.5-50.3-112.5-112.5zM793.2 898h-506.2v-900h506.2c62.2 0 112.5 50.3 112.5 112.5v675c0.1 62.2-50.3 112.5-112.5 112.5zM793.2 448l-84.4 56.3-84.3-56.3v337.5h168.7v-337.5z" />
<glyph unicode="&#xe90d;" glyph-name="collection-add" data-tags="collection-add" d="M902.976 856.96c0 28.608-12.576 54.528-32.832 73.216-19.936 18.368-47.392 29.824-77.344 29.824h-561.6c-30.016 0-57.408-11.456-77.344-29.824-20.256-18.688-32.832-44.672-32.832-73.216l0.064-886.72c0-5.952 1.632-12.032 5.024-17.472 10.016-16.128 31.872-21.376 48.608-11.712l316.416 181.376c6.464 3.712 13.632 5.568 20.8 5.568s14.4-1.856 20.864-5.568l313.76-179.904c0.288-0.16 0.576-0.352 0.864-0.544 5.728-3.776 12.672-5.984 20.032-5.984 19.616 0 35.52 15.296 35.52 34.112v319.392c0 9.632-7.936 17.44-17.76 17.44h-51.328c-9.792 0-17.76-7.808-17.76-17.44v-201.952c0-13.472-14.88-21.856-26.72-15.072l-223.040 127.904c-16.992 9.856-35.712 14.72-54.336 14.72s-37.344-4.864-54.336-14.72l-222.976-127.84c-11.84-6.784-26.72 1.6-26.72 15.072v755.52c0 8.896 4.032 17.024 10.432 22.912 6.656 6.272 16.096 10.112 26.656 10.112h533.824c10.56 0 20-3.84 26.848-10.112 6.336-5.888 10.368-14.016 10.368-22.912v-74.336c0-9.632 7.968-17.44 17.76-17.44h51.328c9.824 0 17.76 7.808 17.76 17.44v88.16zM684.576 343.072h53.984c9.088 0 16.448 7.232 16.448 16.16v126.752h129.056c9.088 0 16.448 7.232 16.448 16.16v53.024c0 8.928-7.36 16.16-16.448 16.16h-129.056v126.688c0 8.928-7.36 16.16-16.448 16.16h-53.984c-9.088 0-16.416-7.232-16.416-16.16v-126.752h-129.056c-9.088 0-16.416-7.232-16.416-16.16v-53.024c0-8.928 7.36-16.16 16.416-16.16h129.056v-126.752c-0.032-8.864 7.328-16.096 16.416-16.096z" />
<glyph unicode="&#xe90e;" glyph-name="collection-del" data-tags="collection-del" d="M902.976 856.96c0 28.608-12.576 54.528-32.832 73.216-19.936 18.368-47.392 29.824-77.344 29.824h-561.6c-30.016 0-57.408-11.456-77.344-29.824-20.256-18.688-32.832-44.672-32.832-73.216l0.064-886.72c0.007-6.476 1.878-12.513 5.104-17.607l-0.080 0.135c10.016-16.128 31.872-21.376 48.608-11.712l316.416 181.376c6.464 3.712 13.632 5.568 20.8 5.568s14.4-1.856 20.864-5.568l313.76-179.904c0.288-0.16 0.576-0.352 0.864-0.544 5.634-3.75 12.557-5.984 20.002-5.984 0.011 0 0.021 0 0.032 0h-0.002c19.616 0 35.52 15.296 35.52 34.112v319.392c0 9.632-7.936 17.44-17.76 17.44h-51.328c-9.792 0-17.76-7.808-17.76-17.44v-201.952c0-13.472-14.88-21.856-26.72-15.072l-223.040 127.904c-16.992 9.856-35.712 14.72-54.336 14.72s-37.344-4.864-54.336-14.72l-222.976-127.84c-11.84-6.784-26.72 1.6-26.72 15.072v755.52c0 8.896 4.032 17.024 10.432 22.912 6.656 6.272 16.096 10.112 26.656 10.112h533.824c10.56 0 20-3.84 26.848-10.112 6.336-5.888 10.368-14.016 10.368-22.912v-74.336c0-9.632 7.968-17.44 17.76-17.44h51.328c9.824 0 17.76 7.808 17.76 17.44v88.16zM884.032 571.264h-344.96c-9.088 0-16.416-7.232-16.416-16.16v-53.024c0-8.928 7.36-16.16 16.416-16.16h344.96c9.088 0 16.448 7.232 16.448 16.16v53.024c0 8.928-7.36 16.16-16.448 16.16z" />
<glyph unicode="&#xe90f;" glyph-name="contract" data-tags="contract" d="M838.932 924.846h-653.87c-35.169 0-63.698-28.529-63.698-63.698v-826.301c0-35.164 28.534-63.698 63.698-63.698h653.87c35.21 0 63.698 28.534 63.698 63.698v826.301c0.005 35.169-28.488 63.698-63.698 63.698zM859.090 39.204c0-11.735-9.492-21.228-21.228-21.228h-653.297c-11.735 0-21.233 9.492-21.233 21.228v819.205c0 11.735 9.498 21.233 21.233 21.233h653.297c11.735 0 21.228-9.498 21.228-21.233v-819.205zM463.795 310.149l-35.4 71.741-35.4-71.741-79.13-11.489 57.252-55.818-13.501-78.838 70.769 37.238 70.774-37.238-13.501 78.838 57.267 55.818-79.13 11.489zM300.564 803.584h424.673v-44.252h-424.673v44.252zM300.564 695.629h424.673v-44.252h-424.673v44.252zM300.564 590.331h424.673v-44.252h-424.673v44.252zM548.506 468.695c29.194-16.338 34.504-27.863 34.504-27.863h142.228v44.206h-223.846c0-0.005 17.92-0.005 47.114-16.343v0zM426.414 462.93c-108.283 0-196.081-87.757-196.081-196.081 0-108.283 87.798-196.081 196.081-196.081 108.303 0 196.076 87.793 196.076 196.081 0 108.324-87.772 196.081-196.076 196.081zM426.414 97.311c-93.65 0-169.539 75.94-169.539 169.539 0 93.645 75.894 169.539 169.539 169.539 93.619 0 169.539-75.894 169.539-169.539-0.005-93.599-75.924-169.539-169.539-169.539z" />
<glyph unicode="&#xe910;" glyph-name="copy" data-tags="copy" d="M640 704v256h-448l-192-192v-576h384v-256h640v768h-384zM192 869.49v-101.49h-101.49l101.49 101.49zM64 256v448h192v192h320v-192l-192-192v-256h-320zM576 613.49v-101.49h-101.49l101.49 101.49zM960 0h-512v448h192v192h320v-640z" />
<glyph unicode="&#xe911;" glyph-name="desc" data-tags="desc" d="M950.857-63.999c-7.314 0-14.628 3.657-21.943 7.314l-171.884 135.316h-683.886c-21.943 0-36.572 14.628-36.572 36.571v808.227c0 21.941 14.629 36.571 36.572 36.571h877.713c21.943 0 36.573-14.629 36.573-36.571v-950.858c0-14.628-7.315-25.6-21.943-32.914-3.657-3.657-10.972-3.657-14.629-3.657zM109.714 151.772h658.285c7.314 0 14.629-3.657 21.943-7.314l124.343-98.743v841.142h-804.571v-735.085zM753.371 707.657h-504.685c-21.943 0-36.572 14.629-36.572 36.572s14.629 36.571 36.572 36.571h504.684c21.943 0 36.572-14.629 36.572-36.571s-14.629-36.572-36.572-36.572zM753.371 491.886h-504.685c-21.943 0-36.572 14.628-36.572 36.571s14.629 36.572 36.572 36.572h504.684c21.943 0 36.572-14.629 36.572-36.572s-14.629-36.571-36.572-36.571zM599.771 279.772h-351.085c-21.943 0-36.572 14.629-36.572 36.572s14.629 36.571 36.572 36.571h351.084c21.943 0 36.572-14.628 36.572-36.571s-14.629-36.572-36.572-36.572z" />
<glyph unicode="&#xe912;" glyph-name="disk" data-tags="disk" d="M936.259 701.522l-160.748 160.753c-4.664 4.664-10.875 7.24-17.48 7.24h-607.831c-32.645 0-59.208-26.563-59.208-59.223v-734.080c0-32.66 26.563-59.223 59.208-59.223h734.080c32.655 0 59.218 26.563 59.218 59.223v607.841c0 6.502-2.632 12.867-7.24 17.469v0 0zM617.242 820.096h53.581v-182.738h-53.581v182.738zM362.619 820.096h205.204v-182.738h-205.204v182.738zM755.379 66.406h-460.585v259.773c0 47.58 38.707 86.292 86.287 86.292h288c47.585 0 86.292-38.712 86.292-86.292v-259.773h0.005zM894.085 76.211c0-5.412-4.393-9.81-9.805-9.81h-79.473v259.779c0 74.824-60.887 135.7-135.716 135.7h-288.005c-74.829 0-135.7-60.877-135.7-135.7v-259.779h-95.181c-5.396 0-9.789 4.398-9.789 9.81v734.075c0 5.407 4.393 9.81 9.789 9.81h163.005v-184.858c0-26.081 21.212-47.299 47.283-47.299h312.468c26.071 0 47.283 21.217 47.283 47.299v184.858h27.566l146.278-146.273-0.005-597.612z" />
<glyph unicode="&#xe913;" glyph-name="disk2" data-tags="disk2" d="M288.768 407.040h445.783v-371.369h-445.783v371.369zM748.887 860.329h-19.113v-218.455c0-34.816-28.672-63.488-63.488-63.488h-308.567c-34.816 0-63.488 28.672-63.488 63.488v218.455h-150.871c-24.576 0-44.375-19.799-44.375-44.375v-736.594c0-24.576 19.799-44.37 44.375-44.37h77.143v376.832c0 34.816 28.672 63.488 63.488 63.488h455.337c34.816 0 63.483-28.672 63.483-63.488v-376.151h77.829c24.576 0 44.37 19.799 44.37 44.37v604.846l-176.123 175.442zM362.496 860.329h192.512v-213.673h-192.512v213.673zM623.273 860.329h38.231v-213.673h-38.231v213.673z" />
<glyph unicode="&#xe914;" glyph-name="excel-2" data-tags="excel-2" d="M65.6 703.1v-510.2h510.2v510.2h-510.2zM432.3 320.5h-95.7l-28.4 56.7-35.4-56.7h-63.8l70.9 113.4-70.9 141.7h95.7l28.3-56.7 35.4 56.7h63.8l-70.9-113.4 71-141.7zM958.4 830.6v-829h-765.3v159.4h63.8v-95.7h637.7v765.3h-637.7v-95.6h-63.8v159.4h765.3v-63.8zM607.7 511.8h223.2v-63.8h-223.2v63.8zM607.7 639.3h223.2v-63.8h-223.2v63.8zM607.7 384.2h223.2v-63.8h-223.2v63.8z" />
<glyph unicode="&#xe915;" glyph-name="export" data-tags="export" d="M849.2 361v-217h-670.7v217c-0.7 23.7-20.1 42.7-44 42.7s-43.3-19-44-42.7v-252.5c0-28.9 23.6-52.5 52.5-52.5h741.7c28.9 0 52.5 23.6 52.5 52.5v252.5c-0.7 23.7-20.1 42.7-44 42.7s-43.3-19-44-42.7zM482.7 824.6l-164-164c-17.1-17.1-17.1-45.1 0-62.2s45.1-17.1 62.2 0l85.7 85.7v-314.8c0-26 21.3-47.2 47.2-47.2 26 0 47.2 21.3 47.2 47.2v314.7l85.7-85.7c17.1-17.1 45.1-17.1 62.2 0s17.1 45.1 0 62.2l-164 164c-17.1 17.2-45.1 17.2-62.2 0.1z" />
<glyph unicode="&#xe916;" glyph-name="file2" data-tags="file2" d="M456.681 586.374h-165.937v-54.94h165.937v54.94zM456.681 696.253h-165.937v-54.94h165.937v54.94zM290.743 421.553h442.505v54.952h-442.505v-54.952zM650.278 888.54h-442.506c-45.818 0-82.966-36.891-82.966-82.409v-714.216c0-45.507 37.148-82.409 82.966-82.409h608.449c45.825 0 82.974 36.902 82.974 82.409v549.397l-248.916 247.228zM650.278 806.132l165.942-164.818h-110.623c-30.553 0-55.32 24.597-55.32 54.94v109.878zM843.874 119.386c0-30.341-24.762-54.939-55.307-54.939h-553.138c-30.55 0-55.312 24.598-55.312 54.939v659.287c0 30.332 24.762 54.939 55.312 54.939h359.537v-164.82c0-45.517 37.148-82.419 82.971-82.419h165.937v-466.987zM290.743 311.675h442.505v54.946h-442.505v-54.946zM290.743 201.795h442.505v54.947h-442.505v-54.947z" />
<glyph unicode="&#xe917;" glyph-name="file-box2" data-tags="file-box2" horiz-adv-x="1040" d="M0 276.058v227.318h4.998c2.752 0 5.57 0.924 6.266 2.048 0.752 1.216 13.598 2.048 31.638 2.048 26.857 0 30.93 0.454 35.206 3.918l4.834 3.918 0.298 106.927 0.296 106.932 60.118 60.813c33.063 33.447 61.299 61.421 62.747 62.166 4.638 2.382 299.859 1.819 302.256-0.576 1.406-1.404 1.94-16.335 1.538-42.964-0.336-22.445-0.012-42.709 0.723-45.029 3.007-9.474-1.147-9.273 214.937-10.356l204.662-1.023-0.551-113.66c-0.302-62.512 0.096-116.225 0.884-119.364 2.515-10.020 9.244-11.704 46.808-11.704 20.304 0 34.274-0.816 35.036-2.048 0.696-1.125 3.516-2.048 6.264-2.048h5v-454.638h-1023.958v227.318zM643.045 279.129v70.653h-260.085v-141.306h260.085v70.653zM468.823 512.868c4.204 5.342 4.246 6.844 4.246 147.174 0 140.334-0.042 141.834-4.246 147.174l-4.244 5.396h-103.045c-98.488 0-103.258-0.172-107.879-3.923l-4.834-3.923-0.006-58.371c-0.002-32.105-0.72-59.088-1.596-59.962-0.872-0.874-27.906-1.64-60.070-1.702l-58.481-0.112-3.92-4.834c-3.714-4.578-3.922-9.070-3.922-84.477 0-76.911 0.14-79.782 4.095-83.739 4.030-4.028 6.825-4.095 171.875-4.095h167.781l4.247 5.395zM608.23 511.568c3.977 3.977 4.096 6.827 4.096 97.145 0 52.306-0.832 95.236-1.901 98.048-1.056 2.777-4.47 5.811-7.68 6.82-4.56 1.436-47.349 1.924-78.059 0.892-2.588-0.088-6.964-2.42-9.728-5.186l-5.028-5.025v-186.733l5.028-5.028c5.010-5.012 5.16-5.029 47.102-5.029 39.343 0 42.34 0.268 46.17 4.095v0zM749.536 511.568c2.252 2.254 4.126 5.71 4.164 7.68 1.146 59.912-0.118 185.187-1.899 188.517-1.242 2.324-4.334 4.883-6.87 5.694-7.457 2.377-82.276 1.63-86.948-0.871-8.572-4.587-8.946-9.323-8.343-105.523l0.574-91.764 4.834-3.912c4.416-3.575 8.552-3.916 47.613-3.916 40.050 0.001 43.042 0.263 46.876 4.096zM889.081 511.388l4.834 3.912 0.575 91.764c0.604 96.388 0.239 100.928-8.442 105.576-5.991 3.208-81.050 3.002-87.104-0.237-2.502-1.338-5.427-4.742-6.498-7.562-1.129-2.968-1.95-43.502-1.95-96.219v-91.093l5.026-5.028c5.010-5.008 5.176-5.029 46.876-5.029 38.146 0.001 42.275 0.349 46.683 3.916v0z" />
<glyph unicode="&#xe918;" glyph-name="file-music" data-tags="file-music" d="M917.806 730.924c-22.208 30.292-53.174 65.7-87.178 99.704s-69.412 64.964-99.704 87.178c-51.574 37.82-76.592 42.194-90.924 42.194h-496c-44.112 0-80-35.888-80-80v-864c0-44.112 35.884-80 80-80h736c44.112 0 80 35.888 80 80v624c0 14.332-4.372 39.35-42.194 90.924v0 0zM785.374 785.374c30.7-30.7 54.8-58.398 72.58-81.374h-153.954v153.946c22.98-17.78 50.678-41.878 81.374-72.572v0 0zM896 16c0-8.672-7.328-16-16-16h-736c-8.672 0-16 7.328-16 16v864c0 8.672 7.328 16 16 16 0 0 495.956 0.002 496 0v-224c0-17.672 14.322-32 32-32h224v-624zM756.288 568.748c-7.414 6.080-17.164 8.514-26.562 6.632l-320-64c-14.958-2.994-25.726-16.126-25.726-31.38v-236.876c-18.832 8.172-40.678 12.876-64 12.876-70.694 0-128-42.98-128-96s57.306-96 128-96c70.692 0 128 42.98 128 96v229.766l256 51.204v-133.844c-18.832 8.176-40.68 12.876-64 12.876-70.694 0-128-42.98-128-96s57.306-96 128-96c70.692 0 128 42.98 128 96v319.998c0 9.586-4.298 18.668-11.712 24.748v0z" />
<glyph unicode="&#xe919;" glyph-name="file-ok" data-tags="file-ok" d="M683.858 542.208h-448.85v-57.856h448.855v57.856zM235.008 353.961h420.014v57.861h-420.014v-57.861zM235.008 223.57h289.111v57.692h-289.111v-57.692zM235.008 672.599v-57.856h246.103v57.856h-246.103zM147.799 832.169h405.842v-217.257h217.431v-280.402h57.692v319.314l-221.189 236.201h-466.775c-27.991 0-50.519-22.702-50.519-50.519v-782.341c0-27.986 22.702-50.683 50.519-50.683h383.488v57.518h-376.489v768.169zM611.502 672.599v117.586l109.737-117.417h-109.742v-0.169zM927.913 322.56c-13.993 10.578-33.966 8.018-44.713-5.97l-177.152-232.11-112.128 98.13c-13.312 11.612-33.449 10.24-44.887-3.072-11.607-13.312-10.24-33.449 3.077-45.056l137.723-120.489c13.824-12.114 35.154-10.071 46.418 4.603l197.806 259.077c10.578 13.993 8.018 33.966-5.975 44.713v0.174h-0.169z" />
<glyph unicode="&#xe91a;" glyph-name="file-picture" data-tags="file-picture" d="M832 64h-640v128l192 320 263-320 185 128v-256zM832 480c0-53.020-42.98-96-96-96-53.024 0-96 42.98-96 96s42.976 96 96 96c53.020 0 96-42.98 96-96zM917.806 730.924c-22.21 30.292-53.174 65.7-87.178 99.704s-69.412 64.964-99.704 87.178c-51.574 37.82-76.592 42.194-90.924 42.194h-496c-44.112 0-80-35.888-80-80v-864c0-44.112 35.886-80 80-80h736c44.112 0 80 35.888 80 80v624c0 14.332-4.372 39.35-42.194 90.924v0zM785.374 785.374c30.7-30.7 54.8-58.398 72.58-81.374h-153.954v153.946c22.982-17.78 50.678-41.878 81.374-72.572v0zM896 16c0-8.672-7.328-16-16-16h-736c-8.672 0-16 7.328-16 16v864c0 8.672 7.328 16 16 16 0 0 495.956 0.002 496 0v-224c0-17.672 14.324-32 32-32h224v-624z" />
<glyph unicode="&#xe91b;" glyph-name="file-play2" data-tags="file-play2" d="M384 576l320-224-320-224v448zM917.806 730.924c-22.21 30.292-53.174 65.7-87.178 99.704s-69.412 64.964-99.704 87.178c-51.574 37.82-76.592 42.194-90.924 42.194h-496c-44.112 0-80-35.888-80-80v-864c0-44.112 35.886-80 80-80h736c44.112 0 80 35.888 80 80v624c0 14.332-4.372 39.35-42.194 90.924v0zM785.374 785.374c30.7-30.7 54.8-58.398 72.58-81.374h-153.954v153.946c22.982-17.78 50.678-41.878 81.374-72.572v0zM896 16c0-8.672-7.328-16-16-16h-736c-8.672 0-16 7.328-16 16v864c0 8.672 7.328 16 16 16 0 0 495.956 0.002 496 0v-224c0-17.672 14.324-32 32-32h224v-624z" />
<glyph unicode="&#xe91c;" glyph-name="files" data-tags="files" d="M401.42 438.648h-182.441v-36.486h182.441v36.486zM401.42 548.113h-182.441v-36.488h182.441v36.488zM218.979 183.232h401.371v36.486h-401.371v-36.486zM742.715 488.038l-225.193 242.518h-353.275c-40.303 0-72.976-32.673-72.976-72.977v-583.812c0-40.305 32.673-72.977 72.976-72.977h510.835c40.305 0 72.977 32.672 72.977 72.977v401.371l-6.45 6.45 1.106 6.45zM529.129 663.757l159.726-170.375h-123.237c-20.151 0-36.488 16.336-36.488 36.488v133.887zM711.57 73.767c0-20.152-16.336-36.49-36.488-36.49h-510.835c-20.151 0-36.488 16.338-36.488 36.49v583.812c0 20.151 16.338 36.486 36.488 36.486h328.394v-164.195c0-40.305 32.673-72.977 72.977-72.977h145.952v-383.126zM218.979 292.695h401.371v36.49h-401.371v-36.49zM924.049 591.052l1.107 6.451-225.194 242.516h-353.274c-40.303 0-72.976-32.672-72.976-72.977h36.49c0 20.152 16.334 36.49 36.486 36.49h328.394v-164.199c0-40.303 32.673-72.977 72.977-72.977h145.953v-383.125c0-20.152-16.336-36.49-36.488-36.49h-72.977v-36.488h72.977c40.305 0 72.977 32.675 72.977 72.978v401.371l-6.452 6.45zM748.059 602.847c-20.152 0-36.488 16.336-36.488 36.486v133.888l159.727-170.375h-123.239z" />
<glyph unicode="&#xe91d;" glyph-name="files2" data-tags="files2" d="M83.502 631.9l415.299-226.299c4.198-2.299 8.801-3.4 13.399-3.4 4.5 0 9.098 1.101 13.302 3.4l419.702 226.299c9.201 4.9 14.802 14.5 14.7 25.001-0.102 10.399-6.001 19.901-15.299 24.602l-415.299 211c-7.9 3.999-17.3 3.999-25.298 0l-419.599-211.098c-9.298-4.7-15.299-14.1-15.401-24.602-0.205-10.301 5.391-20.004 14.495-24.904zM516.5 842.199l361.098-186.501-365.302-199.798-361.098 199.598 365.302 186.701zM939.802 475.699l-83 42.199-53.898-32.302 69.898-35.502-365.302-199.9-361.098 199.608 74.501 37.499-53.699 32.599-87.706-44.099c-9.298-4.7-15.299-14.1-15.401-24.499-0.2-10.399 5.499-20.101 14.602-25.001l415.299-226.401c4.198-2.299 8.801-3.4 13.399-3.4 4.5 0 9.098 1.101 13.302 3.4l419.702 226.299c9.201 4.9 14.802 14.602 14.7 25.001-0.2 10.301-6.098 19.799-15.299 24.499zM939.802 279.798l-78.7 38.702-11.203-32.302 22.902-32-365.302-199.9-361.098 199.501 26.598 31.401-10.998 32.599-82.499-38.001c-9.298-4.7-15.299-14.1-15.401-24.499-0.2-10.399 5.499-20.101 14.602-25.098l415.299-226.299c4.198-2.299 8.801-3.4 13.399-3.4 4.5 0 9.098 1.101 13.302 3.4l419.702 226.299c9.201 4.9 14.802 14.5 14.7 25.001-0.205 10.399-6.103 19.799-15.304 24.596z" />
<glyph unicode="&#xe91e;" glyph-name="file-trans" data-tags="file-trans" d="M823.118 832.064h-621.556c-40.283 0-72.945-32.662-72.945-72.945v-621.556c0-40.282 32.661-72.943 72.945-72.943h621.556c40.283 0 72.945 32.661 72.945 72.943v621.556c0 40.283-32.662 72.945-72.945 72.945zM732.732 322.158c-0.166-0.82-0.487-1.567-0.7-2.364-0.404-1.482-0.773-2.955-1.364-4.38-0.405-0.972-0.975-1.851-1.463-2.789-0.604-1.154-1.129-2.328-1.862-3.432-1.010-1.508-2.208-2.873-3.441-4.203-0.368-0.413-0.644-0.88-1.021-1.27-0.025-0.012-0.049-0.023-0.073-0.047l-89.579-89.594c-14.117-14.113-37.007-14.113-51.135 0-14.105 14.12-14.105 37.009 0 51.126l27.924 27.924h-282.646c-19.964 0-36.151 16.195-36.151 36.151 0 19.97 16.188 36.151 36.151 36.151h282.67l-27.926 27.924c-14.128 14.119-14.128 37.009 0 51.123 14.105 14.118 36.996 14.118 51.123 0l89.642-89.637c0.378-0.394 0.653-0.858 1.021-1.26 1.233-1.342 2.431-2.693 3.441-4.215 0.735-1.091 1.259-2.278 1.877-3.443 0.474-0.925 1.045-1.791 1.449-2.765 0.591-1.423 0.96-2.909 1.364-4.381 0.225-0.807 0.533-1.556 0.7-2.374 0.952-4.702 0.952-9.546 0-14.249zM697.304 531.247h-282.663l27.925-27.924c14.117-14.117 14.117-37.008 0-51.124s-37.008-14.117-51.124 0l-89.638 89.639c-0.393 0.393-0.659 0.854-1.034 1.258-1.223 1.343-2.428 2.695-3.436 4.216-0.737 1.091-1.258 2.28-1.864 3.43-0.487 0.927-1.057 1.805-1.466 2.778-0.587 1.425-0.956 2.908-1.359 4.382-0.214 0.795-0.534 1.554-0.701 2.374-0.943 4.702-0.943 9.544 0 14.246 0.167 0.818 0.481 1.567 0.701 2.363 0.404 1.472 0.772 2.956 1.359 4.382 0.409 0.973 0.973 1.851 1.46 2.776 0.606 1.153 1.134 2.339 1.871 3.444 1.009 1.507 2.214 2.872 3.436 4.202 0.375 0.416 0.641 0.879 1.034 1.272 0.017 0.010 0.042 0.035 0.064 0.046l89.579 89.593c14.115 14.115 37.013 14.115 51.129 0 14.115-14.117 14.115-37.008 0-51.124l-27.925-27.925h282.65c19.972 0 36.152-16.194 36.152-36.151 0.001-19.969-16.181-36.151-36.151-36.151z" />
<glyph unicode="&#xe91f;" glyph-name="File-view" data-tags="File-view" d="M633.516 424.253c-183.235 0-280.31-173.662-280.31-173.662s104.801-154.347 280.31-154.347c175.341 0 280.31 154.347 280.31 154.347s-86.158 173.662-280.31 173.662zM633.684 161.409c-55.928 0-101.106 44.171-101.106 98.755 0 54.416 45.346 98.756 101.106 98.756 55.928 0 101.107-44.172 101.107-98.756s-45.18-98.755-101.107-98.755zM633.516 300.305c-24.185-0.168-43.667-19.987-43.5-44.172 0.169-24.185 19.82-43.667 44.004-43.667s43.835 19.65 43.835 43.835c0 11.757-4.702 22.842-13.1 31.071-8.23 8.398-19.482 12.933-31.239 12.933zM224.723 667.278h415.007v-58.783h-415.007zM224.723 548.201h350.178v-58.783h-350.178zM226.57 431.642h183.403v-58.782h-183.403zM224.891 311.222h98.251v-58.783h-98.251zM395.361 103.97h-200.533c-16.292 0-29.56 13.268-29.56 29.56v652.49c0 16.29 13.268 29.559 29.56 29.559h529.214c16.291 0 29.56-13.268 29.56-29.56v-332.040l58.446-31.91v422.397c0 16.292-13.268 29.56-29.56 29.56h-646.274c-16.292 0-29.56-13.268-29.56-29.56v-769.216c0-16.291 13.268-29.56 29.56-29.56h362.774c-49.713 12.765-72.723 33.087-103.626 58.28z" />
<glyph unicode="&#xe920;" glyph-name="floder" data-tags="floder" d="M972.8 638.464v120.832c0 56.554-45.846 102.4-102.4 102.4v0h-358.4c-18.466 28.463-50.065 47.042-86.007 47.104h-323.593c-56.554 0-102.4-45.846-102.4-102.4v0-665.6c0-84.831 68.769-153.6 153.6-153.6v0h716.8c84.831 0 153.6 68.769 153.6 153.6v0 409.6c-0.233 37.465-20.55 70.132-50.717 87.802l-0.483 0.262zM870.4 652.8h-272.384l-42.496 106.496h314.88zM921.6 140.8c0-28.277-22.923-51.2-51.2-51.2v0h-716.8c-28.277 0-51.2 22.923-51.2 51.2v0 665.6h323.584l89.6-223.744c7.74-19.060 26.112-32.256 47.566-32.256 0.017 0 0.035 0 0.052 0h358.397z" />
<glyph unicode="&#xe921;" glyph-name="folder" data-tags="folder" horiz-adv-x="1127" d="M989.542 19.328h-858.926c0 0-68.408-10.639-68.408 80.573v737.311c0 0 1.521 82.094 85.13 82.094h301.005c0 0 36.485 7.598 66.888-39.526 28.882-45.609 45.604-74.491 45.604-74.491s10.639-12.16 34.964-12.16c-21.284 0 387.656 0 387.656 0s68.408 7.598 68.408-68.408v-629.371c0.005-0.005 10.644-76.022-62.321-76.022v0zM925.691 597.012c0 18.243-15.201 33.444-33.439 33.444h-668.902c-19.763 0-34.964-15.201-34.964-33.444v-3.041c0-19.763 15.201-34.964 34.964-34.964h668.902c18.243 0 33.439 15.206 33.439 34.964v3.041z" />
<glyph unicode="&#xe922;" glyph-name="folder2" data-tags="folder2" d="M399.084 699.325l24.576-37.996h429.67c23.537 0 42.67-19.133 42.67-42.665v-469.335c0-23.532-19.133-42.66-42.67-42.66h-682.665c-23.532 0-42.665 19.128-42.665 42.66v597.335c0 23.532 19.133 42.665 42.665 42.665h170.665l57.754-90.004zM384 874.665h-213.335c-70.723 0-128-57.283-128-128v-597.335c0-70.723 57.283-128 128-128h682.665c70.723 0 128 57.283 128 128v469.335c0 70.723-57.283 128-128 128h-384l-85.33 128z" />
<glyph unicode="&#xe923;" glyph-name="folder-multiple" data-tags="folder-multiple" d="M938.67 789.335h-341.34l-85.33 85.33h-256c-47.13 0-85.335-38.205-85.335-85.335v0-512c0-47.124 38.205-85.33 85.335-85.33h682.67c47.124 0 85.33 38.205 85.33 85.33v426.67c0 47.13-38.205 85.335-85.33 85.335zM85.335 704h-85.335v-597.33c0-47.13 38.205-85.34 85.335-85.34h768v85.34h-768v597.33z" />
<glyph unicode="&#xe924;" glyph-name="folderopen" data-tags="folderopen" d="M917.801 511.698c-6.799 8.402-16.302 13.798-26.798 15.299v86.006c0 33.9-27.5 61.399-61.399 61.399h-338.903c-0.599 0.302-1.7 1.101-2.099 1.7l-13.701 56.3c-3.4 14.5-12.099 27.802-24.602 37.499s-27.5 15.099-42.301 15.099h-250.598c-33.9 0-61.399-27.5-61.399-61.399v-553.4c0-13.701 4.598-26.998 13.102-37.801l-0.2-0.399 2.801-3c11.802-13 27.899-20.198 45.399-20.198 3.2 0 221.901-0.302 410.998-0.302 95.299 0 183.101 0.102 232.1 0.302 26.998 0.102 50.898 19.901 56.801 47.099l33.7 155.802 35.599 164.198c2.698 12.703-0.399 25.702-8.499 35.799zM884.803 521.4v0zM427.402 660.5l0.2-0.799c3.4-13.302 11.3-25.201 22.902-34.202 11.899-9.4 25.6-14.3 39.7-14.3h337.7v-83.999h-598.205c-20.101 0-37.202-13.701-41.498-33.398l-29-133.801v361.8h248.899c0.302 0 1.7-0.399 3.4-1.7 1.101-0.901 1.802-1.802 2.002-2.299l13.901-57.303zM858.798 464.2l-31.099-144.302-32-147.702h-612.7l63.201 291.999h612.598z" />
<glyph unicode="&#xe925;" glyph-name="folders" data-tags="folders" d="M541.857 661.326l-179.197 171.006h-298.663v-768.33h895.987v597.324h-418.127zM900.252 721.059v89.599h-418.125l89.596-89.599h328.529z" />
<glyph unicode="&#xe926;" glyph-name="folders-close" data-tags="folders-close" d="M876.479 712.446h-336.004l-28.018 40.447c-28.676 53.323-36.216 80.893-80.893 80.893h-283.128c-44.678 0-80.893-36.216-80.893-80.893v-606.703c0-44.678 36.216-80.893 80.893-80.893h728.043c44.678 0 80.893 36.216 80.893 80.893v485.362c0.001 44.678-36.216 80.893-80.893 80.893z" />
<glyph unicode="&#xe927;" glyph-name="folder-set" data-tags="folder-set" d="M180.416 176.996c-22.659 0-41.050 17.735-41.050 39.611v410.421c0 21.877 18.391 39.613 41.050 39.613h627.286c22.616 0 41.008-17.737 41.008-39.613v-91.133c17.979-10.797 34.973-23.521 50.409-37.973v179.801c0 59.48-56.074 54.022-56.074 54.022s-335.215-0.327-317.522 0c-19.211-0.491-28.655 9.768-28.655 9.768s-13.38 22.209-37.397 57.142c-25.202 36.781-54.186 30.87-54.186 30.87h-247.201c-68.427 0-69.293-63.625-69.293-63.625v-574.988c0-70.896 55.418-62.107 55.418-62.107h306.892c-11.003 15.022-20.443 31.279-28.328 48.354l-242.359-0.164zM927.445 318.989c-1.889 9.973-11.82 20.073-22.168 22.373l-7.715 1.641c-17.978 5.337-34.113 16.916-44.25 33.827-10.1 17.076-12.642 36.614-8.211 54.349l2.379 6.981c3.121 9.604-0.819 22.987-8.905 29.634 0 0-7.188 5.955-27.628 17.243-20.402 11.248-29.143 14.367-29.143 14.367-9.936 3.533-23.854 0.206-31.035-7.265l-5.334-5.626c-13.714-12.601-32.267-20.195-52.671-20.195-20.401 0-39.119 7.594-52.83 20.359l-5.132 5.297c-7.227 7.43-21.099 10.792-31.077 7.308 0 0-8.905-3.161-29.31-14.409-20.44-11.454-27.625-17.408-27.625-17.408-8.044-6.483-12.025-19.702-8.906-29.469l2.215-7.145c4.267-17.899 2.051-37.11-8.211-54.35-10.139-17.079-26.436-28.82-44.621-33.99l-7.349-1.641c-10.137-2.3-20.281-12.274-22.167-22.372 0 0-1.724-8.948-1.724-31.648s1.724-31.653 1.724-31.653c1.887-10.094 11.823-20.032 22.167-22.368l7.186-1.643c18.186-5.17 34.483-16.911 44.785-33.986 10.099-17.079 12.685-36.618 8.211-54.355l-2.051-6.933c-3.082-9.607 0.863-23.028 8.947-29.68 0 0 7.182-5.954 27.588-17.238 20.438-11.416 29.141-14.367 29.141-14.367 9.977-3.49 23.85-0.169 31.077 7.264l5.132 5.294c13.875 12.601 32.429 20.359 52.83 20.359s39.122-7.758 52.834-20.359l5.17-5.294c7.181-7.433 21.099-10.755 31.035-7.264 0 0 8.905 3.119 29.306 14.367 20.444 11.449 27.672 17.238 27.672 17.238 8.042 6.483 11.982 19.91 8.864 29.68l-2.215 7.099c-4.268 17.735-2.051 37.109 8.249 54.19 10.141 17.076 26.56 28.856 44.787 33.986l7.181 1.643c10.144 2.338 20.237 12.274 22.126 22.368 0 0 1.729 8.951 1.729 31.653-0.497 23.194-2.056 32.14-2.056 32.14zM692.598 196.043c-51.968 0-94.374 40.765-94.374 91.132 0 50.204 42.198 90.964 94.374 90.964 51.97 0 94.374-40.76 94.374-91.128 0-50.204-42.203-90.968-94.374-90.968z" />
<glyph unicode="&#xe928;" glyph-name="folders-open" data-tags="folders-open" d="M861.482 120.982c0-30.929-25.091-55.909-55.957-55.909h-699.080l97.9 452.174c0 30.896 24.936 55.933 55.803 55.933h643.277c30.872 0 55.856-25.037 55.856-55.933l-97.798-396.265zM218.254 615.147h629.212v54.922c0 30.896-25.091 55.934-55.909 55.934h-335.547v50.686c0 30.847-25.042 55.909-55.909 55.909h-279.693c-30.875 0-55.909-25.063-55.909-55.909v-655.707l97.801 438.206c0.001 30.901 25.088 55.958 55.955 55.958v0 0 0z" />
<glyph unicode="&#xe929;" glyph-name="import" data-tags="import" d="M937.2 108.5v252.5c-0.7 23.7-20.1 42.7-44 42.7s-43.3-19-44-42.7v-217h-670.7v217c-0.7 23.7-20.1 42.7-44 42.7s-43.3-19-44-42.7v-252.5c0-28.9 23.6-52.5 52.5-52.5h741.8c28.8 0 52.4 23.6 52.4 52.5zM482.8 334.8c17.1-17.1 45.1-17.1 62.2 0l164 164c17.1 17.1 17.1 45.1 0 62.2s-45.1 17.1-62.2 0l-85.7-85.7v314.8c0 26-21.3 47.2-47.2 47.2-26 0-47.2-21.3-47.2-47.2v-314.7l-85.7 85.7c-17.1 17.1-45.1 17.1-62.2 0s-17.1-45.1 0-62.2l164-164.1z" />
<glyph unicode="&#xe92a;" glyph-name="inbox" data-tags="inbox" d="M352 528c0-13.248 5.376-25.248 14.064-33.936l112-112c8.688-8.688 20.688-14.064 33.936-14.064s25.248 5.376 33.936 14.064l112 112c9.041 8.741 14.654 20.978 14.654 34.526 0 26.51-21.49 48-48 48-13.548 0-25.785-5.613-34.513-14.64l-30.077-30.077v300.128c0 26.51-21.49 48-48 48s-48-21.49-48-48v0-300.112l-30.064 30.064c-8.686 8.683-20.684 14.054-33.936 14.054-26.51 0-48-21.49-48-48 0-0.002 0-0.004 0-0.006v0zM1020.8 369.216l-127.648 335.056c-6.864 18.657-24.482 31.725-45.152 31.728h-240v-96h206.912l91.44-240h-154.352c-26.51 0-48-21.49-48-48v0-48h-384v48c0 26.51-21.49 48-48 48v0h-154.352l91.424 240h206.928v96h-240c-20.8 0-38.496-13.232-45.168-31.712l-127.632-335.072c-2.064-5.344-3.2-11.152-3.2-17.216v-304c0-26.51 21.49-48 48-48v0h928c26.51 0 48 21.49 48 48v0 304c0 6.064-1.12 11.872-3.2 17.216z" />
<glyph unicode="&#xe92b;" glyph-name="mail" data-tags="mail" horiz-adv-x="1365" d="M1194.667 960h-1024c-93.867 0-170.667-76.8-170.667-170.667v-682.667c0-93.867 76.8-170.667 170.667-170.667h1024c93.867 0 170.667 76.8 170.667 170.667v682.667c0 93.867-76.8 170.667-170.667 170.667zM170.667 874.667h1024c17.067 0 25.6 0 34.133-8.533 0 0 0-8.533-8.533-8.533l-477.867-477.867c-34.133-34.133-85.333-34.133-119.467 0l-486.4 477.867s0 8.533-8.533 8.533c17.067 8.533 25.6 8.533 42.667 8.533zM85.333 106.667v682.667l349.867-349.867-349.867-341.333v8.533zM1280 106.667v-17.067l-349.867 349.867-59.733-59.733 358.4-358.4h-1058.133c-8.533 0-17.067 0-34.133 8.533l349.867 349.867 68.267-68.267c68.267-68.267 170.667-68.267 238.933 0l128 128 358.4 349.867v-682.667z" />
<glyph unicode="&#xe92c;" glyph-name="mail-add" data-tags="mail-add" d="M1024 640c0 153.167-124.167 277.333-277.333 277.333-0.101 0-0.22 0-0.34 0-78.496 0-149.353-32.706-199.686-85.235l-0.094-0.099h-493.213c-29.441-0.034-53.299-23.892-53.333-53.33v-661.336c0.034-29.441 23.892-53.299 53.33-53.333h832.003c29.441 0.034 53.299 23.892 53.333 53.33v322.55c52.627 50.428 85.334 121.285 85.334 199.78 0 0.119 0 0.239 0 0.358v-0.019zM746.667 874.667c129.6 0 234.667-105.067 234.667-234.667s-105.067-234.667-234.667-234.667-234.667 105.067-234.667 234.667 105.067 234.667 234.667 234.667zM512.933 789.333c-27.344-42.239-43.599-93.871-43.599-149.3 0-69.087 25.253-132.276 67.033-180.839l-0.307 0.365-59.187-59.18c-1.93-1.929-4.596-3.122-7.54-3.122s-5.61 1.193-7.54 3.122l-388.96 388.953zM896 117.333c0-5.891-4.776-10.667-10.667-10.667v0h-832c-5.891 0-10.667 4.776-10.667 10.667v0 641.833l388.953-388.96c9.659-9.636 22.99-15.594 37.713-15.594s28.054 5.958 37.714 15.595l59.179 59.186c48.198-41.473 111.387-66.726 180.474-66.726 55.428 0 107.060 16.255 150.388 44.258l-1.089-0.659zM874.667 640c0-11.782-9.551-21.333-21.333-21.333h-85.333v-85.333c0-11.782-9.551-21.333-21.333-21.333s-21.333 9.551-21.333 21.333v0 85.333h-85.333c-11.782 0-21.333 9.551-21.333 21.333s9.551 21.333 21.333 21.333v0h85.333v85.333c0 11.782 9.551 21.333 21.333 21.333s21.333-9.551 21.333-21.333v0-85.333h85.333c11.782 0 21.333-9.551 21.333-21.333v0z" />
<glyph unicode="&#xe92d;" glyph-name="mail-del" data-tags="mail-del" d="M1024 640c0 153.167-124.167 277.333-277.333 277.333-0.101 0-0.22 0-0.34 0-78.496 0-149.353-32.706-199.686-85.235l-0.094-0.099h-493.213c-29.441-0.034-53.299-23.892-53.333-53.33v-661.336c0.034-29.441 23.892-53.299 53.33-53.333h832.003c29.441 0.034 53.299 23.892 53.333 53.33v322.55c52.627 50.428 85.334 121.285 85.334 199.78 0 0.119 0 0.239 0 0.358v-0.019zM746.667 874.667c129.6 0 234.667-105.067 234.667-234.667s-105.067-234.667-234.667-234.667-234.667 105.067-234.667 234.667 105.067 234.667 234.667 234.667zM512.933 789.333c-27.344-42.239-43.599-93.871-43.599-149.3 0-69.087 25.253-132.276 67.033-180.839l-0.307 0.365-59.187-59.18c-1.93-1.929-4.596-3.122-7.54-3.122s-5.61 1.193-7.54 3.122l-388.96 388.953zM896 117.333c0-5.891-4.776-10.667-10.667-10.667v0h-832c-5.891 0-10.667 4.776-10.667 10.667v0 641.833l388.953-388.96c9.659-9.636 22.99-15.594 37.713-15.594s28.054 5.958 37.714 15.595l59.179 59.186c48.198-41.473 111.387-66.726 180.474-66.726 55.428 0 107.060 16.255 150.388 44.258l-1.089-0.659zM847.087 569.753c3.861-3.861 6.249-9.195 6.249-15.087 0-11.783-9.552-21.336-21.336-21.336-5.892 0-11.226 2.388-15.087 6.249l-70.247 70.247-70.247-70.247c-3.861-3.861-9.195-6.249-15.087-6.249-11.783 0-21.336 9.552-21.336 21.336 0 5.892 2.388 11.226 6.249 15.087l70.247 70.247-70.247 70.247c-3.861 3.861-6.249 9.195-6.249 15.087 0 11.783 9.552 21.336 21.336 21.336 5.892 0 11.226-2.388 15.087-6.249l70.247-70.247 70.247 70.247c3.861 3.861 9.195 6.249 15.087 6.249 11.783 0 21.336-9.552 21.336-21.336 0-5.892-2.388-11.226-6.249-15.087l-70.247-70.247z" />
<glyph unicode="&#xe92e;" glyph-name="mail-open" data-tags="mail-open" d="M974.933 507.733l-98.133 85.334v302.933c0 12.8-8.533 21.333-21.333 21.333h-684.8c-12.8 0-21.334-8.533-21.334-21.333v-309.333l-98.133-78.934c-6.4-4.266-8.533-10.666-8.533-17.066v-490.667c0-12.8 8.533-21.333 21.333-21.333h896c12.8 0 21.333 8.533 21.333 21.333v490.667c0 6.4-2.133 12.8-6.4 17.066zM874.667 535.467l51.2-42.667-51.2-34.133v76.8zM192 874.667h640v-445.867l-219.733-151.467h-200.534l-219.733 151.467v445.867zM149.333 531.2v-74.667l-49.066 34.134 49.066 40.533zM85.333 450.133l283.734-194.133-283.734-213.333v407.466zM128 21.333l283.733 213.334h198.4l285.867-213.334h-768zM938.667 42.667l-283.734 213.333 283.734 194.133v-407.466zM746.667 554.667h-469.334v-42.667h469.334v42.667zM746.667 661.333h-469.334v-42.666h469.334v42.666zM405.333 768h-128v-42.667h128v42.667z" />
<glyph unicode="&#xe92f;" glyph-name="mail-open2" data-tags="mail-open2" d="M461.816 880.721c30.333 20.364 69.97 20.373 100.311 0.021l384.19-257.69c9.256-6.208 13.947-16.672 13.216-27.044 0.108-1.548 0.096-3.1-0.034-4.64 0.33-1.778 0.501-3.61 0.501-5.483v-495.903c0-49.696-40.294-89.982-90-89.982h-716c-49.706 0-90 40.286-90 89.982v495.903c0 2.663 0.347 5.245 0.999 7.704-0.004 0.803 0.025 1.608 0.086 2.412-0.804 10.432 3.883 20.985 13.191 27.234zM532.075 361.664c-11.417 10.283-28.76 10.278-40.171-0.012l-334.546-301.662h709.674zM124 534.763v-424.071l257.796 232.458-257.796 191.613zM900 534.539l-257.732-191.381 257.732-232.122v423.503zM528.7 830.926c-4.692 3.186-10.481 5.086-16.713 5.086-6.237 0-12.030-1.903-16.829-5.16l0.105 0.067-351.585-236.033 283.558-210.762 24.483 22.075c33.891 30.56 85.223 30.88 119.48 0.952l1.034-0.916 24.56-22.121 283.833 210.763z" />
<glyph unicode="&#xe930;" glyph-name="mail-send" data-tags="mail-send" d="M511.59 73.626h-471.45v735.642h943.002v-382.259h-81.92v300.339h-779.162v-571.802h389.53v-81.92zM511.693 473.088l-426.598 232.96 39.322 71.885 387.174-211.456 384.614 211.456 39.424-71.782-423.936-233.062zM799.027 75.264l-56.73 59.085 122.47 117.35-122.368 121.242 57.651 58.266 182.17-180.531-183.194-175.411zM553.267 287.232h329.318v-81.92h-329.318z" />
<glyph unicode="&#xe931;" glyph-name="outbox" data-tags="outbox" d="M400 672c0.017 0 0.036 0 0.056 0 13.236 0 25.217 5.376 33.879 14.063l30.065 30.049v-300.112c0-26.51 21.49-48 48-48s48 21.49 48 48v0 300.112l30.064-30.064c8.657-8.519 20.544-13.78 33.66-13.78 26.51 0 48 21.49 48 48 0 13.119-5.263 25.009-13.794 33.674l-111.994 111.994c-8.66 8.688-20.639 14.064-33.873 14.064-0.022 0-0.044 0-0.066 0h0.003c-0.017 0-0.036 0-0.056 0-13.236 0-25.217-5.376-33.879-14.063l-112.001-112.001c-8.683-8.686-14.054-20.684-14.054-33.936 0-26.506 21.484-47.994 47.989-48h0.001zM1020.8 369.216l-127.648 335.056c-6.864 18.657-24.482 31.725-45.152 31.728h-129.632c0.896-5.232 1.632-10.528 1.632-16 0-33.44-17.12-62.816-43.056-80h137.968l91.44-240h-154.352c-26.51 0-48-21.49-48-48v0-48h-384v48c0 26.51-21.49 48-48 48v0h-154.352l91.424 240h137.968c-26.087 17.404-43.040 46.714-43.040 79.984 0 0.006 0 0.011 0 0.017v-0.001c0 5.472 0.736 10.768 1.616 16h-129.616c-20.8 0-38.496-13.232-45.168-31.712l-127.632-335.072c-2.064-5.344-3.2-11.152-3.2-17.216v-304c0-26.51 21.49-48 48-48v0h928c26.51 0 48 21.49 48 48v0 304c0 6.064-1.12 11.872-3.2 17.216z" />
<glyph unicode="&#xe932;" glyph-name="paper-clip" data-tags="paper-clip" d="M189.5 422.6l390.9 391c2 2 2.6 2.2 3.1 2.7 72.2 69.1 186.6 68.3 257.6-2.7 71.3-71.4 71.8-186.3 2-258.5-0.2-0.2-0.9-1-2-2.2l-289.9-289.8c-2-2-4.1-3.6-6.2-4.7-51.7-44.7-129.6-43.1-178.7 6.1-49.1 49.1-50.7 127.2-5.9 179 1.2 2 2.8 4 4.8 6.1l224.5 224.5c15.3 15.4 40.4 15.4 55.9 0 15.4-15.4 15.4-40.3 0-55.8l-223.4-223.6c-20.5-20.7-20.5-54 0-74.5s53.9-20.5 74.4 0l288.6 288.6c41.2 41.1 41.1 107.8 0 148.9-41.1 41.2-107.8 41.2-148.9 0l-381.6-381.6c-61.8-61.7-61.8-161.7 0-223.4 61.6-61.6 161.7-61.6 223.3 0l316.5 316.5c15.3 15.4 40.4 15.4 55.8 0 15.4-15.3 15.4-40.4 0-55.7l-325.7-326c-1.1-1.1-2.6-1.5-3.7-2.6-93.1-80.3-233.7-76.5-322 11.8-88.4 88.3-92.2 229-11.8 322.1 0.9 1.4 1.3 2.7 2.4 3.8z" />
<glyph unicode="&#xe933;" glyph-name="paste" data-tags="paste" d="M890.197 918.016h-543.019c-50.347 0-91.179-39.211-91.179-87.552v-75.861h86.016v48.469c0 16.128 13.611 29.184 30.379 29.184h492.16c16.768 0 30.379-13.056 30.379-29.184v-539.349c0-7.68-3.2-15.061-8.96-20.437-5.411-5.055-12.701-8.158-20.715-8.158-0.262 0-0.524 0.003-0.785 0.010l0.039-0.001h-130.645v-85.12h156.245c50.133 0 90.88 38.827 91.179 86.955v593.493c0.043 48.341-40.789 87.552-91.093 87.552zM676.864 745.984h-543.019c-50.347 0-91.179-39.211-91.179-87.552v-75.861h86.016v48.469c0 16.128 13.611 29.184 30.379 29.184h492.16c16.768 0 30.379-13.056 30.379-29.184v-539.349c0-7.68-3.2-15.061-8.96-20.437-5.411-5.055-12.701-8.158-20.715-8.158-0.262 0-0.524 0.003-0.785 0.010l0.039-0.001h-130.645v-85.12h156.245c50.133 0 90.88 38.827 91.179 86.955v593.493c0.043 48.341-40.789 87.552-91.093 87.552zM42.709 658.432v-593.493c0.299-48.128 41.045-86.955 91.179-86.955h412.245v85.12h-386.688c-0.222-0.006-0.484-0.009-0.746-0.009-8.015 0-15.304 3.104-20.733 8.175l0.018-0.016c-5.502 5.105-8.939 12.368-8.96 20.434v539.353c0 16.128 13.611 29.184 30.379 29.184h492.16c16.768 0 30.379-13.056 30.379-29.184v-48.469h86.059v75.861c0 48.341-40.832 87.552-91.179 87.552h-543.019c-50.304 0-91.136-39.211-91.093-87.552zM256 575.317h298.667c23.561-0.004 42.66-19.105 42.66-42.667s-19.099-42.663-42.66-42.667h-298.667c-23.561 0.004-42.66 19.105-42.66 42.667s19.099 42.663 42.66 42.667v0zM256 404.651h298.667c23.564 0 42.667-19.103 42.667-42.667s-19.103-42.667-42.667-42.667v0h-298.667c-23.564 0-42.667 19.103-42.667 42.667s19.103 42.667 42.667 42.667v0zM256 233.984h298.667c23.561-0.004 42.66-19.105 42.66-42.667s-19.099-42.663-42.66-42.667h-298.667c-23.561 0.004-42.66 19.105-42.66 42.667s19.099 42.663 42.66 42.667v0z" />
<glyph unicode="&#xe934;" glyph-name="printe" data-tags="printe" d="M725.333 832h-426.667v-213.333h426.667v213.333zM853.333 533.333h-682.667c-23.564 0-42.667-19.103-42.667-42.667v0-213.333c0-23.564 19.103-42.667 42.667-42.667v0h42.667v128c0 23.564 19.103 42.667 42.667 42.667h512c23.564 0 42.667-19.103 42.667-42.667v0-128h42.667c21.803 0.003 39.784 16.359 42.348 37.47l0.020 0.205 0.299 4.992v213.333c0 23.564-19.103 42.667-42.667 42.667v0zM725.333 320h-426.667v-256h426.667v256zM768 917.333c23.564 0 42.667-19.103 42.667-42.667v0-256h42.667c0.002 0 0.005 0 0.007 0 68.051 0 123.698-53.104 127.762-120.133l0.017-0.358 0.213-7.509v-213.333c0-70.692-57.308-128-128-128v0h-42.667v-128c0-23.564-19.103-42.667-42.667-42.667v0h-512c-23.564 0-42.667 19.103-42.667 42.667v0 128h-42.667c-0.002 0-0.005 0-0.007 0-68.051 0-123.698 53.104-127.762 120.133l-0.017 0.358-0.213 7.509v213.333c0 70.692 57.308 128 128 128v0h42.667v256c0.003 21.803 16.359 39.784 37.47 42.348l0.205 0.020 4.992 0.299h512z" />
<glyph unicode="&#xe935;" glyph-name="seal" data-tags="seal" d="M632.422 691.098h-426.665c-14.136 0.005-25.595 11.474-25.59 25.61 0.005 14.126 11.459 25.585 25.59 25.59h426.665c14.141-0.005 25.6-11.474 25.59-25.61-0.005-14.131-11.464-25.585-25.59-25.59zM333.276 31.539h-211.215c-67.379 0.077-121.984 54.682-122.061 122.061v684.339c0.077 67.379 54.682 121.984 122.061 122.061h588.698c67.379-0.077 121.984-54.682 122.061-122.061v-215.383c0-14.136-11.459-25.6-25.6-25.6s-25.6 11.464-25.6 25.6v215.383c-0.061 39.112-31.749 70.804-70.861 70.861h-588.698c-39.101-0.077-70.784-31.759-70.861-70.861v-684.339c0-39.081 31.811-70.861 70.861-70.861h211.215c14.141 0 25.6-11.459 25.6-25.6s-11.459-25.6-25.6-25.6zM457.933 523.366h-256c-14.136 0-25.6 11.464-25.6 25.6 0 14.141 11.464 25.6 25.6 25.6h256c14.141 0 25.6-11.459 25.6-25.6s-11.459-25.6-25.6-25.6zM327.168 364.477h-119.465c-14.141 0-25.6 11.464-25.6 25.6 0 14.141 11.459 25.6 25.6 25.6h119.465c14.141 0 25.6-11.459 25.6-25.6 0-14.136-11.459-25.6-25.6-25.6zM719.8-59.904c-164.69 0-298.665 133.975-298.665 298.665 0 164.695 133.975 298.67 298.665 298.67 164.7 0 298.67-133.975 298.67-298.67 0-164.69-133.97-298.665-298.67-298.665v0zM719.8 486.231c-136.458 0-247.465-111.002-247.465-247.47 0-136.458 111.002-247.465 247.465-247.465 136.468 0 247.47 111.007 247.47 247.465 0 136.468-111.002 247.47-247.47 247.47zM852.792 301.332l-70.728 10.271-31.672 64.108c-5.699 11.689-17.582 19.092-30.592 19.046h-0.031c-13 0.031-24.873-7.363-30.587-19.046l-31.642-64.108-70.758-10.271c-12.933-1.91-23.516-10.819-27.546-23.245s-0.722-25.841 8.668-34.985l51.169-49.869-12.088-70.451c-1.275-7.409-0.072-15.043 3.43-21.693 8.781-16.686 29.42-23.096 46.1-14.316l63.278 33.28 63.288-33.28c4.884-2.596 10.337-3.953 15.872-3.958 7.199 0.010 14.218 2.299 20.035 6.548 10.547 7.629 15.826 20.588 13.619 33.418l-12.114 70.415 51.2 49.905c5.458 5.268 9.001 12.221 10.061 19.738 2.632 18.632-10.337 35.86-28.964 38.492zM796.672 217.6c-7.977-7.864-11.622-19.123-9.759-30.177l12.078-70.451-63.247 33.28c-5.012 2.627-10.481 3.927-15.944 3.927-5.504 0-10.931-1.352-15.8-3.927l-63.278-33.28 12.078 70.518c1.879 11.023-1.838 22.354-9.866 30.177l-51.164 49.869 70.83 10.307c11.064 1.649 20.623 8.612 25.6 18.637l31.57 64.241 15.36 7.439-15.329-7.542 31.683-64.072c4.972-10.086 14.582-17.091 25.702-18.739l70.758-10.24-51.272-49.966z" />
<glyph unicode="&#xe936;" glyph-name="seal2" data-tags="seal2" horiz-adv-x="1026" d="M396.8 81.92h-312.32c-5.12 0-7.68 2.56-7.68 7.68v785.92c0 5.12 2.56 7.68 7.68 7.68h739.84c5.12 0 7.68-2.56 7.68-7.68v-171.52c0-20.48 17.92-38.4 38.4-38.4s38.4 17.92 38.4 38.4v171.52c-2.56 46.080-38.4 84.48-84.48 84.48h-739.84c-46.080 0-84.48-38.4-84.48-84.48v-785.92c0-46.080 38.4-84.48 84.48-84.48h312.32c20.48 0 38.4 17.92 38.4 38.4s-17.92 38.4-38.4 38.4zM373.76 209.92c28.16 0 51.2 23.040 51.2 51.2s-23.040 51.2-51.2 51.2h-197.12c-28.16 0-51.2-23.040-51.2-51.2s23.040-51.2 51.2-51.2h197.12zM494.080 478.72c0 28.16-23.040 51.2-51.2 51.2h-266.24c-28.16 0-51.2-23.040-51.2-51.2s23.040-51.2 51.2-51.2h263.68c30.72 0 53.76 23.040 53.76 51.2zM176.64 750.080c-28.16 0-51.2-23.040-51.2-51.2s23.040-51.2 51.2-51.2h529.92c28.16 0 51.2 23.040 51.2 51.2s-23.040 51.2-51.2 51.2h-529.92zM985.6 153.6h-15.36l-148.48 212.48c35.84 25.6 58.88 64 58.88 112.64 0 74.24-58.88 135.68-133.12 135.68s-133.12-61.44-133.12-135.68c0-46.080 23.040-87.040 58.88-112.64l-148.48-212.48h-15.36c-20.48 0-38.4-17.92-38.4-38.4v-140.8c0-20.48 17.92-38.4 38.4-38.4h478.72c20.48 0 38.4 17.92 38.4 38.4v140.8c-2.56 20.48-20.48 38.4-40.96 38.4zM947.2 12.8h-401.92v64h401.92v-64z" />
<glyph unicode="&#xe937;" glyph-name="share" data-tags="share" d="M768 832c-0.005 0-0.012 0-0.018 0-47.128 0-85.333-38.205-85.333-85.333 0-15.175 3.961-29.425 10.906-41.772l-0.221 0.428 1.024-1.579 0.384-0.725c15.153-25.135 42.307-41.685 73.325-41.685 47.128 0 85.333 38.205 85.333 85.333s-38.205 85.333-85.333 85.333c-0.024 0-0.047 0-0.071 0h0.004zM256 533.333c-0.002 0-0.005 0-0.008 0-47.128 0-85.333-38.205-85.333-85.333s38.205-85.333 85.333-85.333c30.949 0 58.050 16.476 73.010 41.135l0.214 0.379 0.427 0.896 1.024 1.621c6.784 12.203 10.667 26.325 10.667 41.301 0 0.040 0 0.087 0 0.135 0 15.248-4.020 29.558-11.057 41.927l0.219-0.419-0.853 1.28-0.384 0.725c-15.082 25.129-42.186 41.685-73.156 41.685-0.036 0-0.073 0-0.109 0h0.006zM768 234.667c-29.653 0-55.808-15.147-71.083-38.144l-2.133-4.267c-0.91-1.583-1.827-2.935-2.831-4.215l0.058 0.076-1.451-2.816c-5.019-10.544-7.951-22.914-7.951-35.968 0-47.128 38.205-85.333 85.333-85.333s85.333 38.205 85.333 85.333c0 47.108-38.172 85.301-85.273 85.333h-0.003zM768 917.333c0.010 0 0.022 0 0.034 0 94.257 0 170.667-76.41 170.667-170.667s-76.41-170.667-170.667-170.667c-47.413 0-90.309 19.334-121.237 50.547l-0.013 0.013-226.517-132.139c4.075-13.928 6.42-29.928 6.42-46.476 0-16.492-2.329-32.441-6.676-47.534l0.298 1.21 226.603-132.053c30.918 31.087 73.721 50.326 121.018 50.326 94.257 0 170.667-76.41 170.667-170.667s-76.41-170.667-170.667-170.667c-94.257 0-170.667 76.41-170.667 170.667 0 16.631 2.379 32.706 6.815 47.904l-0.302-1.206-226.517 131.968c-30.942-31.239-73.848-50.582-121.271-50.582-94.257 0-170.667 76.41-170.667 170.667s76.41 170.667 170.667 170.667c47.402 0 90.29-19.325 121.216-50.526l0.012-0.012 226.475 132.139c-4.085 13.911-6.435 29.892-6.435 46.421 0 94.257 76.41 170.667 170.667 170.667 0.027 0 0.054 0 0.082 0h-0.004z" />
<glyph unicode="&#xe938;" glyph-name="stamp" data-tags="stamp" d="M850.522 331.987c-112.399 0-228.292 70.536-228.774 145.769 0 1.566-11.927 61.139 35.177 116.616 40.909 38.621 66.375 93.222 66.375 153.77 0 116.701-94.605 211.305-211.305 211.305s-211.305-94.605-211.305-211.305c0-54.048 20.292-103.357 53.674-140.724l-0.181 0.206h-0.241c0.422-0.422 1.024-0.843 1.446-1.325 3.012-3.313 6.204-6.626 9.397-9.698 44.755-51.080 37.225-118.483 37.225-118.483 0-75.294-116.134-146.010-228.774-146.010-45.538 0-82.643-28.311-82.643-63.006v-62.645c0-11.746 12.469-21.203 28.070-21.203h786.251c15.36 0 28.070 9.638 27.949 21.203v62.645c0.361 34.635-36.744 62.886-82.342 62.886zM791.974-25.992h-562.236c-38.768 0.136-70.158 31.527-70.295 70.281v0.013c0 38.671 31.684 70.295 70.295 70.295h561.995c38.671 0 70.295-31.684 70.295-70.295 0-0.018 0-0.039 0-0.060 0-38.726-31.342-70.131-70.044-70.234h-0.010z" />
<glyph unicode="&#xe939;" glyph-name="sys-log" data-tags="sys-log" horiz-adv-x="1078" d="M822.613 453.461c-18.851 0-34.133-15.282-34.133-34.133v0-415.061h-682.667v204.8c0 18.851-15.282 34.133-34.133 34.133s-34.133-15.282-34.133-34.133v0-238.933c0-0.051 0-0.111 0-0.171 0-17.649 13.395-32.17 30.574-33.95l0.146-0.012h750.933c18.851 0 34.133 15.282 34.133 34.133v0 449.195c0 0.051 0 0.111 0 0.171 0 17.649-13.395 32.17-30.574 33.95l-0.146 0.012zM68.267 661.675c18.851 0 34.133 15.282 34.133 34.133v0 195.925h682.667c0-18.851 15.282-34.133 34.133-34.133s34.133 15.282 34.133 34.133v0 34.133c0 18.851-15.282 34.133-34.133 34.133h-750.933c-18.851 0-34.133-15.282-34.133-34.133v-230.059c0-18.851 15.282-34.133 34.133-34.133v0zM34.133 550.4h68.267c18.851 0 34.133 15.282 34.133 34.133s-15.282 34.133-34.133 34.133h-68.267c-18.851 0-34.133-15.282-34.133-34.133s15.282-34.133 34.133-34.133v0zM34.133 413.867h68.267c18.851 0 34.133 15.282 34.133 34.133s-15.282 34.133-34.133 34.133h-68.267c-18.851 0-34.133-15.282-34.133-34.133s15.282-34.133 34.133-34.133v0zM136.533 311.467c0 18.851-15.282 34.133-34.133 34.133v0h-68.267c-18.851 0-34.133-15.282-34.133-34.133s15.282-34.133 34.133-34.133h68.267c18.851 0 34.133 15.282 34.133 34.133v0zM1069.056 766.805l-130.389 130.389c-6.187 6.236-14.76 10.097-24.235 10.097s-18.048-3.86-24.232-10.094l-0.002-0.002-521.557-520.875c-2.101-2.173-3.916-4.642-5.374-7.333l-0.088-0.177-109.909-242.347c-1.994-4.205-3.158-9.136-3.158-14.339 0-18.851 15.282-34.133 34.133-34.133 0.15 0 0.3 0.001 0.45 0.003h-0.023c2.154-0.494 4.628-0.777 7.168-0.777s5.014 0.283 7.392 0.819l-0.224-0.042 237.568 108.544c3.93 2.907 7.139 6.552 9.47 10.752l0.087 0.171 521.557 521.557c6.452 6.219 10.459 14.936 10.459 24.589 0 8.968-3.458 17.128-9.114 23.219l0.020-0.022zM352.939 181.077l50.517 111.957 60.757-60.757zM523.605 269.824l-82.603 81.92 473.088 471.723 81.92-81.92z" />
<glyph unicode="&#xe93a;" glyph-name="task2" data-tags="task2" d="M448 416.4h-128c-17.7 0-32 14.3-32 32s14.3 32 32 32h128c17.7 0 32-14.3 32-32 0-17.6-14.4-32-32-32zM863.2 833.3l0.1-0.1v-767.5l-0.1-0.1-701.9 0.1v767.5l0.1 0.1h701.8zM863.3 897.3h-702c-35.2 0-64-28.8-64-64v-767.7c0-35.2 28.8-64 64-64h702c35.2 0 64 28.8 64 64v767.7c0 35.2-28.8 64-64 64zM702.6 672.9h-383.3c-17.7 0-32 14.3-32 32s14.3 32 32 32h383.3c17.7 0 32-14.3 32-32s-14.4-32-32-32zM702.6 545h-383.3c-17.7 0-32 14.3-32 32s14.3 32 32 32h383.3c17.7 0 32-14.3 32-32s-14.4-32-32-32zM545.1 98.3c-8.2 0-16.4 3.1-22.6 9.3l-105.1 104.9c-12.5 12.5-12.5 32.7-0.1 45.3 12.5 12.5 32.7 12.5 45.3 0.1l105.1-104.9c12.5-12.5 12.5-32.7 0.1-45.3-6.3-6.3-14.5-9.4-22.7-9.4zM545.1 98.3c-8.2 0-16.4 3.1-22.6 9.3-12.5 12.5-12.5 32.7 0 45.3l225.2 225.7c12.5 12.5 32.7 12.5 45.3 0s12.5-32.7 0-45.3l-225.3-225.6c-6.2-6.3-14.4-9.4-22.6-9.4z" />
</font>
</defs>
</svg>
