<?xml version="1.0" standalone="no"?>
<!DOCTYPE svg PUBLIC "-//W3C//DTD SVG 1.1//EN" "http://www.w3.org/Graphics/SVG/1.1/DTD/svg11.dtd" >
<svg xmlns="http://www.w3.org/2000/svg">
<metadata>
<json>
<![CDATA[
{
	"fontFamily": "mobox-sys",
	"majorVersion": 2,
	"minorVersion": 3,
	"version": "Version 2.3",
	"fontId": "mobox-sys",
	"psName": "mobox-sys",
	"subFamily": "Regular",
	"fullName": "mobox-sys",
	"description": "Font generated by IcoMoon."
}
]]>
</json>
</metadata>
<defs>
<font id="mobox-sys" horiz-adv-x="1024">
<font-face units-per-em="1024" ascent="960" descent="-64" />
<missing-glyph horiz-adv-x="1024" />
<glyph unicode="&#x20;" horiz-adv-x="512" d="" />
<glyph unicode="&#xe900;" glyph-name="setting" data-tags="setting" d="M954 513.5c-2 16.2-14.7 29.1-30.9 31.4l-66.9 9.5c-6.3 20.7-14.5 40.8-24.3 59.8l41.7 54.9c9.9 13 9.8 31.2-0.2 44.2-0.2 0.2-18.8 24.3-43.1 48.7l-3.7 3.7c-20 20-40.2 36.5-48 42.6-0.3 0.2-0.4 0.4-0.6 0.4-13 9.9-31.1 10-44.1 0.3l-54.1-40.6c-19 10.1-38.9 18.6-59.4 25.1l-9.3 68.4c-2.2 16.2-15.1 29-31.3 31.1-0.3 0-30.2 3.9-64.9 3.9h-5.3c-34.5 0-64.6-3.9-64.8-3.9-16.2-2-29.1-14.7-31.4-30.9l-9.5-67c-20.5-6.2-40.6-14.4-59.7-24.2l-55.1 41.9c-13 9.9-31.2 9.8-44.2-0.2-0.1-0.1-0.2-0.2-0.5-0.4-7.8-6.1-28-22.6-48-42.6l-3.7-3.7c-20-20-36.5-40.2-42.6-48-0.2-0.3-0.4-0.4-0.5-0.6-9.9-13-10-31.1-0.3-44.1l40.7-54.2c-10.2-19.1-18.7-39.1-25.2-59.5l-68.3-9.4c-16.2-2.2-29-15.1-31.1-31.3 0-0.3-3.9-30.2-3.9-64.9v-5.3c0-34.6 3.9-64.5 3.9-64.8 2-16.2 14.7-29.1 30.9-31.4l66.7-9.5c6.3-20.6 14.5-40.7 24.3-59.9l-41.6-54.9c-9.9-13-9.8-31.2 0.2-44.2 0.1-0.1 0.2-0.2 0.4-0.5 6.1-7.8 22.6-28 42.6-48l3.7-3.7c20.1-20.1 40.3-36.5 48-42.6 0.3-0.2 0.4-0.3 0.5-0.4 12.9-9.9 31-10 44.1-0.3l53.8 40.5c19.3-10.3 39.4-18.8 59.6-25.2l9.4-68.1c2.2-16.2 15.1-29 31.3-31.1 0.3 0 30.3-3.9 64.9-3.9h5.3c34.3 0 64.5 3.9 64.8 3.9 16.2 2 29.1 14.7 31.4 30.9l9.5 67.2c20.4 6.2 40.5 14.4 59.7 24.2l55.1-41.8c13-9.9 31.2-9.8 44.2 0.2 0.1 0.1 0.2 0.2 0.5 0.4 7.8 6.1 28 22.6 48 42.6l3.7 3.7c20.2 20.2 36.6 40.3 42.7 48.1l0.4 0.5c9.9 12.8 10 30.9 0.3 44l-40.5 54c10.2 18.9 18.7 38.9 25.2 59.4l68.2 9.3c16.2 2.2 29 15.1 31.1 31.3 0 0.3 3.9 30.2 3.9 64.9v5.3c0.2 34.6-3.7 64.5-3.7 64.8zM755.2 295.1c-7.9-12.7-7.2-29.2 1.8-41.1l37.7-50.2c-5.6-6.3-12.2-13.6-19.3-20.6l-3.7-3.7c-6-6-12.7-12.3-20.6-19.2l-49.6 37.7c-4.3 3.5-9.3 6-14.5 7.3-9.5 2.3-19.2 0.8-27.6-4.2-26.1-15.9-54.6-27.4-84.6-34.3-14.5-3.4-25.7-15.6-27.8-30.3l-9-62.5c-9.4-0.6-19.2-0.9-28.3-0.9h-5.3c-9.1 0-18.8 0.3-28.1 0.9l-8.8 63c-2 14.8-12.8 26.7-27.3 30.3-28.3 6.9-55.2 18.1-80 33.2-12.8 10.7-31.7 11.1-45.1 1.1l-50.4-37.8c-8 7-14.5 13.2-20.7 19.3l-3.8 3.8c-7.7 7.6-14.5 15.2-19.3 20.5l37.2 49.2c3 3.6 5.2 7.6 6.7 11.9 3.4 10.2 2.2 21.2-3.3 30.3-15.2 25.2-26.4 52.4-33.3 80.6 0 0.1 0 0.3-0.1 0.5 0 0.3-0.1 0.5-0.1 0.8-2.3 16.1-14.7 28.5-30.9 30.8l-62.4 8.8c-0.6 9.4-0.9 19.2-0.9 28.3v5.4c0 9.1 0.3 18.8 0.9 28.1l63.1 8.7c14.8 2 26.7 12.8 30.3 27.3 7.1 28.7 18.6 56.2 34.1 81.5 0.7 0.9 1.4 1.9 2.1 3 7.6 12.6 6.8 28.9-2 40.6l-37.8 50.4c6.9 7.8 13.3 14.6 19.3 20.6l3.8 3.7c6 6 12.6 12.1 20.6 19.2l49.3-37.3c4.3-3.6 9.1-6 14.3-7.4 9.5-2.5 19.7-1 28 4.1 25.5 15.4 53.2 26.8 82.2 33.7 15.9 2.5 28.1 14.8 30.4 30.8l8.8 62.4c9.4 0.6 19.1 0.9 28.3 0.9h5.3c10.1 0 19.8-0.5 28.1-0.9l8.7-63.3c2-14.8 12.8-26.7 27.3-30.3 28.7-7 56.3-18.6 82-34.3 12.7-9.4 30.5-9.2 43.2 0.3l50.4 37.8c7.9-7 14.6-13.3 20.6-19.3l3.7-3.7c6-6 12.3-12.7 19.2-20.6l-38.6-50.9c-7.4-9.7-9.4-22.5-5.4-34 0.9-2.7 2.2-5.3 3.8-7.7 15.7-26.1 27.1-54.3 33.8-83.8 3.3-14.5 15.5-25.7 30.3-27.9l62.2-8.8c0.6-9.4 0.9-19.2 0.9-28.3v-5.2c0-10.2-0.5-20.2-0.9-28.1l-63.3-8.7c-15.7-2.1-28-14-30.8-29.7-7-28.7-18.8-56.3-34.8-81.8zM509.7 637.5c-104.2 0-189-84.8-189-189s84.8-189 189-189 189 84.8 189 189c0.1 104.2-84.7 189-189 189zM626.1 448.5c0-64.2-52.2-116.3-116.3-116.3-64.2 0-116.3 52.2-116.3 116.3 0 64.2 52.2 116.3 116.3 116.3s116.3-52.2 116.3-116.3z" />
<glyph unicode="&#xe901;" glyph-name="skin" data-tags="skin" d="M772.8 864v-64l163.2-161.6-91.2-91.2c-12.8 11.2-27.2 16-43.2 16-36.8 0-65.6-28.8-65.6-65.6v-337.6c0-35.2-28.8-64-64-64h-320c-35.2 0-64 28.8-64 64v337.6c0 36.8-28.8 65.6-65.6 65.6-16 0-32-6.4-43.2-16l-91.2 91.2 161.6 161.6h40l1.6-1.6c44.8-67.2 129.6-110.4 220.8-110.4s176 41.6 220.8 110.4c0 1.6 1.6 1.6 1.6 1.6h38.4v64zM291.2 864h-35.2c-22.4 0-38.4-6.4-49.6-19.2l-163.2-161.6c-25.6-25.6-25.6-65.6 0-89.6l94.4-94.4c11.2-11.2 27.2-17.6 41.6-17.6s30.4 6.4 41.6 17.6h1.6c1.6 0 1.6 0 1.6-1.6v-337.6c0-70.4 57.6-128 128-128h320c70.4 0 128 57.6 128 128v337.6c0 1.6 0 1.6 1.6 1.6h1.6c11.2-11.2 27.2-17.6 41.6-17.6 16 0 30.4 6.4 41.6 17.6l94.4 94.4c25.6 25.6 25.6 65.6 0 89.6l-161.6 161.6c-12.8 12.8-28.8 19.2-46.4 19.2h-40c-22.4 0-41.6-11.2-54.4-30.4-33.6-49.6-96-81.6-168-81.6s-134.4 33.6-168 81.6c-9.6 19.2-30.4 30.4-51.2 30.4z" />
<glyph unicode="&#xe902;" glyph-name="split" data-tags="split" d="M988.841 484.624h-952.217c-20.227 0-36.624-16.397-36.624-36.624s16.397-36.624 36.624-36.624h952.217c20.227 0 36.624 16.397 36.624 36.624s-16.397 36.624-36.624 36.624v0zM36.624 814.237h219.742c20.227 0 36.624 16.397 36.624 36.624v0c0 20.227-16.397 36.624-36.624 36.624h-219.742c-20.227 0-36.624-16.397-36.624-36.624v0c0-20.227 16.397-36.624 36.624-36.624v0zM109.871 81.763h-73.247c-20.224-0.003-36.618-16.399-36.618-36.624s16.394-36.621 36.618-36.624h73.248c20.224 0.003 36.618 16.399 36.618 36.624s-16.394 36.621-36.618 36.624v0zM402.861 814.237h219.742c20.227 0 36.624 16.397 36.624 36.624v0c0 20.227-16.397 36.624-36.624 36.624v0h-219.742c-20.227 0-36.624-16.397-36.624-36.624v0c0-20.227 16.397-36.624 36.624-36.624v0zM329.614 81.763h-73.247c-20.224-0.003-36.618-16.399-36.618-36.624s16.394-36.621 36.618-36.624h73.248c20.224 0.003 36.618 16.399 36.618 36.624s-16.394 36.621-36.618 36.624v0zM549.356 81.763h-73.247c-20.224-0.003-36.618-16.399-36.618-36.624s16.394-36.621 36.618-36.624h73.248c20.224 0.003 36.618 16.399 36.618 36.624s-16.394 36.621-36.618 36.624v0zM769.099 81.763h-73.247c-20.224-0.003-36.618-16.399-36.618-36.624s16.394-36.621 36.618-36.624h73.248c20.224 0.003 36.618 16.399 36.618 36.624s-16.394 36.621-36.618 36.624v0zM988.841 81.763h-73.247c-20.224-0.003-36.618-16.399-36.618-36.624s16.394-36.621 36.618-36.624h73.248c20.224 0.003 36.618 16.399 36.618 36.624s-16.394 36.621-36.618 36.624v0zM769.099 814.237h219.742c20.227 0 36.624 16.397 36.624 36.624v0c0 20.227-16.397 36.624-36.624 36.624v0h-219.742c-20.227 0-36.624-16.397-36.624-36.624v0c0-20.227 16.397-36.624 36.624-36.624v0z" />
<glyph unicode="&#xe903;" glyph-name="static_txt" data-tags="static_txt" d="M566.7 708.7h328.5c17.373 0.988 31.087 15.318 31.087 32.85s-13.714 31.862-31 32.846l-0.087 0.004h-328.5c-17.373-0.988-31.087-15.318-31.087-32.85s13.714-31.862 31-32.846l0.087-0.004zM895.2 621.1h-328.5c-17.373-0.988-31.087-15.318-31.087-32.85s13.714-31.862 31-32.846l0.087-0.004h328.5c17.373 0.988 31.087 15.318 31.087 32.85s-13.714 31.862-31 32.846l-0.087 0.004zM895.2 467.8h-328.5c-18.115 0-32.8-14.685-32.8-32.8s14.685-32.8 32.8-32.8h328.5c18.115 0 32.8 14.685 32.8 32.8s-14.685 32.8-32.8 32.8v0zM895.2 314.6h-766.4c-17.373-0.988-31.087-15.318-31.087-32.85s13.714-31.862 31-32.846l0.087-0.004h766.4c17.373 0.988 31.087 15.318 31.087 32.85s-13.714 31.862-31 32.846l-0.087 0.004zM895.2 161.3h-766.4c-17.373-0.988-31.087-15.318-31.087-32.85s13.714-31.862 31-32.846l0.087-0.004h766.4c17.373 0.988 31.087 15.318 31.087 32.85s-13.714 31.862-31 32.846l-0.087 0.004zM122.7 395.2h43.6c12.086 0 22.246 8.246 25.16 19.419l0.040 0.181 13.9 55.1c2.732 10.653 12.248 18.4 23.573 18.4 0.010 0 0.019 0 0.029 0h81.799c0.008 0 0.018 0 0.027 0 11.325 0 20.841-7.747 23.536-18.231l0.037-0.169 13.9-55.1c2.954-11.354 13.114-19.6 25.2-19.6v0h46.8c14.345 0.019 25.966 11.652 25.966 26 0 2.749-0.426 5.397-1.217 7.884l0.051-0.184-105.7 340.6c-5.747 18.020-22.319 30.852-41.894 30.9h-51.906c-19.581-0.048-36.153-12.88-41.814-30.588l-0.086-0.312-105.8-340.6c-0.74-2.303-1.166-4.952-1.166-7.7 0-14.348 11.621-25.981 25.965-26h0.002zM232.7 580.4c5.7 23.4 16.8 66.8 25.8 102.8 3 11.7 19.5 11.7 22.5 0.1 9.1-35.5 21.1-82.3 26.1-102.9 0.258-0.991 0.407-2.129 0.407-3.302 0-7.511-6.089-13.6-13.6-13.6-0.073 0-0.145 0.001-0.218 0.002h-47.589c-0.062-0.001-0.134-0.002-0.207-0.002-7.511 0-13.6 6.089-13.6 13.6 0 1.173 0.148 2.31 0.427 3.396l-0.021-0.094z" />
<glyph unicode="&#xe904;" glyph-name="style" data-tags="style" d="M988.841 887.485c20.227 0 36.624-16.397 36.624-36.624v-805.722c0-20.227-16.397-36.624-36.624-36.624v0h-952.217c-20.227 0-36.624 16.397-36.624 36.624v0 805.722c0 20.227 16.397 36.624 36.624 36.624v0h952.217zM307.566 799.588h-219.669v-703.176h219.669v703.176zM622.53 799.588h-227.067v-703.176h227.067v703.176zM937.568 799.588h-227.14v-703.176h227.14v703.176z" />
<glyph unicode="&#xe905;" glyph-name="synchronous" data-tags="synchronous" d="M870.4 960h-716.8c-84.831 0-153.6-68.769-153.6-153.6v0-716.8c0-84.831 68.769-153.6 153.6-153.6v0h716.8c84.831 0 153.6 68.769 153.6 153.6v716.8c0 84.831-68.769 153.6-153.6 153.6v0zM921.6 89.6c0-28.277-22.923-51.2-51.2-51.2v0h-716.8c-28.277 0-51.2 22.923-51.2 51.2v0 716.8c0 28.277 22.923 51.2 51.2 51.2v0h716.8c28.277 0 51.2-22.923 51.2-51.2v0zM256 499.2h512c0.082 0 0.18-0.001 0.277-0.001 28.277 0 51.2 22.923 51.2 51.2 0 12.039-4.155 23.107-11.109 31.849l0.080-0.105-120.32 153.6c-9.32 13.778-24.888 22.715-42.544 22.715-28.277 0-51.2-22.923-51.2-51.2 0-13.306 5.075-25.426 13.396-34.53l-0.036 0.039 55.296-71.168h-407.040c-28.277 0-51.2-22.923-51.2-51.2s22.923-51.2 51.2-51.2v0zM768 396.8h-512c-0.082 0-0.18 0.001-0.277 0.001-28.277 0-51.2-22.923-51.2-51.2 0-12.039 4.155-23.107 11.109-31.849l-0.080 0.105 120.32-153.6c9.32-13.778 24.888-22.715 42.544-22.715 28.277 0 51.2 22.923 51.2 51.2 0 13.306-5.075 25.426-13.396 34.53l0.036-0.039-55.296 71.168h407.040c28.277 0 51.2 22.923 51.2 51.2s-22.923 51.2-51.2 51.2v0z" />
<glyph unicode="&#xe906;" glyph-name="table" data-tags="table" d="M960 368.576v222.464c0 0.288 0.16 0.512 0.16 0.768s-0.16 0.512-0.16 0.768v175.424c0 17.673-14.327 32-32 32v0h-832c-17.673 0-32-14.327-32-32v0-175.424c0-0.288-0.16-0.512-0.16-0.768s0.16-0.48 0.16-0.768v-222.464c0-0.288-0.16-0.512-0.16-0.768s0.16-0.48 0.16-0.768v-271.040c0-17.673 14.327-32 32-32v0h832c17.673 0 32 14.327 32 32v0 271.040c0 0.288 0.16 0.512 0.16 0.768s-0.16 0.512-0.16 0.768zM400 399.808v160h208v-160h-208zM608 335.808v-207.808h-208v207.808h208zM128 559.808h208v-160h-208v160zM672 559.808h224v-160h-224v160zM896 736v-112.192h-768v112.192h768zM128 335.808h208v-207.808h-208v207.808zM672 128v207.808h224v-207.808h-224z" />
<glyph unicode="&#xe907;" glyph-name="task" data-tags="task" d="M819.2 857.6h-60.928c-21.616 59.874-77.773 101.981-143.821 102.4h-204.851c-66.099-0.419-122.256-42.526-143.534-101.33l-0.338-1.070h-60.928c-84.831 0-153.6-68.769-153.6-153.6v0-614.4c0-84.831 68.769-153.6 153.6-153.6v0h614.4c84.831 0 153.6 68.769 153.6 153.6v614.4c0 84.831-68.769 153.6-153.6 153.6v0zM409.6 857.6h204.8c28.277 0 51.2-22.923 51.2-51.2s-22.923-51.2-51.2-51.2v0h-204.8c-28.277 0-51.2 22.923-51.2 51.2s22.923 51.2 51.2 51.2v0zM870.4 89.6c0-28.277-22.923-51.2-51.2-51.2v0h-614.4c-28.277 0-51.2 22.923-51.2 51.2v0 614.4c0 28.277 22.923 51.2 51.2 51.2h60.928c21.616-59.874 77.773-101.981 143.821-102.4h204.851c66.099 0.419 122.256 42.526 143.534 101.33l0.338 1.070h60.928c28.277 0 51.2-22.923 51.2-51.2v0zM691.2 568.32l-234.496-234.496-123.904 123.904c-8.895 7.652-20.555 12.311-33.303 12.311-28.277 0-51.2-22.923-51.2-51.2 0-12.749 4.659-24.409 12.368-33.371l-0.057 0.067 160.256-160.256c9.255-9.201 22.011-14.889 36.096-14.889s26.842 5.687 36.098 14.891l270.846 270.846c9.194 9.258 14.877 22.013 14.877 36.096 0 28.293-22.936 51.229-51.229 51.229-14.21 0-27.069-5.786-36.349-15.13l-0.003-0.003z" />
<glyph unicode="&#xe908;" glyph-name="time" data-tags="time" d="M536.4 457.4v257.6c0 13.8-11.2 25-25 25s-25-11.2-25-25v-271c0.2-1.5 0.5-2.9 0.9-4.3v-0.1c0.1-0.3 0.2-0.5 0.3-0.8 0-0.1 0.1-0.2 0.1-0.4 0.1-0.2 0.2-0.4 0.2-0.6 0.1-0.2 0.1-0.4 0.2-0.5s0.1-0.3 0.2-0.4c0.1-0.2 0.2-0.5 0.3-0.7 0-0.1 0.1-0.1 0.1-0.2 0.8-1.7 1.8-3.3 3-4.7l0.1-0.1c0.1-0.2 0.3-0.3 0.4-0.5 0.1-0.1 0.2-0.3 0.4-0.4l1-1 158.6-155.6c4.9-4.8 11.2-7.2 17.5-7.2 6.5 0 13 2.5 17.8 7.5 9.7 9.9 9.5 25.7-0.3 35.4l-150.8 148zM926.4 622.7c-22.6 53.5-55 101.6-96.3 142.8-41.3 41.3-89.3 73.7-142.8 96.3-55.5 23.5-114.3 35.4-175 35.4s-119.5-11.9-174.9-35.3c-53.5-22.6-101.6-55-142.8-96.3-41.3-41.3-73.7-89.3-96.3-142.8-23.4-55.4-35.3-114.3-35.3-174.9s11.9-119.5 35.3-174.9c22.6-53.5 55-101.6 96.3-142.8 41.3-41.3 89.3-73.7 142.8-96.3 55.4-23.4 114.3-35.3 174.9-35.3s119.5 11.9 174.9 35.3c53.5 22.6 101.6 55 142.8 96.3s73.7 89.3 96.3 142.8c23.4 55.4 35.3 114.3 35.3 174.9s-11.7 119.4-35.2 174.8zM512.3 48.4c-220.2 0-399.4 179.2-399.4 399.4s179.2 399.4 399.4 399.4 399.4-179.2 399.4-399.4-179.1-399.4-399.4-399.4z" />
<glyph unicode="&#xe909;" glyph-name="time2" data-tags="time2" d="M512 960c-282.77 0-512-229.23-512-512s229.23-512 512-512c282.77 0 512 229.23 512 512v0c0 282.77-229.23 512-512 512v0zM512 38.4c-226.216 0-409.6 183.384-409.6 409.6s183.384 409.6 409.6 409.6c226.216 0 409.6-183.384 409.6-409.6v0c0-226.216-183.384-409.6-409.6-409.6v0zM709.632 499.2h-146.432v211.968c0 28.277-22.923 51.2-51.2 51.2s-51.2-22.923-51.2-51.2v0-263.168c0-28.277 22.923-51.2 51.2-51.2v0h197.632c28.277 0 51.2 22.923 51.2 51.2s-22.923 51.2-51.2 51.2v0z" />
<glyph unicode="&#xe90a;" glyph-name="time-list" data-tags="time-list" d="M172.76 35.63v107.57c0 19.8 16.050 35.86 35.86 35.86 19.8 0 35.86-16.050 35.86-35.86v-107.57c0-19.8-16.050-35.86-35.86-35.86-19.81 0.010-35.86 16.060-35.86 35.86zM172.76 358.33v107.57c0 19.8 16.050 35.86 35.86 35.86 19.8 0 35.86-16.050 35.86-35.86v-107.57c0-19.8-16.050-35.86-35.86-35.86-19.81 0.010-35.86 16.060-35.86 35.86zM172.76 752.74v107.57c0 19.8 16.050 35.86 35.86 35.86 19.8 0 35.86-16.050 35.86-35.86v-107.57c0-19.8-16.050-35.86-35.86-35.86-19.81 0.010-35.86 16.060-35.86 35.86zM352.040 609.32c0-79.21-64.21-143.42-143.42-143.42s-143.43 64.21-143.43 143.42 64.21 143.42 143.42 143.42 143.43-64.21 143.43-143.42zM208.62 681.030c-39.6 0-71.71-32.11-71.71-71.71s32.11-71.71 71.71-71.71 71.71 32.11 71.71 71.71-32.11 71.71-71.71 71.71zM352.040 250.77c0-79.21-64.21-143.42-143.42-143.42s-143.43 64.21-143.43 143.42 64.21 143.42 143.42 143.42 143.43-64.21 143.43-143.42zM208.62 322.48c-39.6 0-71.71-32.11-71.71-71.71 0-39.61 32.11-71.71 71.71-71.71s71.71 32.11 71.71 71.71c0 39.6-32.11 71.71-71.71 71.71zM925.73 609.32h-501.98c-19.8 0-35.86 16.050-35.86 35.86 0 19.8 16.050 35.86 35.86 35.86h501.98c19.8 0 35.86-16.050 35.86-35.86-0.010-19.81-16.060-35.86-35.86-35.86zM640.93 501.76h-219.23c-18.67 0-33.8 15.13-33.8 33.8v4.1c0 18.67 15.14 33.8 33.8 33.8h219.23c18.67 0 33.8-15.13 33.8-33.8v-4.1c0.010-18.67-15.13-33.8-33.8-33.8zM925.73 250.77h-501.98c-19.8 0-35.86 16.050-35.86 35.86 0 19.8 16.050 35.86 35.86 35.86h501.98c19.8 0 35.86-16.050 35.86-35.86-0.010-19.81-16.060-35.86-35.86-35.86zM640.93 143.2h-219.23c-18.67 0-33.8 15.13-33.8 33.8v4.1c0 18.67 15.14 33.8 33.8 33.8h219.23c18.67 0 33.8-15.14 33.8-33.8v-4.1c0.010-18.67-15.13-33.8-33.8-33.8z" />
<glyph unicode="&#xe90b;" glyph-name="time-refush" data-tags="time-refush" d="M237.349 836.389l-7.095-8.997c3.072 10.971 5.339 19.602 6.875 26.112l6.875 29.257c7.022 21.211 2.487 33.865-18.651 40.96-15.945 2.706-29.989 0.366-37.010-13.751l-33.792-142.482c-4.681-16.823-6.29-29.403 14.848-36.498l132.462-33.646c21.211-7.022 36.352 1.902 42.423 19.456 5.925 17.627-7.022 34.962-22.821 38.181l-56.101 14.482c5.193 3.73 4.827 5.998 12.215 11.849 83.968 65.829 156.672 101.522 248.32 101.522 211.383 0 396.8-190.318 396.8-401.701 0-211.456-185.417-398.117-396.8-398.117s-396.8 186.661-396.8 398.117c0 21.138-13.897 38.034-35.109 38.034-21.138 0-34.011-16.896-34.011-38.034 0-253.806 212.187-467.822 465.92-467.822 253.659 0 467.675 214.674 467.675 468.407s-202.606 467.017-466.798 467.017c-111.553-0.851-213.026-43.317-289.812-112.617l0.386 0.343zM470.309 630.784v-222.427c0-21.211 14.117-35.255 35.255-35.255h160.037c21.211 0 34.377 14.117 34.377 35.255s-13.166 31.013-34.377 31.013h-126.537v191.342c0 21.138-11.995 35.621-33.207 35.621-21.138 0-35.474-14.482-35.474-35.621z" />
<glyph unicode="&#xe90c;" glyph-name="tree" data-tags="tree" d="M448.84 79.71h-273.47c-20.14 0-36.46 16.33-36.46 36.46 0 20.14 16.33 36.46 36.46 36.46h273.48c20.14 0 36.46-16.33 36.46-36.46 0-20.14-16.33-36.46-36.47-36.46zM448.84 371.42h-273.47c-20.14 0-36.46 16.33-36.46 36.46 0 20.14 16.33 36.46 36.46 36.46h273.48c20.14 0 36.46-16.33 36.46-36.46 0-20.14-16.33-36.46-36.47-36.46zM138.9 116.17v546.95c0 20.14 16.33 36.46 36.46 36.46 20.14 0 36.46-16.33 36.46-36.46v-546.95c0-20.14-16.33-36.46-36.46-36.46s-36.46 16.32-36.46 36.46zM211.83 611.84h-72.93c-40.11 0-72.93 32.82-72.93 72.93v72.93c0 40.11 32.82 72.93 72.93 72.93h72.93c40.11 0 72.93-32.82 72.93-72.93v-72.93c0-40.11-32.82-72.93-72.93-72.93zM922.87 334.95h-317.75c-20.050 0-36.46 16.41-36.46 36.46v72.93c0 20.050 16.41 36.46 36.46 36.46h317.75c20.050 0 36.46-16.41 36.46-36.46v-72.93c0-20.050-16.41-36.46-36.46-36.46zM921.67 648.31h-508.1c-20.71 0-37.66 16.95-37.66 37.66v70.53c0 20.71 16.95 37.66 37.66 37.66h508.1c20.71 0 37.66-16.95 37.66-37.66v-70.54c0-20.71-16.94-37.65-37.66-37.65zM922.87 43.24h-317.75c-20.050 0-36.46 16.41-36.46 36.46v72.93c0 20.050 16.41 36.46 36.46 36.46h317.75c20.050 0 36.46-16.41 36.46-36.46v-72.93c0-20.050-16.41-36.46-36.46-36.46z" />
<glyph unicode="&#xe90d;" glyph-name="trige-event1" data-tags="trige-event1" d="M395.765 373.429h-171.733c-22.421 0-37.888 22.443-29.909 43.381l170.645 447.915c4.722 12.15 16.323 20.606 29.898 20.608h287.958c22.72 0 38.208-23.019 29.632-44.064l-99.36-243.883h187.051c27.509 0 42.187-32.427 24.043-53.099l-458.603-522.56c-22.293-25.408-63.627-3.392-54.976 29.28l85.355 322.421z" />
<glyph unicode="&#xe90e;" glyph-name="trige-event2" data-tags="trige-event2" d="M395.765 373.429h-171.733c-22.421 0-37.888 22.443-29.909 43.381l170.645 447.915c4.722 12.15 16.323 20.606 29.898 20.608h287.958c22.72 0 38.208-23.019 29.632-44.064l-99.36-243.883h187.051c27.509 0 42.187-32.427 24.043-53.099l-458.603-522.56c-22.293-25.408-63.627-3.392-54.976 29.28l85.355 322.421zM416.715 821.333l-146.261-383.915h166.869c17.672-0.002 31.997-14.328 31.997-32 0-2.909-0.388-5.727-1.115-8.406l0.052 0.224-61.131-230.955 322.176 367.115h-163.989c-22.72 0-38.208 23.019-29.632 44.064l99.36 243.883h-218.325z" />
<glyph unicode="&#xe90f;" glyph-name="txt" data-tags="txt" d="M820 816c33.121-0.040 59.96-26.879 60-59.996v-616.004c-0.040-33.121-26.879-59.96-59.996-60h-616.004c-33.121 0.040-59.96 26.879-60 59.996v616.004c0.040 33.121 26.879 59.96 59.996 60h616.004zM820 864h-616c-59.647 0-108-48.353-108-108v0-616c0-59.647 48.353-108 108-108v0h616c59.647 0 108 48.353 108 108v0 616c0 59.647-48.353 108-108 108v0zM302 263.3h420v-48h-420zM342 680.7h340v-48h-340zM488 680.7h48v-350h-48z" />
<glyph unicode="&#xe910;" glyph-name="txt-edit" data-tags="txt-edit" d="M121.6 448c12.8 12.8 25.6 19.2 44.8 25.6s38.4 6.4 51.2 6.4c19.2 0 32 0 44.8-6.4s25.6-12.8 32-19.2 19.2-19.2 25.6-32c0-19.2 6.4-32 6.4-51.2v-115.2h-70.4v25.6c-6.4-6.4-12.8-19.2-25.6-19.2s-25.6-12.8-38.4-12.8c-6.4 0-19.2 0-25.6 6.4-6.4 0-19.2 6.4-25.6 12.8s-12.8 12.8-19.2 19.2c-6.4 6.4-6.4 19.2-6.4 32 0 19.2 6.4 32 12.8 38.4s19.2 19.2 32 25.6c12.8 6.4 32 6.4 44.8 12.8 19.2 0 32 0 51.2 0v0c0 12.8-6.4 19.2-12.8 25.6s-19.2 6.4-25.6 6.4c-12.8 0-19.2 0-32-6.4-12.8 0-19.2-6.4-25.6-12.8l-38.4 38.4zM256 352h-6.4c-6.4 0-19.2 0-25.6 0s-12.8 0-19.2-6.4c-12.8 0-12.8 0-19.2-6.4s-6.4-12.8-6.4-19.2c0-6.4 0-6.4 0-12.8s6.4-6.4 6.4-6.4c0 0 6.4 0 12.8-6.4s6.4 0 12.8 0c12.8 0 25.6 6.4 32 12.8 12.8 12.8 12.8 25.6 12.8 38.4v6.4zM614.4 371.2c0-12.8 0-32-6.4-44.8s-12.8-25.6-19.2-38.4c-6.4-12.8-19.2-19.2-32-25.6s-32-12.8-44.8-12.8c-12.8 0-32 0-44.8 6.4s-25.6 12.8-32 25.6v0-25.6h-64v339.2h70.4v-140.8c6.4 6.4 19.2 12.8 25.6 19.2 12.8 6.4 25.6 12.8 44.8 12.8s32 0 44.8-6.4c12.8-12.8 19.2-19.2 32-32 6.4-12.8 19.2-25.6 19.2-38.4 6.4-12.8 6.4-25.6 6.4-38.4zM544 371.2c0 6.4 0 12.8-6.4 19.2 0 6.4-6.4 12.8-12.8 19.2 0 6.4 0 6.4-6.4 12.8-6.4 0-19.2 0-25.6 0s-12.8 0-25.6-6.4c-6.4 0-6.4 0-12.8-6.4s-6.4-12.8-12.8-19.2c0-6.4-6.4-12.8-6.4-19.2s0-12.8 6.4-19.2 6.4-19.2 12.8-25.6 12.8-12.8 19.2-12.8c6.4-6.4 12.8-6.4 25.6-6.4 6.4 0 19.2 0 25.6 6.4 0 6.4 0 12.8 6.4 12.8 6.4 6.4 6.4 12.8 12.8 19.2 0 6.4 0 12.8 0 25.6zM806.4 409.6c-6.4 6.4-12.8 12.8-19.2 12.8-6.4 6.4-12.8 6.4-19.2 6.4s-12.8 0-19.2-6.4c-6.4 0-12.8-6.4-19.2-12.8s-6.4-12.8-12.8-19.2-6.4-12.8-6.4-19.2 0-12.8 6.4-19.2c0-6.4 6.4-12.8 12.8-19.2s12.8-6.4 19.2-12.8c6.4 0 12.8-6.4 19.2-6.4s12.8 0 19.2 6.4c6.4 0 12.8 6.4 19.2 12.8l38.4-51.2c-6.4-6.4-19.2-12.8-38.4-19.2s-32-6.4-44.8-6.4c-19.2 0-32 0-51.2 6.4-12.8 6.4-25.6 12.8-38.4 25.6s-19.2 25.6-25.6 38.4-6.4 25.6-6.4 38.4c0 19.2 6.4 32 12.8 51.2s12.8 25.6 25.6 38.4c12.8 12.8 25.6 19.2 38.4 25.6s32 6.4 51.2 6.4c6.4 0 12.8 0 25.6 0 6.4 0 12.8-6.4 25.6-6.4 6.4 0 12.8-6.4 19.2-6.4s12.8-6.4 12.8-12.8l-44.8-51.2zM896 768v-704h-832v704h832zM960 832h-960v-832h960v832z" />
<glyph unicode="&#xe911;" glyph-name="ui-big-dlg" data-tags="ui-big-dlg" d="M981 960h-938c-22.9 0-41.5-18.6-41.5-41.5v-940.1c0-22.9 18.6-41.5 41.5-41.5h938c22.9 0 41.5 18.6 41.5 41.5v940.1c0 22.9-18.6 41.5-41.5 41.5zM914.6 919.8h34.8v-34.8h-34.8v34.8zM854.2 919.8h34.8v-34.8h-34.8v34.8zM793.8 919.8h34.8v-34.8h-34.8v34.8zM966.4 11.6c0-10.2-8.2-18.4-18.4-18.4h-872.1c-10.2 0-18.4 8.2-18.4 18.4v830.4c0 10.2 8.2 18.4 18.4 18.4h872.1c10.2 0 18.4-8.2 18.4-18.4v-830.4zM282.3 620.4h-128.7c-0.2 0-0.3 0.1-0.3 0.3v128.6c0 0.2 0.1 0.3 0.3 0.3h128.7c0.2 0 0.3-0.1 0.3-0.3v-128.7c0-0.1-0.2-0.2-0.3-0.2zM869 620.4h-538c-0.2 0-0.5 0.2-0.5 0.5v45.9c0 0.2 0.2 0.5 0.5 0.5h538c0.2 0 0.5-0.2 0.5-0.5v-45.9c0-0.3-0.2-0.5-0.5-0.5zM869 485.2h-714c-0.2 0-0.5 0.2-0.5 0.5v45.9c0 0.2 0.2 0.5 0.5 0.5h714c0.2 0 0.5-0.2 0.5-0.5v-45.9c0-0.3-0.2-0.5-0.5-0.5zM869 350h-714c-0.2 0-0.5 0.2-0.5 0.5v45.9c0 0.2 0.2 0.5 0.5 0.5h714c0.2 0 0.5-0.2 0.5-0.5v-45.9c0-0.3-0.2-0.5-0.5-0.5zM869 214.8h-714c-0.2 0-0.5 0.2-0.5 0.5v45.9c0 0.2 0.2 0.5 0.5 0.5h714c0.2 0 0.5-0.2 0.5-0.5v-45.9c0-0.3-0.2-0.5-0.5-0.5zM869 79.6h-714c-0.2 0-0.5 0.2-0.5 0.5v45.9c0 0.2 0.2 0.5 0.5 0.5h714c0.2 0 0.5-0.2 0.5-0.5v-45.9c0-0.3-0.2-0.5-0.5-0.5z" />
<glyph unicode="&#xe912;" glyph-name="ui-ctrl-int" data-tags="ui-ctrl-int" d="M881.2 125.67h-736.68c-43.63 0-79.32 35.69-79.32 79.32v480.88c0 43.63 35.69 79.32 79.32 79.32h736.68c43.63 0 79.32-35.69 79.32-79.32v-480.87c0-43.63-35.7-79.33-79.32-79.33zM896.57 255.31v380.24c0 36.13-29.56 65.68-65.68 65.68h-636.060c-36.13 0-65.68-29.56-65.68-65.68v-380.24c0-36.13 29.56-65.68 65.68-65.68h636.050c36.13 0 65.69 29.55 65.69 65.68zM335.4 550.48v-228.31h-34.85v186.42c-14.070-13.22-31.55-22.81-52.44-28.78v34.53c10.23 2.56 21.1 7.030 32.62 13.43 11.51 7.24 20.89 14.81 28.14 22.7h26.53zM340.4 317.17h-44.85v180.58c-13.020-10.090-28.46-17.72-46.070-22.75l-6.37-1.82v45.070l3.79 0.95c9.73 2.43 20.25 6.77 31.28 12.88 11.020 6.95 20.11 14.28 27 21.78l1.49 1.62h33.74v-238.31zM305.54 327.17h24.85v218.31h-19.38c-7.31-7.61-16.59-14.98-27.64-21.93l-0.23-0.14c-10.44-5.8-20.53-10.13-30.040-12.89v-23.92c17.26 5.79 32.050 14.39 44.020 25.64l8.42 7.92v-192.99zM560.82 536.090c13.85-12.79 20.78-29.21 20.78-49.24 0-19.4-7.46-37.41-22.38-54.040-8.95-9.17-24.73-21.42-47.32-36.77-24.52-16.2-39.22-30.59-44.13-43.17h114.15v-30.7h-157.31c0 22.81 7.56 42.74 22.7 59.79 7.88 9.38 25.050 23.23 51.48 41.57 15.56 11.080 26.43 19.83 32.61 26.22 10.44 11.72 15.67 24.19 15.67 37.41 0 12.79-3.52 22.38-10.55 28.78s-17.38 9.59-31.020 9.59c-14.5 0-25.37-4.91-32.62-14.71-7.46-9.38-11.51-23.34-12.15-41.89h-34.85c0.42 25.58 7.78 46.050 22.060 61.39 14.49 16.41 34.1 24.62 58.83 24.62 22.18 0.010 40.19-6.28 54.050-18.85zM586.93 317.17h-167.32v5c0 23.94 8.050 45.16 23.92 63.060 8.26 9.8 25.4 23.67 52.42 42.41 15.12 10.77 25.83 19.36 31.8 25.51 9.65 10.85 14.33 21.98 14.33 34.010 0 11.42-2.92 19.62-8.92 25.080-6.050 5.5-15.36 8.29-27.65 8.29-12.94 0-22.29-4.15-28.59-12.68l-0.11-0.14c-6.74-8.48-10.47-21.58-11.070-38.95l-0.17-4.83h-44.77l0.080 5.080c0.44 26.71 8.3 48.47 23.36 64.67 15.41 17.43 36.45 26.26 62.54 26.26 23.34 0 42.65-6.78 57.4-20.16l0.030-0.030c14.86-13.72 22.39-31.52 22.39-52.92 0-20.57-7.96-39.88-23.66-57.38l-0.14-0.15c-9.26-9.48-24.99-21.72-48.090-37.42-19.090-12.62-32.040-24.020-38.66-34.030h110.88v-40.68zM429.74 327.17h147.19v20.7h-116.47l2.66 6.82c5.33 13.69 20.39 28.58 46.030 45.52 22.11 15.020 37.75 27.15 46.43 36.020 13.96 15.59 21.030 32.62 21.030 50.62 0 18.74-6.27 33.64-19.16 45.55-12.85 11.65-29.89 17.56-50.67 17.56-23.44 0-41.46-7.5-55.090-22.93l-0.090-0.1c-12.4-13.33-19.3-31.13-20.54-52.99h24.92c1.2 17.18 5.54 30.6 12.93 39.93 8.21 11.060 20.52 16.67 36.58 16.67 14.86 0 26.43-3.67 34.38-10.89 8.090-7.35 12.19-18.28 12.19-32.48 0-14.42-5.7-28.12-16.94-40.74l-0.14-0.15c-6.46-6.69-17.36-15.46-33.31-26.82-26.010-18.040-43-31.73-50.55-40.71l-0.090-0.1c-13.090-14.78-20.25-32.080-21.29-51.48zM752.67 538.33c13.64-11.3 20.46-26.65 20.46-46.050 0-25.16-12.58-41.89-37.73-50.2 13.21-4.050 23.45-10.34 30.7-18.87 7.67-8.53 11.51-19.62 11.51-33.25 0-21.1-7.25-38.37-21.74-51.8-15.56-13.65-35.49-20.46-59.79-20.46-23.24 0-42 5.97-56.28 17.91-15.99 13.43-24.94 32.94-26.86 58.52h35.17c0.64-15.56 5.65-27.39 15.030-35.49 8.31-7.67 19.19-11.51 32.62-11.51 14.49 0 26.33 4.26 35.49 12.79 7.88 7.88 11.83 17.37 11.83 28.46 0 13.43-4.16 23.34-12.47 29.74-7.67 6.39-19.080 9.59-34.21 9.59h-16.63v26.22h16.31c13.85 0 24.41 3.090 31.66 9.27 7.24 6.18 10.87 15.030 10.87 26.54 0 11.3-3.31 20.040-9.91 26.22-6.83 6.18-17.16 9.27-31.020 9.27s-24.62-3.52-32.3-10.55c-7.89-7.25-12.47-17.8-13.75-31.66h-34.21c1.92 22.59 10.34 40.29 25.26 53.080 13.85 12.58 32.080 18.87 54.68 18.87 23.020-0.020 41.45-5.56 55.31-16.64zM696.080 312.69c-24.34 0-44.35 6.42-59.48 19.070-16.99 14.27-26.63 35.12-28.64 61.98l-0.4 5.37h45.36l0.2-4.79c0.59-14.26 4.94-24.69 13.3-31.91l0.13-0.11c7.42-6.85 16.98-10.18 29.22-10.18 13.27 0 23.75 3.73 32.020 11.39 6.93 6.96 10.3 15.090 10.3 24.86 0 11.9-3.44 20.33-10.52 25.78l-0.15 0.12c-6.72 5.6-17.15 8.43-31.010 8.43h-21.63v36.22h21.31c12.57 0 22.13 2.72 28.41 8.080 6.13 5.23 9.12 12.67 9.12 22.74 0 9.94-2.72 17.32-8.33 22.57-5.79 5.24-15.090 7.92-27.6 7.92-12.5 0-22.23-3.11-28.92-9.24-6.9-6.34-10.99-15.91-12.15-28.43l-0.42-4.54h-44.22l0.46 5.42c2.020 23.82 11.090 42.8 26.94 56.41 14.73 13.35 34.24 20.11 57.99 20.11 24.070 0 43.73-5.96 58.44-17.72l0.070-0.060c14.78-12.25 22.27-29.030 22.27-49.9 0-23.14-9.86-39.92-29.34-50.020 8.54-4.060 15.59-9.34 21.070-15.75 8.46-9.43 12.75-21.72 12.75-36.55 0-22.45-7.85-41.11-23.34-55.47l-0.1-0.090c-16.45-14.4-37.68-21.71-63.11-21.71zM618.45 389.11c2.6-21.47 10.85-38.16 24.56-49.69 13.28-11.1 31.13-16.73 53.060-16.73 22.91 0 41.9 6.45 56.45 19.18 13.52 12.55 20.090 28.28 20.090 48.090 0 12.48-3.35 22.26-10.23 29.91l-0.090 0.11c-6.59 7.75-16.13 13.58-28.35 17.32l-15.010 4.6 14.9 4.93c23.080 7.63 34.3 22.5 34.3 45.46 0 17.98-6.090 31.77-18.62 42.17-12.89 10.29-30.44 15.51-52.16 15.51-21.21 0-38.48-5.91-51.32-17.57l-0.11-0.090c-12.62-10.81-20.31-25.69-22.92-44.28h24.19c1.94 12.9 6.91 23.090 14.8 30.34 8.59 7.88 20.6 11.87 35.68 11.87 15.060 0 26.63-3.56 34.37-10.57 7.69-7.2 11.56-17.25 11.56-29.93 0-12.99-4.25-23.2-12.63-30.34-8.14-6.95-19.88-10.47-34.9-10.47h-11.31v-16.22h11.63c16.22 0 28.78-3.6 37.34-10.69 9.52-7.36 14.34-18.68 14.34-33.64 0-12.41-4.47-23.17-13.3-31.99l-0.13-0.13c-10.080-9.38-23.17-14.13-38.9-14.13-14.63 0-26.72 4.3-35.95 12.78-9.38 8.13-14.87 19.62-16.35 34.22h-24.99z" />
<glyph unicode="&#xe913;" glyph-name="ui-grid" data-tags="ui-grid" d="M984.8 919.3c-24.8 25.1-59.2 40.7-97.2 40.7h-751.2c-38 0-72.4-15.6-97.2-40.7-23.9-18.9-39.2-48.1-39.2-80.9v-766c0-75.3 61.1-136.4 136.4-136.4h751.1c75.4 0 136.4 61.1 136.4 136.4v766.1c0.1 32.7-15.2 61.9-39.1 80.8zM718 237h-156c-11 0-20 9-20 20v141c0 11 9 20 20 20h156c11 0 20-9 20-20v-141c0-11-9-20-20-20zM818 418h126c11 0 20-9 20-20v-141c0-11-9-20-20-20h-126c-11 0-20 9-20 20v141c0 11 9 20 20 20zM482 639v-141c0-11-9-20-20-20h-156c-11 0-20 9-20 20v141c0 11 9 20 20 20h156c11 0 20-9 20-20zM482 398v-141c0-11-9-20-20-20h-156c-11 0-20 9-20 20v141c0 11 9 20 20 20h156c11 0 20-9 20-20zM482 157v-141c0-11-9-20-20-20h-156c-11 0-20 9-20 20v141c0 11 9 20 20 20h156c11 0 20-9 20-20zM562 177h156c11 0 20-9 20-20v-141c0-11-9-20-20-20h-156c-11 0-20 9-20 20v141c0 11 9 20 20 20zM542 498v141c0 11 9 20 20 20h156c11 0 20-9 20-20v-141c0-11-9-20-20-20h-156c-11 0-20 9-20 20zM80 659h126c11 0 20-9 20-20v-141c0-11-9-20-20-20h-126c-11 0-20 9-20 20v141c0 11 9 20 20 20zM226 398v-141c0-11-9-20-20-20h-126c-11 0-20 9-20 20v141c0 11 9 20 20 20h126c11 0 20-9 20-20zM60 72.4v84.6c0 11 9 20 20 20h126c11 0 20-9 20-20v-141c0-11-9-20-20-20h-69.6c-42.2 0-76.4 34.2-76.4 76.4zM887.6-4h-69.6c-11 0-20 9-20 20v141c0 11 9 20 20 20h126c11 0 20-9 20-20v-84.6c0-42.2-34.2-76.4-76.4-76.4zM944 478h-126c-11 0-20 9-20 20v141c0 11 9 20 20 20h126c11 0 20-9 20-20v-141c0-11-9-20-20-20z" />
<glyph unicode="&#xe914;" glyph-name="ui-master-sub-dlg" data-tags="ui-master-sub-dlg" d="M845.875 843.561h-667.75c-34.222 0-62.065-27.832-62.065-62.044v-667.034c0-34.212 27.843-62.054 62.065-62.054h667.761c34.222 0 62.065 27.843 62.065 62.054v667.034c-0.010 34.222-27.853 62.044-62.075 62.044zM803.82 772.936c14.684 0 26.583-11.909 26.583-26.593 0-14.694-11.899-26.593-26.583-26.593-14.705 0-26.604 11.909-26.604 26.593s11.909 26.593 26.604 26.593zM708.516 772.936c14.705 0 26.604-11.909 26.604-26.593 0-14.694-11.899-26.593-26.604-26.593-14.684 0-26.583 11.909-26.583 26.593 0.010 14.684 11.909 26.593 26.583 26.593zM837.018 653.732v-242.811h-650.035v242.811h650.035zM186.982 123.351v260.26h650.035v-260.27h-650.035z" />
<glyph unicode="&#xe915;" glyph-name="ui-panel" data-tags="ui-panel" d="M960 864h-896c-35.3 0-64-28.6-64-64v-704c0-35.3 28.7-64 64-64h896c35.3 0 64 28.7 64 64v704c0 35.4-28.7 64-64 64zM880 736c0-8.8-3.6-16.8-9.4-22.6s-13.8-9.4-22.6-9.4c-17.7 0-32 14.3-32 32 0 8.8 3.6 16.8 9.4 22.6s13.8 9.4 22.6 9.4 16.8-3.6 22.6-9.4c5.8-5.8 9.4-13.8 9.4-22.6zM752 736c0-8.8-3.6-16.8-9.4-22.6s-13.8-9.4-22.6-9.4c-17.7 0-32 14.3-32 32 0 8.8 3.6 16.8 9.4 22.6s13.8 9.4 22.6 9.4 16.8-3.6 22.6-9.4c5.8-5.8 9.4-13.8 9.4-22.6zM569.4 758.6c5.8 5.8 13.8 9.4 22.6 9.4s16.8-3.6 22.6-9.4c5.8-5.8 9.4-13.8 9.4-22.6s-3.6-16.8-9.4-22.6c-5.8-5.8-13.8-9.4-22.6-9.4-17.7 0-32 14.3-32 32 0 8.8 3.6 16.8 9.4 22.6zM960 112c0-8.8-7.2-16-16-16h-864c-8.8 0-16 7.2-16 16v488c0 4.4 3.6 8 8 8h880c4.4 0 8-3.6 8-8v-488z" />
<glyph unicode="&#xe916;" glyph-name="ui-set" data-tags="ui-set" d="M1001.713 141.222l-45.026 26.232c3.544 13.104 5.58 28.15 5.58 43.67s-2.036 30.566-5.855 44.884l0.275-1.213 44.996 26.233c5.288 3.144 8.777 8.828 8.777 15.326 0 2.354-0.458 4.602-1.289 6.658l0.043-0.119c-8.331 19.801-18.268 36.876-30.070 52.461l0.434-0.598c-3.193 4.097-8.127 6.707-13.672 6.707-3.22 0-6.235-0.88-8.816-2.414l0.080 0.044-45.026-26.293c-20.111 20.258-45.332 35.417-73.568 43.385l-1.184 0.285v52.556c0 0.043 0.001 0.094 0.001 0.145 0 8.809-6.499 16.101-14.964 17.342l-0.095 0.011c-8.887 1.208-19.159 1.897-29.591 1.897s-20.704-0.689-30.772-2.025l1.181 0.128c-8.555-1.225-15.059-8.503-15.059-17.301 0-0.069 0-0.138 0.001-0.207v0.010-52.555c-29.411-8.254-54.622-23.413-74.713-43.66l-0.010-0.011-44.966 26.263c-2.511 1.496-5.538 2.381-8.771 2.381-5.585 0-10.554-2.639-13.727-6.739l-0.030-0.040c-11.398-14.984-21.338-32.062-29.053-50.309l-0.583-1.553c-0.8-1.944-1.265-4.202-1.265-6.567 0-6.479 3.485-12.144 8.683-15.223l0.082-0.045 45.025-26.263c-3.533-13.030-5.562-27.991-5.562-43.425 0-0.944 0.008-1.886 0.023-2.827l-0.002 0.142c0.201-14.73 2.244-28.895 5.907-42.392l-0.275 1.191-45.176-26.264c-5.29-3.143-8.781-8.828-8.781-15.329 0-2.387 0.471-4.665 1.325-6.745l-0.043 0.118c8.331-19.812 18.269-36.898 30.072-52.493l-0.436 0.6c3.205-4.075 8.135-6.668 13.67-6.668 3.219 0 6.233 0.877 8.817 2.405l-0.081-0.044 45.177 26.383c20.066-20.204 45.192-35.36 73.318-43.408l1.192-0.292v-52.556c0-0.043-0.001-0.094-0.001-0.145 0-8.81 6.5-16.102 14.966-17.342l0.095-0.011c8.886-1.193 19.158-1.874 29.59-1.874s20.704 0.681 30.775 2.001l-1.185-0.127c8.559 1.238 15.061 8.523 15.061 17.327 0 0.060 0 0.12-0.001 0.18v-0.009 52.555c29.419 8.259 54.638 23.417 74.743 43.661l0.009 0.009 44.965-26.232c2.515-1.502 5.547-2.39 8.787-2.39 5.576 0 10.538 2.631 13.711 6.719l0.029 0.039c11.341 14.943 21.248 31.969 28.959 50.153l0.587 1.559c0.855 2.009 1.353 4.347 1.353 6.8 0 6.443-3.429 12.086-8.563 15.202l-0.079 0.044zM872.72 209.528c-0.181-43.562-35.182-78.89-78.6-79.599l-0.067-0.001h-2.35c-44.518 0.168-80.542 36.296-80.542 80.837 0 44.646 36.192 80.838 80.838 80.838 0.298 0 0.597-0.002 0.894-0.005h1.13c43.681-0.986 78.713-36.629 78.713-80.455 0-0.568-0.006-1.135-0.018-1.7l0.001 0.084zM973.915 960h-923.92c-27.618-0.188-49.934-22.621-49.934-50.265 0-0.096 0-0.191 0.001-0.287v0.015-922.926c0-0.072-0.001-0.157-0.001-0.242 0-27.651 22.313-50.090 49.915-50.295h483.316c0.017 0 0.037 0 0.058 0 12.271 0 23.369 5.023 31.35 13.126l0.005 0.005c8.147 8.171 13.185 19.446 13.185 31.898 0 24.778-19.949 44.898-44.662 45.173h-444.171v546.938h845.704v-53.91c0.207-12.413 5.39-23.576 13.634-31.615l0.009-0.009c7.945-7.809 18.848-12.629 30.878-12.629 0.315 0 0.63 0.003 0.943 0.010l-0.047-0.001c24.144 0.586 43.519 20.193 43.73 44.374v390.042c0 0.063 0 0.138 0 0.213 0 27.69-22.335 50.163-49.972 50.385h-0.021zM934.762 869.798v-206.398h-845.704v206.398zM422.762 697.675c0.25-0.003 0.544-0.005 0.839-0.005 38.058 0 68.91 30.852 68.91 68.91s-30.852 68.91-68.91 68.91c-37.77 0-68.443-30.387-68.905-68.048v-0.858c0-0.090-0.001-0.197-0.001-0.303 0-37.701 30.409-68.299 68.038-68.606h0.029zM214.137 697.675c37.657 0.776 67.886 31.486 67.886 69.256 0 18.833-7.516 35.911-19.712 48.397l0.013-0.014c-12.244 12.525-29.308 20.293-48.187 20.3h-0.181c-0.028 0-0.061 0-0.094 0-18.751 0-35.709-7.674-47.906-20.052l-0.008-0.008c-12.321-12.498-19.93-29.67-19.93-48.62 0-37.852 30.36-68.612 68.057-69.26l0.061-0.001z" />
<glyph unicode="&#xe917;" glyph-name="ui-set2" data-tags="ui-set2" d="M821.228 812.99h-618.455c-69.946-0.115-126.618-56.787-126.733-126.722v-476.526c0.115-69.946 56.787-126.618 126.722-126.733h618.466c69.946 0.115 126.618 56.787 126.733 126.722v476.526c-0.115 69.946-56.787 126.618-126.722 126.733h-0.011zM202.772 762.297h618.455c41.996 0 76.040-34.044 76.040-76.040v0-53.329h-770.535v53.329c0 41.996 34.044 76.040 76.040 76.040v0zM326.768 239.043l-31.024 41.67c7.025 8.81 14.057 16.677 21.499 24.135l-0.005-0.005c6.691 6.691 13.687 12.977 20.987 18.959l42.684-30.416c4.096-2.989 9.231-4.782 14.785-4.782 4.634 0 8.976 1.249 12.709 3.428l-0.12-0.065c13.138 7.565 28.34 14.090 44.325 18.784l1.501 0.378c9.365 2.765 16.383 10.528 18.025 20.126l0.021 0.151 7.604 52.011c9.126 1.051 19.701 1.651 30.416 1.651s21.29-0.6 31.693-1.768l-1.277 0.116 8.314-51.504c1.721-9.879 8.965-17.7 18.376-20.237l0.177-0.041c17.854-4.643 33.468-10.921 48.022-18.893l-1.080 0.542c3.504-1.97 7.691-3.13 12.15-3.13 5.705 0 10.966 1.9 15.186 5.102l-0.062-0.045 41.264 30.416c16.092-12.692 30.229-26.636 42.7-41.987l0.389-0.494-29.402-40.554c-3.023-4.123-4.838-9.297-4.838-14.894 0-4.753 1.308-9.2 3.584-13.001l-0.064 0.115c8.403-13.755 15.544-29.623 20.608-46.393l0.379-1.461c2.84-9.296 10.573-16.251 20.124-17.923l0.154-0.022 48.868-7.198c0-2.839 0-5.678 0.811-8.516h-131.802c-11.692 68.936-70.965 120.775-142.346 120.775s-130.654-51.839-142.226-119.924l-0.12-0.851h-131.802v4.664l50.693 8.111c9.807 1.673 17.6 8.787 20.234 18.071l0.043 0.179c5.071 17.82 11.671 33.333 19.915 47.786l-0.55-1.047c2.185 3.677 3.476 8.107 3.476 12.838 0 5.703-1.876 10.968-5.044 15.211l0.048-0.067zM602.639 133.703h-181.177c10.787 40.645 47.247 70.11 90.589 70.11s79.801-29.465 90.441-69.456l0.148-0.653zM837.044 135.427c-0.924 12.779-2.436 24.349-4.56 35.703l0.302-1.941c-2.148 10.693-10.796 18.861-21.569 20.264l-0.128 0.014-52.011 7.705c-4.381 11.759-8.649 21.319-13.414 30.58l0.74-1.583 31.024 42.988c2.974 4.090 4.758 9.212 4.758 14.752s-1.784 10.662-4.809 14.824l0.050-0.073c-11.1 15.511-22.683 29.153-35.287 41.775l0.004-0.004c-13.697 13.717-28.607 26.214-44.559 37.318l-1.064 0.701c-4.090 2.974-9.212 4.758-14.752 4.758s-10.662-1.784-14.824-4.809l0.073 0.050-43.393-32.849c-7.159 3.403-16.249 7.041-25.565 10.187l-1.91 0.56-8.821 54.343c-1.7 10.604-9.78 18.924-20.116 20.961l-0.161 0.026c-16.376 2.841-35.236 4.464-54.474 4.464-20.917 0-41.386-1.92-61.24-5.592l2.061 0.317c-10.55-2.157-18.638-10.587-20.259-21.149l-0.018-0.142-8.010-55.053c-10.859-3.927-19.591-7.687-28.076-11.872l1.614 0.72-45.117 32.545c-4.109 2.969-9.248 4.748-14.802 4.748s-10.693-1.779-14.877-4.799l0.075 0.051c-31.211-22.584-57.64-49.432-79.077-80.033l-0.714-1.076c-2.764-4.011-4.414-8.975-4.414-14.324 0-5.718 1.886-10.996 5.070-15.245l-0.047 0.066 32.646-43.9c-3.532-7.144-7.365-16.25-10.728-25.582l-0.628-1.995-53.836-8.618c-10.591-1.729-18.896-9.795-20.96-20.115l-0.027-0.162c-1.622-10.139-2.737-19.466-3.447-29.199-34.86 7.241-60.73 37.562-61.034 73.979v372.526h770.535v-372.493c-0.070-36.355-25.608-66.725-59.719-74.223l-0.504-0.093zM776.719 675.308c1.284-0.872 2.753-1.655 4.304-2.276l0.157-0.056c1.325-0.57 2.886-1.060 4.504-1.392l0.16-0.027c1.36-0.325 2.922-0.512 4.527-0.512 0.155 0 0.31 0.002 0.464 0.005h-0.023c13.975 0.032 25.291 11.368 25.291 25.346 0 6.96-2.805 13.265-7.347 17.846l0.002-0.002c-1.141 1.161-2.403 2.197-3.766 3.090l-0.086 0.053c-2.612 1.74-5.665 3.073-8.941 3.818l-0.183 0.035c-1.524 0.302-3.277 0.475-5.069 0.475s-3.545-0.173-5.241-0.503l0.172 0.028c-1.784-0.399-3.341-0.922-4.823-1.584l0.159 0.063c-1.708-0.677-3.177-1.46-4.543-2.384l0.082 0.052c-1.439-0.979-2.698-2.013-3.857-3.148l0.005 0.005c-4.57-4.584-7.396-10.909-7.396-17.895s2.826-13.311 7.396-17.895l-0.001 0.001c1.206-1.132 2.532-2.167 3.946-3.077l0.109-0.066zM686.283 686.257c0.735-1.686 1.514-3.118 2.401-4.473l-0.070 0.113c0.953-1.447 1.989-2.708 3.141-3.851l0.002-0.002c4.6-4.576 10.942-7.405 17.945-7.405s13.345 2.829 17.946 7.406l-0.001-0.001c1.154 1.145 2.19 2.405 3.088 3.765l0.055 0.088c0.873 1.256 1.656 2.691 2.277 4.209l0.054 0.15c0.569 1.352 1.060 2.947 1.392 4.6l0.028 0.165c0.097 0.746 0.153 1.608 0.153 2.484s-0.055 1.738-0.163 2.584l0.010-0.1c0.093 0.746 0.146 1.609 0.146 2.484s-0.053 1.738-0.156 2.586l0.010-0.102c-0.379 1.792-0.868 3.352-1.486 4.845l0.066-0.181c-0.676 1.668-1.458 3.103-2.381 4.434l0.049-0.075c-0.953 1.447-1.989 2.708-3.141 3.851l-0.002 0.002c-4.673 4.413-10.992 7.126-17.945 7.126s-13.273-2.713-17.958-7.138l0.013 0.012c-1.154-1.145-2.19-2.405-3.088-3.765l-0.055-0.088c-0.818-1.241-1.597-2.673-2.257-4.169l-0.075-0.19c-0.552-1.312-1.041-2.872-1.387-4.485l-0.032-0.179c-0.069-0.744-0.108-1.609-0.108-2.484s0.039-1.74 0.117-2.594l-0.008 0.11c-0.074-0.745-0.116-1.609-0.116-2.484s0.042-1.739 0.124-2.592l-0.008 0.108c0.36-1.818 0.85-3.414 1.482-4.936l-0.063 0.171zM614.501 675.308c1.251-0.845 2.684-1.626 4.191-2.268l0.169-0.064c1.339-0.551 2.933-1.041 4.581-1.387l0.184-0.032c1.36-0.325 2.922-0.512 4.527-0.512 0.155 0 0.31 0.002 0.464 0.005h-0.023c0.026 0 0.057 0 0.087 0 6.975 0 13.289 2.829 17.858 7.401v0c4.596 4.588 7.439 10.931 7.439 17.938 0 13.999-11.348 25.347-25.347 25.347-1.772 0-3.501-0.182-5.17-0.528l0.164 0.028c-1.839-0.42-3.43-0.942-4.953-1.592l0.188 0.071c-1.675-0.706-3.109-1.487-4.452-2.391l0.093 0.059c-1.439-0.979-2.698-2.013-3.857-3.148l0.005 0.005c-4.57-4.584-7.396-10.909-7.396-17.895s2.826-13.311 7.396-17.895l-0.001 0.001c1.154-1.13 2.413-2.164 3.758-3.082l0.095-0.061z" />
<glyph unicode="&#xe918;" glyph-name="ui-small-dlg" data-tags="ui-small-dlg" d="M845.425 960h-646.369c-15.78 0-28.595-18.601-28.595-41.498v-940.099c0-22.902 12.815-41.498 28.595-41.498h646.369c15.78 0 28.595 18.601 28.595 41.498v940.099c0 22.897-12.815 41.498-28.595 41.498zM799.667 919.798h23.987v-34.801h-23.987v34.801zM758.047 919.798h23.982v-34.801h-23.982v34.801zM716.426 919.798h23.982v-34.801h-23.982v34.801zM835.359 11.602c0-10.199-5.652-18.401-12.677-18.401h-600.955c-7.030 0-12.677 8.202-12.677 18.401v830.397c0 10.199 5.652 18.401 12.677 18.401h600.96c7.025 0 12.677-8.202 12.677-18.401v-830.397h-0.005zM438.308 620.401h-134.825c-0.21 0-0.317 0.102-0.317 0.302v128.599c0 0.2 0.108 0.302 0.317 0.302h134.825c0.21 0 0.307-0.102 0.307-0.302v-128.701c0-0.102-0.205-0.2-0.307-0.2zM720.768 620.401h-264.837c-0.097 0-0.251 0.2-0.251 0.502v45.901c0 0.2 0.102 0.502 0.251 0.502h264.842c0.102 0 0.251-0.2 0.251-0.502v-45.901c-0.005-0.302-0.097-0.502-0.256-0.502zM720.727 485.202h-416.563c-0.113 0-0.292 0.2-0.292 0.502v45.901c0 0.2 0.118 0.502 0.292 0.502h416.563c0.118 0 0.297-0.2 0.297-0.502v-45.901c-0.005-0.302-0.118-0.502-0.297-0.502zM720.727 349.998h-416.563c-0.113 0-0.292 0.2-0.292 0.502v45.901c0 0.2 0.118 0.502 0.292 0.502h416.563c0.118 0 0.297-0.2 0.297-0.502v-45.901c-0.005-0.302-0.118-0.502-0.297-0.502zM720.727 214.799h-416.563c-0.113 0-0.292 0.2-0.292 0.502v45.901c0 0.2 0.118 0.502 0.292 0.502h416.563c0.118 0 0.297-0.2 0.297-0.502v-45.901c-0.005-0.302-0.118-0.502-0.297-0.502zM720.727 79.601h-416.563c-0.113 0-0.292 0.2-0.292 0.502v45.901c0 0.2 0.118 0.502 0.292 0.502h416.563c0.118 0 0.297-0.2 0.297-0.502v-45.901c-0.005-0.302-0.118-0.502-0.297-0.502z" />
<glyph unicode="&#xe919;" glyph-name="ui-style" data-tags="ui-style" d="M848 800.3h-672.6c-8.8 0-15.9-7.1-15.9-15.9v-672.6c0-8.8 7.1-15.9 15.9-15.9h672.6c8.8 0 15.9 7.1 15.9 15.9v672.7c0 8.7-7.1 15.8-15.9 15.8zM398.1 415h401.7v-94.8h-401.7v94.8zM398.1 479v94.8h401.7v-94.8h-401.7zM799.8 736.3v-98.4h-576.2v98.4h576.2zM223.6 573.8h110.5v-413.8h-110.5v413.8zM398.1 160v96.1h401.7v-96.1h-401.7z" />
<glyph unicode="&#xe91a;" glyph-name="ui-style2" data-tags="ui-style2" d="M921.6 883.2h-819.2c-56.554 0-102.4-45.846-102.4-102.4v0-665.6c0-56.554 45.846-102.4 102.4-102.4v0h819.2c56.554 0 102.4 45.846 102.4 102.4v0 665.6c0 56.554-45.846 102.4-102.4 102.4v0zM921.6 780.8v-204.8h-819.2v204.8zM102.4 473.6h204.8v-358.4h-204.8zM409.6 115.2v358.4h512v-358.4z" />
<glyph unicode="&#xe91b;" glyph-name="unbind" data-tags="unbind" d="M211.869 865.816l88.656 51.187 511.869-886.557-88.656-51.187zM319.669 75.49c-23.43-22.217-55.164-35.88-90.089-35.88s-66.659 13.663-90.148 35.936l0.059-0.055c-22.921 23.117-37.085 54.949-37.085 90.089s14.164 66.972 37.094 90.098l212.928 212.928-51.187 91.625-233.924-231.877c-41.592-41.592-67.317-99.051-67.317-162.518 0-126.935 102.901-229.836 229.836-229.836 63.467 0 120.926 25.725 162.518 67.317l145.371 145.371-51.187 91.625zM956.946 892.945c-41.648 41.471-99.089 67.109-162.518 67.109s-120.871-25.638-162.527-67.117l0.008 0.008-144.859-145.371 51.187-91.625 164.822 164.822c22.781 21.57 53.619 34.833 87.555 34.833 70.392 0 127.455-57.064 127.455-127.455 0-33.936-13.263-64.774-34.888-87.614l0.055 0.058-211.402-212.937 51.187-91.625 232.389 232.389c41.471 41.648 67.109 99.089 67.109 162.518s-25.638 120.871-67.117 162.527l0.008-0.008z" />
<glyph unicode="&#xe91c;" glyph-name="workflow" data-tags="workflow" d="M66.56 486.4c-5.12-5.12-10.24-12.8-10.24-23.040 0-7.68 2.56-15.36 10.24-23.040l158.72-163.84c5.12-2.56 12.8-7.68 23.040-7.68 7.68 0 17.92 2.56 23.040 10.24l166.4 163.84c5.12 5.12 10.24 12.8 10.24 23.040s-2.56 17.92-10.24 23.040l-166.4 161.28c-5.12 5.12-12.8 10.24-23.040 10.24-7.68 0-15.36-2.56-23.040-10.24l-158.72-163.84zM967.68 878.080c0 7.68-2.56 15.36-10.24 23.040-5.12 5.12-15.36 10.24-23.040 10.24h-253.44c-7.68 0-15.36-2.56-23.040-10.24-5.12-5.12-10.24-15.36-10.24-23.040v-64h-143.36c-7.68 0-15.36-2.56-23.040-10.24-5.12-5.12-10.24-15.36-10.24-23.040v-640c0-7.68 2.56-15.36 10.24-23.040 5.12-5.12 15.36-10.24 23.040-10.24h143.36v-94.72c0-7.68 2.56-15.36 10.24-23.040 5.12-5.12 15.36-10.24 23.040-10.24h253.44c7.68 0 15.36 2.56 23.040 10.24 5.12 5.12 10.24 15.36 10.24 23.040v207.36c0 7.68-2.56 15.36-10.24 23.040-5.12 5.12-15.36 10.24-23.040 10.24h-253.44c-7.68 0-15.36-2.56-23.040-10.24-5.12-5.12-10.24-15.36-10.24-23.040v-15.36h-64c-7.68 0-15.36 2.56-23.040 10.24-5.12 5.12-10.24 15.36-10.24 23.040v465.92c0 7.68 2.56 15.36 10.24 23.040 5.12 5.12 15.36 10.24 23.040 10.24h64v-64c0-7.68 2.56-15.36 10.24-23.040 5.12-5.12 15.36-10.24 23.040-10.24h253.44c7.68 0 15.36 2.56 23.040 10.24 5.12 5.12 10.24 15.36 10.24 23.040v204.8z" />
<glyph unicode="&#xe91d;" glyph-name="workflow2" data-tags="workflow2" d="M261.689 765.781c37.263 0 67.47-30.207 67.47-67.47s-30.207-67.47-67.47-67.47c-37.263 0-67.47 30.207-67.47 67.47v0c0.065 37.237 30.233 67.406 67.464 67.47h0.006zM261.689 823.467c-69.122 0-125.156-56.034-125.156-125.156s56.034-125.156 125.156-125.156c69.122 0 125.156 56.034 125.156 125.156v0c0 69.122-56.034 125.156-125.156 125.156v0zM614.4 515.47c0.101 0.001 0.221 0.001 0.341 0.001 37.263 0 67.47-30.207 67.47-67.47s-30.207-67.47-67.47-67.47c-37.262 0-67.47 30.207-67.47 67.469v0c0.064 37.117 30.039 67.213 67.104 67.47h0.024zM614.4 573.156c-69.122 0-125.156-56.034-125.156-125.156s56.034-125.156 125.156-125.156c69.122 0 125.156 56.034 125.156 125.156v0c0 69.122-56.034 125.156-125.156 125.156v0zM408.121 265.159c37.263 0 67.47-30.207 67.47-67.47s-30.207-67.47-67.47-67.47c-37.263 0-67.47 30.207-67.47 67.47v0c0 37.263 30.207 67.47 67.47 67.47v0zM408.121 322.844c-69.122 0-125.156-56.034-125.156-125.156s56.034-125.156 125.156-125.156c69.122 0 125.156 56.034 125.156 125.156v0c0 69.122-56.034 125.156-125.156 125.156v0zM489.017 223.858h375.012v-52.338h-375.012zM325.632 171.52h-42.894c-110.933 0-168.96 77.028-168.96 153.145-0.002 0.311-0.004 0.678-0.004 1.046 0 40.206 16.551 76.546 43.211 102.578l0.028 0.028c30.834 30.037 74.297 45.511 125.724 45.511h242.119v-52.338h-242.119c-80.555 0-116.622-48.811-116.622-97.166s36.523-100.807 116.622-100.807h42.894zM743.538 421.831h-40.619v52.338h40.619c78.62 0 114.347 51.541 114.347 99.556s-35.385 98.418-114.347 98.418h-406.414v52.338h406.414c109.796 0 166.684-75.89 166.684-151.324 0.002-0.254 0.002-0.555 0.002-0.856 0-40.576-16.338-77.335-42.795-104.059l0.012 0.012c-30.219-28.84-71.242-46.588-116.41-46.588-2.636 0-5.257 0.060-7.863 0.18l0.37-0.013zM910.222 197.689l-136.533-102.4v204.8l136.533-102.4z" />
<glyph unicode="&#xe91e;" glyph-name="workflow3" data-tags="workflow3" d="M779.733 896c2.475 0 4.864-0.768 6.827-2.176l192.043-137.173c2.997-2.154 4.927-5.63 4.927-9.557s-1.929-7.404-4.892-9.533l-0.035-0.024-192-137.173c-1.904-1.388-4.289-2.221-6.869-2.221-6.48 0-11.733 5.253-11.733 11.733 0 0.016 0 0.032 0 0.048v-0.002l-0.043 94.080h-237.995c-6.827 0-14.251-7.467-15.787-18.901l-0.299-4.48v-465.237c0-12.373 6.613-21.248 13.483-23.040l2.56-0.341h238.080v93.653c0 0.004 0 0.009 0 0.014 0 6.48 5.253 11.733 11.733 11.733 2.562 0 4.932-0.821 6.861-2.214l-0.035 0.024 192.043-137.173c2.997-2.154 4.927-5.63 4.927-9.557s-1.929-7.404-4.892-9.533l-0.035-0.024-192-137.173c-1.904-1.388-4.289-2.221-6.869-2.221-6.48 0-11.733 5.253-11.733 11.733 0 0.016 0 0.032 0 0.048v-0.002l-0.043 95.36h-237.995c-54.912 0-97.877 45.824-101.205 101.717l-0.213 6.997-0.043 189.952h-137.131c-18.105-50.164-65.303-85.376-120.725-85.376-70.716 0-128.043 57.327-128.043 128.043s57.327 128.043 128.043 128.043c55.422 0 102.62-35.212 120.443-84.484l0.282-0.892h137.131v189.952c0 56.619 40.789 104.704 94.677 108.459l6.741 0.256h237.995l0.085 94.933c0 6.485 5.248 11.733 11.733 11.733z" />
<glyph unicode="&#xe91f;" glyph-name="workflow5" data-tags="workflow5" d="M968.384 378.816h-159.36c-24.864 0-45.12-20.352-45.12-44.864v-59.84h-127.2v59.84c0 24.544-20.192 44.864-44.928 44.864h-60v120.864h59.904c24.864 0 44.992 20.32 44.992 44.864v159.712c0 24.608-20.128 44.8-44.992 44.8h-159.36c-24.832 0-44.96-20.192-44.96-44.8v-159.744c0-24.544 20.128-44.864 44.96-44.864h60v-120.864h-60c-24.736 0-44.96-20.352-44.96-44.864v-59.84h-127.264v59.84c0 24.544-20.224 44.864-45.024 44.864h-159.36c-24.704 0-45.088-20.352-45.088-44.864v-159.744c0-24.576 20.384-44.768 45.088-44.768h159.392c24.8 0 45.024 20.224 45.024 44.768v59.904h127.264v-59.904c0-24.576 20.192-44.768 44.96-44.768h159.424c24.736 0 44.928 20.224 44.928 44.768v59.904h127.2v-59.904c0-24.576 20.256-44.768 45.12-44.768h159.36c24.672 0 44.992 20.224 44.992 44.768v159.744c0 24.544-20.32 44.896-44.992 44.896z" />
<glyph unicode="&#xe920;" glyph-name="edit-attr" data-tags="edit-attr" d="M321.6 613.5h381c21.4 0 39 17.5 39 39 0 21.4-17.5 39-39 39h-381c-21.4 0-39-17.5-39-39 0-21.4 17.5-39 39-39zM282.6 471.5c0-21.4 17.5-39 39-39h381c21.4 0 39 17.5 39 39 0 21.4-17.5 39-39 39h-381c-21.5 0-39-17.5-39-39zM908.5 846.1c0 27.6-22.4 50-50 50h-691.7c-27.6 0-50-22.4-50-50v-794.7c0-27.6 22.4-50 50-50h307.3c20.8 0.3 37.5 17.2 37.5 38s-16.7 37.7-37.5 38h-281.3v742.7h639.7v-418.8c0-21 17-38 38-38s38 17 38 38v444.8zM568.8 5.4l105.9 26.5-68.4 72.8zM623.9 120.1l66.2-70.6 167.6 174.3-68.4 70.5zM820.2 325.2l-13.2-15.4 68.4-72.8 13.2 13.2c22.1 24.3 6.6 41.9-11 61.8-19.9 19.8-37.5 35.3-57.4 13.2z" />
<glyph unicode="&#xe921;" glyph-name="exit" data-tags="exit" d="M665.6 243.2c-28.277 0-51.2-22.923-51.2-51.2v0-102.4h-512v716.8h512v-102.4c0-28.277 22.923-51.2 51.2-51.2s51.2 22.923 51.2 51.2v0 153.6c0 28.277-22.923 51.2-51.2 51.2v0h-614.4c-28.277 0-51.2-22.923-51.2-51.2v0-819.2c0-28.277 22.923-51.2 51.2-51.2v0h614.4c28.277 0 51.2 22.923 51.2 51.2v0 153.6c0 28.277-22.923 51.2-51.2 51.2v0zM1008.128 484.864l-173.568 173.568c-9.283 9.347-22.142 15.133-36.352 15.133-28.293 0-51.229-22.936-51.229-51.229 0-14.083 5.682-26.838 14.88-36.099l-0.003 0.003 86.528-87.040h-541.184c-28.277 0-51.2-22.923-51.2-51.2s22.923-51.2 51.2-51.2v0h541.184l-86.528-86.528c-10.984-9.446-17.897-23.36-17.897-38.889 0-28.277 22.923-51.2 51.2-51.2 15.528 0 29.442 6.913 38.832 17.829l0.057 0.067 173.568 173.568c9.663 9.326 15.663 22.391 15.663 36.858 0 14.215-5.793 27.077-15.147 36.354l-0.003 0.003z" />
<glyph unicode="&#xe922;" glyph-name="files" data-tags="files" d="M30.526 657.289l460.538-204.684c6.097-2.77 13.222-4.384 20.724-4.384s14.627 1.614 21.047 4.515l-0.322-0.13 460.538 204.684c18.128 8.138 30.526 26.032 30.526 46.821s-12.397 38.683-30.203 46.691l-0.323 0.13-460.538 204.684c-6.097 2.77-13.222 4.384-20.724 4.384s-14.627-1.614-21.047-4.515l0.322 0.13-460.538-204.684c-18.128-8.138-30.526-26.032-30.526-46.821s12.397-38.683 30.203-46.691l0.323-0.13zM512.044 852.762l334.658-148.907-334.658-148.907-334.658 148.907zM30.526 401.435l460.538-204.684c6.097-2.77 13.222-4.384 20.724-4.384s14.627 1.614 21.047 4.515l-0.322-0.13 460.538 204.684c18.104 8.158 30.479 26.045 30.479 46.821 0 28.279-22.924 51.203-51.203 51.203-7.502 0-14.627-1.613-21.047-4.512l0.323 0.13-439.558-195.985-439.558 195.473c-6.097 2.768-13.222 4.381-20.724 4.381-28.279 0-51.203-22.924-51.203-51.203 0-20.777 12.375-38.663 30.156-46.691l0.323-0.13zM951.603 238.711l-439.558-195.473-439.558 195.473c-6.097 2.768-13.222 4.381-20.724 4.381-28.279 0-51.203-22.924-51.203-51.203 0-20.777 12.375-38.663 30.156-46.691l0.323-0.13 460.538-204.684c6.097-2.77 13.222-4.384 20.724-4.384s14.627 1.614 21.047 4.515l-0.322-0.13 460.538 204.684c18.104 8.158 30.479 26.045 30.479 46.821 0 28.279-22.924 51.203-51.203 51.203-7.502 0-14.627-1.613-21.047-4.512l0.323 0.13z" />
<glyph unicode="&#xe923;" glyph-name="filter" data-tags="filter" d="M922.367 845.187c-8.873 17.611-26.811 29.48-47.52 29.48-0.063 0-0.126 0-0.189 0h-725.323c-29.455 0-53.333-23.878-53.333-53.333 0-12.067 4.007-23.198 10.764-32.134l-0.097 0.134 277.333-369.78v-376.887c0.001-11.781 9.552-21.331 21.333-21.331 2.853 0 5.575 0.56 8.062 1.576l-0.142-0.051 213.333 85.333c7.927 3.231 13.412 10.878 13.413 19.807v0 291.553l277.333 369.78c6.689 8.781 10.716 19.904 10.716 31.968 0 8.712-2.1 16.933-5.822 24.184l0.139-0.299z" />
<glyph unicode="&#xe924;" glyph-name="filter2" data-tags="filter2" d="M595.716-12.68c-7.013 0-13.911 2.279-19.616 6.788l-178.877 142.27c-7.47 5.929-11.803 15.052-11.803 24.63v301.706c0 1.023-0.458 1.938-1.141 2.619l-283.803 283.915c-1.14 1.14-2.222 2.341-3.137 3.591-16.023 16.822-24.521 38.031-24.521 60.446 0 47.612 38.775 86.387 86.33 86.387h703.654c47.558 0 86.331-38.775 86.331-86.387 0-22.183-8.434-43.284-23.718-59.362-0.57-0.801-1.765-2.222-2.566-2.907l-294.576-294.691c-0.682-0.686-1.14-1.657-1.14-2.684v-434.962c0-12.090-6.899-23.041-17.846-28.282-4.336-2.052-9.010-3.079-13.573-3.079v0zM448.259 176.177l116.038-92.266v369.791c0 17.846 6.899 34.494 19.386 47.098l293.664 293.664c0.912 1.085 1.77 1.997 2.684 2.967 3.877 4.109 6.211 9.863 6.211 15.853 0 12.943-10.606 23.49-23.491 23.49h-703.596c-12.941 0-23.491-10.606-23.491-23.49 0-6.047 2.341-11.865 6.557-16.196 1.537-1.597 2.909-3.308 4.22-4.903l282.318-282.373c12.372-12.372 19.504-29.535 19.504-47.098v-286.539z" />
<glyph unicode="&#xe925;" glyph-name="filtering" data-tags="filtering" d="M813.568 932.352c-8.708 16.553-25.789 27.648-45.462 27.648-0.037 0-0.075 0-0.112 0h-716.794c-28.175-0.134-50.964-23.005-50.964-51.199 0-11.138 3.557-21.446 9.596-29.849l-0.104 0.153 246.272-345.088v-393.216c0-16.693 7.989-31.52 20.351-40.867l0.129-0.093 204.8-153.6c8.45-6.393 19.136-10.24 30.72-10.24v0c28.277 0 51.2 22.923 51.2 51.2v0 546.816l246.272 345.088c6.057 8.306 9.691 18.716 9.691 29.975 0 8.495-2.069 16.506-5.73 23.558l0.134-0.285zM470.528 580.096c-6.017-8.229-9.654-18.531-9.728-29.678v-460.818l-102.4 76.8v384c-0.074 11.165-3.711 21.467-9.829 29.841l0.101-0.145-198.144 277.504h518.144zM972.8 140.8h-256c-28.277 0-51.2-22.923-51.2-51.2s22.923-51.2 51.2-51.2h256c28.277 0 51.2 22.923 51.2 51.2s-22.923 51.2-51.2 51.2v0zM972.8 345.6h-256c-28.277 0-51.2-22.923-51.2-51.2s22.923-51.2 51.2-51.2h256c28.277 0 51.2 22.923 51.2 51.2s-22.923 51.2-51.2 51.2v0zM665.6 499.2c0-28.277 22.923-51.2 51.2-51.2v0h256c28.277 0 51.2 22.923 51.2 51.2s-22.923 51.2-51.2 51.2h-256c-28.277 0-51.2-22.923-51.2-51.2v0z" />
<glyph unicode="&#xe926;" glyph-name="free_ctrl" data-tags="free_ctrl" d="M930.46 622.27h-835.92c-34.57 0-62.69 28.12-62.69 62.69v167.19c0 34.57 28.12 62.69 62.69 62.69h835.92c34.57 0 62.69-28.12 62.69-62.69v-167.18c0-34.58-28.12-62.7-62.69-62.7zM94.54 873.050c-11.52 0-20.9-9.38-20.9-20.9v-167.18c0-11.52 9.38-20.9 20.9-20.9h835.92c11.53 0 20.9 9.38 20.9 20.9v167.18c0 11.52-9.37 20.9-20.9 20.9h-835.92zM825.97 705.86c-6.57 0-12.78 3.090-16.71 8.36l-62.69 83.59c-6.94 9.23-5.060 22.34 4.18 29.26 9.2 6.96 22.33 5.050 29.24-4.17l45.98-61.31 45.98 61.31c6.94 9.21 20.020 11.11 29.24 4.17 9.24-6.92 11.12-20.020 4.18-29.26l-62.69-83.59c-3.846-5.099-9.893-8.36-16.701-8.36-0.003 0-0.006 0-0.009 0v0zM522.95 747.66h-334.37c-11.54 0-20.9 9.36-20.9 20.9s9.36 20.9 20.9 20.9h334.37c11.55 0 20.9-9.36 20.9-20.9s-9.35-20.9-20.9-20.9zM930.46 314.030h-459.76c-11.54 0-20.9 9.35-20.9 20.9s9.36 20.9 20.9 20.9h459.76c11.55 0 20.9-9.35 20.9-20.9s-9.35-20.9-20.9-20.9zM930.46-20.34h-835.92c-11.54 0-20.9 9.35-20.9 20.9s9.36 20.9 20.9 20.9h835.92c11.55 0 20.9-9.35 20.9-20.9s-9.35-20.9-20.9-20.9zM209.48 209.54c-69.14 0-125.39 56.24-125.39 125.39s56.24 125.39 125.39 125.39 125.39-56.24 125.39-125.39-56.25-125.39-125.39-125.39zM209.48 418.52c-46.090 0-83.59-37.49-83.59-83.59s37.5-83.59 83.59-83.59 83.59 37.49 83.59 83.59-37.5 83.59-83.59 83.59z" />
<glyph unicode="&#xe927;" glyph-name="grid2" data-tags="grid2" d="M409.6 499.2h-358.4c-28.277 0-51.2 22.923-51.2 51.2v0 358.4c0 28.277 22.923 51.2 51.2 51.2v0h358.4c28.277 0 51.2-22.923 51.2-51.2v0-358.4c0-28.277-22.923-51.2-51.2-51.2v0zM102.4 601.6h256v256h-256zM972.8 499.2h-358.4c-28.277 0-51.2 22.923-51.2 51.2v0 358.4c0 28.277 22.923 51.2 51.2 51.2v0h358.4c28.277 0 51.2-22.923 51.2-51.2v0-358.4c0-28.277-22.923-51.2-51.2-51.2v0zM665.6 601.6h256v256h-256zM409.6-64h-358.4c-28.277 0-51.2 22.923-51.2 51.2v0 358.4c0 28.277 22.923 51.2 51.2 51.2v0h358.4c28.277 0 51.2-22.923 51.2-51.2v0-358.4c0-28.277-22.923-51.2-51.2-51.2v0zM102.4 38.4h256v256h-256zM972.8-64h-358.4c-28.277 0-51.2 22.923-51.2 51.2v0 358.4c0 28.277 22.923 51.2 51.2 51.2v0h358.4c28.277 0 51.2-22.923 51.2-51.2v0-358.4c0-28.277-22.923-51.2-51.2-51.2v0zM665.6 38.4h256v256h-256z" />
<glyph unicode="&#xe928;" glyph-name="grid-style" data-tags="grid-style" d="M234.086 894.157l-182.886-168.192 168.243-182.886 563.2-607.078 182.835 160.922zM124.365 725.965l102.4 87.757 102.4-102.4-102.4-87.757-102.4 102.4zM373.043 126.157l-29.235-65.843-65.843-7.322 51.2-43.878-14.643-73.114 58.522 29.235 58.522-29.235-7.322 73.165 43.878 51.2-65.843 7.322-29.235 58.522zM146.278 426.035l-43.878-102.4-102.4-14.643 73.165-73.165-14.643-109.722 87.757 51.2 87.757-51.2-14.643 109.722 73.165 73.165-102.4 14.643zM819.2 960l-58.522-131.635-138.957-21.965 102.4-102.4-21.965-146.278 124.365 73.165 124.365-73.165-21.965 146.278 95.078 102.4-138.957 21.965-65.843 131.635z" />
<glyph unicode="&#xe929;" glyph-name="homepage" data-tags="homepage" horiz-adv-x="1025" d="M155.29 352v-309.693c0-23.363 19.072-42.307 42.624-42.307h236.544v281.533h186.173v-281.533h236.611c23.552 0 42.691 18.944 42.691 42.307v321.536l-377.221 289.981-367.421-301.824zM1009.111 524.16l-107.709 86.528v241.725c0 22.912-18.821 41.539-42.051 41.539h-91.648c-23.229 0-42.045-18.627-42.045-41.539v-100.669l-167.107 134.144c-18.939 15.232-59.392 11.008-70.973 2.115l-472.387-377.856c-16.963-12.995-20.224-37.376-7.229-54.4l23.552-30.787c12.995-16.963 37.248-20.163 54.211-7.107l436.859 349.44 416.389-334.403c16.763-12.867 40.832-9.723 53.688 7.107l23.363 30.464c12.928 16.773 9.856 40.771-6.912 53.699z" />
<glyph unicode="&#xe92a;" glyph-name="idea" data-tags="idea" d="M819.042 858.898c-4.832 3.375-119.92 82.712-286.587 82.712-96.699 0-190.825-26.811-278.459-78.965-6.152-3.229-149.643-81.234-104.59-296.927 0.316-27.872-3.093-58.837-7.484-68.41l-100.154-117.764c-2.066-2.404-3.691-5.159-4.798-8.15-1.795-4.707-10.002-29.238 3.917-51.352 6.367-10.115 19.326-22.521 45.155-25.208l47.074-9.674c7.778-17.464 18.581-45.798 20.015-67.055 2.055-30.57-4.109-68.714-5.723-77.949-10.431-29.757-16.527-84.575 23.052-113.881 2.021-1.501 4.233-2.709 6.57-3.612 0.023 0 0.045-0.023 0.090-0.068 7.913-4.075 26.382-13.671 72.383-13.671 35.311 0 81.030 5.554 136.153 16.561 4.504-13.027 10.69-37.388 15.793-79.574h56.139c-10.51 92.624-27.68 122.234-37.614 131.547-6.672 6.254-15.985 8.873-24.925 6.909-60.812-13.106-109.783-19.71-145.557-19.71-32.387 0-42.762 5.407-46.679 7.405-0.282 0.147-0.587 0.282-0.903 0.463-12.068 12.011-4.256 42.66-1.411 50.472 0.576 1.524 1.016 3.059 1.309 4.662 0.305 1.58 5.565 29.78 7.055 61.456l57.403-0.948c0.158 0 0.305 0 0.474 0 15.183 0 27.635 12.169 27.872 27.42 0.248 15.375-12.011 28.075-27.409 28.335l-61.851 1.027c-7.823 36.824-25.795 72.699-28.211 77.418-3.849 7.53-10.905 12.892-19.18 14.596l-62.19 12.768c-1.095 0.237-2.213 0.395-3.319 0.485-0.858 0.113-1.592 0.181-2.224 0.282l95.965 112.831c0.914 1.072 1.75 2.213 2.506 3.443 16.572 26.935 16.73 85.377 16.403 102.66-0.034 1.772-0.248 3.533-0.621 5.283-37.614 174.941 70.938 236.126 76.684 239.276 80.206 47.706 164.748 71.875 251.287 71.875 148.39 0 253.579-71.909 254.041-72.214 230.188-169.59 89.079-428.317 77.847-447.982-56.387-81.64-83.966-203.942-85.117-209.146-0.294-1.411-0.519-2.867-0.598-4.335-4.583-74.393 6.164-156.992 14.359-206.29h56.624c-7.744 44.579-19.586 127.924-15.511 200.589 3.793 15.974 29.768 120.925 76.639 188.307 0.429 0.598 0.801 1.208 1.174 1.84 1.942 3.138 182.663 319.268-92.872 522.261zM604.624 306.293h-119.107c-7.281 0-13.174-5.893-13.174-13.163 0-7.293 5.893-13.185 13.174-13.185h119.107c7.281 0 13.174 5.881 13.174 13.185 0 7.27-5.893 13.163-13.174 13.163zM574.494 254.331h-58.826c-7.293 0-13.174-5.881-13.174-13.163 0-7.293 5.904-13.163 13.174-13.163h58.826c7.293 0 13.174 5.87 13.174 13.163 0 7.27-5.881 13.163-13.174 13.163zM545.031 678.019c-87.521 0-158.505-69.663-158.505-155.592 0-40.741 12.519-69.516 29.486-90.355 29.136-31.518 58.713-45.347 63.747-99.318h130.543c5.035 53.971 34.6 67.8 63.894 99.318 19.676 23.255 29.441 49.614 29.441 90.355 0.011 85.93-71.051 155.592-158.607 155.592zM654.43 449.58c-5.712-6.141-11.718-11.752-17.486-17.181-19.642-18.491-39.86-37.479-48.903-73.264h-28.967v106.52l41.125 41.249c5.114 5.148 5.091 13.501-0.045 18.638-5.182 5.148-13.513 5.136-18.649-0.034l-36.429-36.542-36.406 36.53c-5.159 5.17-13.49 5.193-18.66 0.034-5.159-5.148-5.17-13.49-0.023-18.638l42.717-42.863v-104.872h-30.705c-9.008 35.695-29.136 54.694-48.688 73.128-5.746 5.407-11.684 11.029-17.373 17.114-15.511 19.36-23.052 43.281-23.052 73.072 0 71.254 59.277 129.222 132.134 129.222 72.914 0 132.259-57.968 132.259-129.222-0.023-32.41-6.638-53.565-22.848-72.891zM544.41 705.259c7.293 0 13.174 5.893 13.174 13.185v33.798c0 7.281-5.881 13.174-13.174 13.174s-13.185-5.904-13.185-13.174v-33.798c0-7.27 5.893-13.185 13.185-13.185zM740.213 681.959c-5.159 5.125-13.524 5.114-18.638-0.045l-27.364-27.477c-5.114-5.159-5.114-13.501 0.068-18.649 2.563-2.574 5.927-3.838 9.268-3.838 3.409 0 6.785 1.287 9.347 3.872l27.375 27.477c5.125 5.17 5.091 13.513-0.056 18.66zM395.918 635.788c5.159 5.125 5.17 13.467 0.034 18.649l-27.353 27.477c-5.125 5.159-13.49 5.17-18.649 0.023-5.17-5.136-5.182-13.479-0.034-18.638l27.375-27.477c2.574-2.585 5.938-3.872 9.324-3.872 3.364 0 6.728 1.276 9.302 3.838z" />
<glyph unicode="&#xe92b;" glyph-name="link" data-tags="link" d="M972.8 601.6h-256v307.2c0 28.277-22.923 51.2-51.2 51.2v0h-614.4c-28.277 0-51.2-22.923-51.2-51.2v0-563.2c0-28.277 22.923-51.2 51.2-51.2v0h256v-307.2c0-28.277 22.923-51.2 51.2-51.2v0h614.4c28.277 0 51.2 22.923 51.2 51.2v0 563.2c0 28.277-22.923 51.2-51.2 51.2v0zM102.4 396.8v460.8h512v-256h-256c-28.277 0-51.2-22.923-51.2-51.2v0-153.6zM614.4 499.2v-102.4h-204.8v102.4zM921.6 38.4h-512v256h256c28.277 0 51.2 22.923 51.2 51.2v0 153.6h204.8z" />
<glyph unicode="&#xe92c;" glyph-name="link1" data-tags="link1" d="M616.169 586.488l-71.018-70.924c7.731-3.43 15.22-7.731 21.617-14.104 14.136-14.218 21.018-32.274 21.080-50.874-0.062-18.506-6.943-36.685-21.080-50.877l-26.507-26.479v-0.032l-157.974-157.851c-14.131-14.040-32.31-20.956-50.787-20.986-18.662 0.029-36.776 6.946-50.904 21.015-14.193 14.133-21.018 32.251-21.018 50.848 0 18.631 6.824 36.625 21.018 50.874l28.203 28.022c-28.085 53.957-21.504 98.067-11.656 125.847l-85.332-85.179c-32.85-32.85-49.516-76.48-49.458-119.565-0.057-43.055 16.552-86.627 49.458-119.568 32.912-32.972 76.573-49.609 119.69-49.548h0.12c43.117 0 86.477 16.759 119.388 49.458l184.482 184.453c32.97 32.959 49.635 76.482 49.522 119.568 0.114 43.176-16.614 86.684-49.522 119.565-6.034 6.071-12.62 11.416-19.321 16.337zM812.127 746.725c-32.917 33.031-76.567 49.58-119.628 49.55h-0.186c-43.050 0-86.472-16.757-119.322-49.399l-184.483-184.541c-33.029-32.94-49.64-76.392-49.582-119.536-0.057-43.178 16.671-86.747 49.582-119.628 6.099-6.041 12.621-11.415 19.382-16.366l70.953 71.017c-7.726 3.381-15.157 7.667-21.618 14.068-14.192 14.13-21.011 32.305-21.073 50.908 0.062 18.444 6.881 36.715 21.073 50.845l184.424 184.363c14.187 14.129 32.367 20.971 50.847 21.015 18.533-0.044 36.713-6.886 50.9-21.073 14.074-14.040 20.958-32.245 20.958-50.848 0-18.569-6.886-36.625-20.958-50.786l-28.198-28.048c28.085-54.016 21.499-98.069 11.656-125.879l85.269 85.176c32.906 32.822 49.573 76.389 49.522 119.536 0.053 43.085-16.551 86.684-49.52 119.624z" />
<glyph unicode="&#xe92d;" glyph-name="list" data-tags="list" d="M906.24 573.013v0q0-32.427-32.427-32.427h-329.813q-32.427 0-32.427 32.427v0q0 32.427 32.427 32.427h329.813q32.427 0 32.427-32.427zM906.24 762.88v0q0-32.427-32.427-32.427h-329.813q-32.427 0-32.427 32.427v0q0 32.427 32.427 32.427h329.813q32.427 0 32.427-32.427zM365.227 507.733h-155.733c-47.128 0-85.333 38.205-85.333 85.333v153.6c0 47.128 38.205 85.333 85.333 85.333v0h155.733c47.128 0 85.333-38.205 85.333-85.333v0-154.88c-0.721-46.575-38.646-84.053-85.324-84.053-0.003 0-0.007 0-0.010 0h0.001zM209.493 767.147c-0.013 0-0.028 0-0.043 0-10.604 0-19.2-8.596-19.2-19.2 0-0.45 0.016-0.897 0.046-1.34l-0.003 0.060v-154.88c0-10.604 8.596-19.2 19.2-19.2v0h155.733c10.419 0.239 18.773 8.741 18.773 19.195 0 0.002 0 0.003 0 0.005v0 154.88c0 10.604-8.596 19.2-19.2 19.2v0zM906.24 128.853v0q0-32.427-32.427-32.427h-329.813q-32.427 0-32.427 32.427v0q0 32.427 32.427 32.427h329.813q32.427 0 32.427-32.427zM906.24 319.147v0q0-32.427-32.427-32.427h-329.813q-32.427 0-32.427 32.427v0q0 32.427 32.427 32.427h329.813q32.427 0 32.427-32.427zM365.227 64h-155.733c-47.128 0-85.333 38.205-85.333 85.333v0 154.88c0 47.128 38.205 85.333 85.333 85.333v0h155.733c47.128 0 85.333-38.205 85.333-85.333v-154.88c0-47.128-38.205-85.333-85.333-85.333v0zM209.493 323.413c-10.604 0-19.2-8.596-19.2-19.2v0-154.88c0-10.604 8.596-19.2 19.2-19.2v0h155.733c10.419 0.239 18.773 8.741 18.773 19.195 0 0.002 0 0.003 0 0.005v0 154.88c0 10.604-8.596 19.2-19.2 19.2v0z" />
<glyph unicode="&#xe92e;" glyph-name="log" data-tags="log" d="M972.8 960h-768c-28.277 0-51.2-22.923-51.2-51.2v0-102.4h-102.4c-28.277 0-51.2-22.923-51.2-51.2v0-768c0-28.277 22.923-51.2 51.2-51.2v0h768c28.277 0 51.2 22.923 51.2 51.2v0 102.4h102.4c28.277 0 51.2 22.923 51.2 51.2v0 768c0 28.277-22.923 51.2-51.2 51.2v0zM768 38.4h-665.6v665.6h665.6zM921.6 192h-51.2v563.2c0 28.277-22.923 51.2-51.2 51.2v0h-563.2v51.2h665.6zM281.6 448h307.2c28.277 0 51.2 22.923 51.2 51.2s-22.923 51.2-51.2 51.2h-307.2c-28.277 0-51.2-22.923-51.2-51.2s22.923-51.2 51.2-51.2v0zM281.6 243.2h307.2c28.277 0 51.2 22.923 51.2 51.2s-22.923 51.2-51.2 51.2h-307.2c-28.277 0-51.2-22.923-51.2-51.2s22.923-51.2 51.2-51.2v0z" />
<glyph unicode="&#xe92f;" glyph-name="lua-script" data-tags="lua-script" d="M224 765.050h56v-56h-56zM320.26 765.050h56v-56h-56zM415.74 765.050h56v-56h-56zM888 896h-752c-39.765 0-72-32.235-72-72v0-752c0-39.765 32.235-72 72-72v0h752c39.765 0 72 32.235 72 72v0 752c0 39.765-32.235 72-72 72v0zM136 824h752v-169.85h-752v169.85zM888 72h-752v510.15h752v-510.15zM618.7 393.79l101.81-101.82-101.82-101.83 39.59-39.6 141.43 141.43-141.42 141.42-39.59-39.6zM404.39 393.79l-39.59 39.6-141.42-141.42 141.43-141.43 39.59 39.6-101.82 101.83 101.81 101.82zM434.106 141.115l98.35 367.052 54.093-14.494-98.352-367.052z" />
<glyph unicode="&#xe930;" glyph-name="mate-data1" data-tags="mate-data1" d="M128 256h128c35.346 0 64-28.654 64-64v0-128c0-35.346-28.654-64-64-64v0h-128c-35.346 0-64 28.654-64 64v0 128c0 35.346 28.654 64 64 64v0zM160 192c-17.673 0-32-14.327-32-32v0-64c0-17.673 14.327-32 32-32v0h64c17.673 0 32 14.327 32 32v0 64c0 17.673-14.327 32-32 32v0h-64zM768 896h128c35.346 0 64-28.654 64-64v0-128c0-35.346-28.654-64-64-64v0h-128c-35.346 0-64 28.654-64 64v0 128c0 35.346 28.654 64 64 64v0zM800 832c-17.673 0-32-14.327-32-32v0-64c0-17.673 14.327-32 32-32v0h64c17.673 0 32 14.327 32 32v0 64c0 17.673-14.327 32-32 32v0h-64zM448 256h128c35.346 0 64-28.654 64-64v0-128c0-35.346-28.654-64-64-64v0h-128c-35.346 0-64 28.654-64 64v0 128c0 35.346 28.654 64 64 64v0zM480 192c-17.673 0-32-14.327-32-32v0-64c0-17.673 14.327-32 32-32v0h64c17.673 0 32 14.327 32 32v0 64c0 17.673-14.327 32-32 32v0h-64zM448 896h128c35.346 0 64-28.654 64-64v0-128c0-35.346-28.654-64-64-64v0h-128c-35.346 0-64 28.654-64 64v0 128c0 35.346 28.654 64 64 64v0zM480 832c-17.673 0-32-14.327-32-32v0-64c0-17.673 14.327-32 32-32v0h64c17.673 0 32 14.327 32 32v0 64c0 17.673-14.327 32-32 32v0h-64zM768 256h128c35.346 0 64-28.654 64-64v0-128c0-35.346-28.654-64-64-64v0h-128c-35.346 0-64 28.654-64 64v0 128c0 35.346 28.654 64 64 64v0zM800 192c-17.673 0-32-14.327-32-32v0-64c0-17.673 14.327-32 32-32v0h64c17.673 0 32 14.327 32 32v0 64c0 17.673-14.327 32-32 32v0h-64zM448 576h128c35.346 0 64-28.654 64-64v0-128c0-35.346-28.654-64-64-64v0h-128c-35.346 0-64 28.654-64 64v0 128c0 35.346 28.654 64 64 64v0zM480 512c-17.673 0-32-14.327-32-32v0-64c0-17.673 14.327-32 32-32v0h64c17.673 0 32 14.327 32 32v0 64c0 17.673-14.327 32-32 32v0h-64zM128 576h128c35.346 0 64-28.654 64-64v0-128c0-35.346-28.654-64-64-64v0h-128c-35.346 0-64 28.654-64 64v0 128c0 35.346 28.654 64 64 64v0zM768 576h128c35.346 0 64-28.654 64-64v0-128c0-35.346-28.654-64-64-64v0h-128c-35.346 0-64 28.654-64 64v0 128c0 35.346 28.654 64 64 64v0zM800 512c-17.673 0-32-14.327-32-32v0-64c0-17.673 14.327-32 32-32v0h64c17.673 0 32 14.327 32 32v0 64c0 17.673-14.327 32-32 32v0h-64zM160 512c-17.673 0-32-14.327-32-32v0-64c0-17.673 14.327-32 32-32v0h64c17.673 0 32 14.327 32 32v0 64c0 17.673-14.327 32-32 32v0h-64zM128 896h128c35.346 0 64-28.654 64-64v0-128c0-35.346-28.654-64-64-64v0h-128c-35.346 0-64 28.654-64 64v0 128c0 35.346 28.654 64 64 64v0zM160 832c-17.673 0-32-14.327-32-32v0-64c0-17.673 14.327-32 32-32v0h64c17.673 0 32 14.327 32 32v0 64c0 17.673-14.327 32-32 32v0h-64z" />
<glyph unicode="&#xe931;" glyph-name="meta-data" data-tags="meta-data" d="M391.22 441.35h-286.48c-20.9 0-38 17.1-38 38v286.48c0 20.9 17.1 38 38 38h286.48c20.9 0 38-17.1 38-38v-286.48c0-20.91-17.1-38-38-38zM356.73 536.64v171.89c0 12.54-10.26 22.8-22.8 22.8h-171.89c-12.54 0-22.8-10.26-22.8-22.8v-171.89c0-12.54 10.26-22.8 22.8-22.8h171.89c12.54 0 22.8 10.26 22.8 22.8zM391.22 6.37h-286.48c-20.9 0-38 17.1-38 38v286.48c0 20.9 17.1 38 38 38h286.48c20.9 0 38-17.1 38-38v-286.48c0-20.9-17.1-38-38-38zM356.73 101.66v171.89c0 12.54-10.26 22.8-22.8 22.8h-171.89c-12.54 0-22.8-10.26-22.8-22.8v-171.89c0-12.54 10.26-22.8 22.8-22.8h171.89c12.54 0 22.8 10.26 22.8 22.8zM826.2 6.37h-286.48c-20.9 0-38 17.1-38 38v286.48c0 20.9 17.1 38 38 38h286.48c20.9 0 38-17.1 38-38v-286.48c0-20.9-17.1-38-38-38zM791.7 101.66v171.89c0 12.54-10.26 22.8-22.8 22.8h-171.89c-12.54 0-22.8-10.26-22.8-22.8v-171.89c0-12.54 10.26-22.8 22.8-22.8h171.89c12.54 0 22.8 10.26 22.8 22.8zM948.65 631.97l-202.57-202.58c-14.78-14.78-38.96-14.78-53.74 0l-202.58 202.58c-14.78 14.78-14.78 38.96 0 53.74l202.58 202.57c14.78 14.78 38.96 14.78 53.74 0l202.57-202.58c14.78-14.77 14.78-38.96 0-53.73zM856.87 674.96l-121.54 121.54c-8.87 8.87-23.38 8.87-32.24 0l-121.55-121.54c-8.87-8.87-8.87-23.38 0-32.24l121.55-121.55c8.87-8.87 23.38-8.87 32.24 0l121.55 121.55c8.86 8.86 8.86 23.37-0.010 32.24z" />
<glyph unicode="&#xe932;" glyph-name="mobox" data-tags="mobox" d="M944.608 688.672v-0.064l-427.808-246.88-427.584 246.976-0.128-493.888 137.6-87.328 0.896 325.568 289.312-172.8 300.608 192.128 0.064-331.040 127.040 73.312 0.096 493.952zM527.616 114.944l-188.864 111.264v-168.576l183.296-105.632 194.432 110.272v173.376zM729.024 669.696l116.48 73.44-311.040 179.648-331.52-183.104 132.576-69.984 200.384 113.44z" />
<glyph unicode="&#xe933;" glyph-name="mobox1" data-tags="mobox1" d="M939.807 407.404v-216.115l-186.071-110.259v217.825l186.071 108.549zM939.807 440.515c-5.499 0-10.993-1.48-15.892-4.296l-186.076-108.539c-10.040-5.893-16.251-16.804-16.251-28.698v-217.708c0-11.766 6.088-22.702 16.138-28.575 5.018-2.949 10.527-4.413 16.138-4.413 5.504 0 11.126 1.475 16.138 4.413l186.066 110.259c9.923 5.893 16.138 16.788 16.138 28.58v215.859c0 11.771-6.083 22.692-16.005 28.585-5.166 3.052-10.783 4.531-16.394 4.531zM940.109 673.454v-238.177l-184.105-116.972v238.177l184.105 116.972zM940.109 709.012c-5.437 0-10.86-1.587-15.713-4.628l-184.115-116.972c-9.928-6.349-16.087-18.109-16.087-30.93v-238.172c0-12.692 6.047-24.448 15.862-30.797 4.956-3.174 10.522-4.89 15.949-4.89 5.453 0 10.88 1.587 15.729 4.623l184.11 116.972c9.943 6.344 16.082 18.109 16.082 30.93v238.305c0 12.687-6.036 24.448-15.852 30.797-4.844 3.174-10.399 4.762-15.964 4.762zM703.744 532.69c-3.041 0-6.083 0.794-8.852 2.381l-5.284 3.041c-5.55 3.174-8.991 9.119-8.991 15.468 0 6.339 3.441 12.288 8.991 15.462l5.284 3.041c2.775 1.582 5.816 2.381 8.852 2.381 3.052 0 6.216-0.794 8.991-2.381 5.422-3.174 8.852-8.986 8.852-15.334v-5.949c0-6.349-3.308-12.16-8.852-15.334-2.775-1.981-5.949-2.775-8.991-2.775zM498.611 183.89c-3.036 0-6.211 0.794-8.986 2.381-5.422 3.169-8.858 8.986-8.858 15.329v5.555c0 6.349 3.302 12.16 8.858 15.329 2.775 1.587 5.811 2.401 8.986 2.401 3.041 0 6.077-0.788 8.858-2.401l4.895-2.755c5.55-3.195 8.986-9.139 8.986-15.468s-3.436-12.268-8.986-15.468l-4.895-2.775c-2.775-1.469-5.811-2.13-8.858-2.13zM87.562 400.148l205.522-104.74v-215.286l-205.522 106.404v213.622zM87.562 432.015c-6.211 0-12.426-1.413-17.848-4.378-10.972-5.688-17.71-16.225-17.71-27.607v-213.74c0-11.377 6.738-21.919 17.843-27.612l205.527-106.399c5.545-2.842 11.633-4.26 17.843-4.26 6.083 0 12.293 1.418 17.848 4.26 10.972 5.688 17.848 16.241 17.848 27.612v215.521c0 11.494-6.876 22.042-17.976 27.725l-205.532 104.75c-5.683 2.831-11.761 4.127-17.843 4.127zM730.573 288.86v-216.837l-205.128-109.45v218.419l4.89 2.565 200.238 105.303zM730.573 321.72c-6.062 0-12.16-1.48-17.577-4.285l-205.266-107.873c-11.105-5.868-17.976-16.748-17.976-28.59v-218.547c0-11.709 6.738-22.595 17.848-28.462 5.545-2.929 11.633-4.383 17.848-4.383 6.072 0 12.283 1.464 17.838 4.383l205.138 109.455c10.972 5.868 17.838 16.748 17.838 28.472v216.96c0 11.709-6.738 22.595-17.71 28.462-5.683 2.939-11.766 4.408-17.981 4.408zM725.289 553.446l5.284-3.041v-232.218l-200.371-113.935-4.89 2.775v232.755l199.977 113.664zM725.289 589c-6.083 0-12.16-1.582-17.603-4.628l-199.962-113.669c-11.105-6.349-17.976-18.109-17.976-30.93v-232.622c0-12.826 6.876-24.586 17.976-30.93l4.895-2.775c5.407-3.021 11.494-4.623 17.567-4.623 6.088 0 12.18 1.587 17.597 4.623l200.356 113.951c11.121 6.344 17.976 18.109 17.976 30.909v232.228c0 12.826-6.876 24.586-17.976 30.925l-5.268 3.041c-5.422 3.041-11.5 4.5-17.582 4.5v0zM87.562 666.45l205.522-114.719v-228.383l-205.522 114.708v228.393zM87.562 701.353c-6.211 0-12.426-1.546-17.848-4.803-10.972-6.231-17.71-17.777-17.71-30.239v-228.388c0-12.595 6.876-24.151 17.976-30.362l205.527-114.596c5.417-2.97 11.494-4.531 17.577-4.531 6.216 0 12.426 1.546 17.848 4.797 10.972 6.226 17.71 17.782 17.71 30.239v228.388c0 12.595-6.876 24.141-17.976 30.367l-205.527 114.719c-5.417 2.985-11.494 4.408-17.577 4.408zM317.261 289.987l184.95-106.772v-221.143l-184.95 108.452v219.464zM317.261 322.473c-5.591 0-11.182-1.449-16.061-4.47-9.871-5.796-15.933-16.548-15.933-28.15v-219.443c0-11.602 6.062-22.344 16.056-28.155l184.95-108.442c4.997-2.913 10.46-4.357 16.061-4.357 5.463 0 11.054 1.439 16.046 4.357 9.882 5.796 16.061 16.538 16.061 28.134v221.261c0 11.715-6.18 22.472-16.164 28.268l-184.945 106.772c-5.13 2.903-10.598 4.224-16.072 4.224zM317.251 548.347l184.929-114.34v-227.635l-184.929 114.345v227.63zM317.251 583.137c-5.591 0-11.172-1.546-16.051-4.782-9.871-6.211-15.933-17.72-15.933-30.141v-227.63c0-12.549 6.19-24.064 16.174-30.264l184.934-114.335c4.874-2.97 10.342-4.531 15.816-4.531 5.586 0 11.172 1.546 16.056 4.787 9.871 6.226 15.939 17.72 15.939 30.136v227.635c0 12.544-6.185 24.064-16.179 30.269l-184.94 114.335c-4.869 3.103-10.337 4.521-15.816 4.521v0zM512.655 929.674l193.219-101.294-203.699-105.262-193.080 99.707 203.561 106.849zM512.655 960.154c-5.734 0-11.597-1.362-16.845-4.091l-203.571-106.716c-10.476-5.443-16.835-15.652-16.835-26.506 0-10.998 6.492-21.084 16.963-26.409l193.091-99.702c5.115-2.606 10.854-3.963 16.604-3.963 5.745 0 11.474 1.352 16.594 3.963l203.694 105.149c10.486 5.443 16.963 15.524 16.963 26.399 0 10.993-6.349 21.079-16.84 26.511l-193.219 101.289c-4.997 2.719-10.86 4.076-16.599 4.076v0zM268.897 801.024l188.175-107.182-183.926-104.724-183.931 104.735v3.287l179.681 103.885zM268.897 833.91c-5.714 0-11.3-1.459-16.42-4.378l-179.548-103.89c-10.092-5.847-16.41-16.686-16.41-28.375v-3.292c0-11.822 6.318-22.656 16.527-28.498l183.921-104.735c4.992-2.801 10.568-4.265 16.169-4.265 5.606 0 11.187 1.454 16.174 4.265l183.921 104.745c10.214 5.847 16.532 16.681 16.532 28.498s-6.318 22.656-16.532 28.498l-188.175 107.167c-4.982 2.796-10.573 4.26-16.159 4.26zM728.899 816.42l203.633-111.38v-3.338l-208.343-112.118-208.195 112.123 212.905 114.714zM728.899 849.638c-6.011 0-11.996-1.485-17.352-4.326l-213.028-114.596c-10.957-5.929-17.736-16.916-17.736-28.897s6.789-22.968 17.736-28.897l208.328-112.123c5.35-2.842 11.356-4.326 17.347-4.326 6.001 0 12.001 1.485 17.347 4.326l5.217 2.836 203.131 109.281c10.962 5.929 17.741 16.916 17.741 28.897v3.215c0 11.858-6.646 22.84-17.613 28.774l-203.628 111.263c-5.361 3.087-11.361 4.572-17.49 4.572v0zM501.606 684.175l199.178-116.828-188.698-110.664-199.194 116.833 188.713 110.659zM501.606 718.925c-5.74 0-11.479-1.551-16.594-4.516l-188.713-110.648c-10.476-6.18-16.957-17.638-16.957-30.106 0-12.477 6.492-23.936 16.957-30.116l5.228-3.092 193.956-113.751c5.115-2.964 10.854-4.506 16.594-4.506s11.469 1.556 16.584 4.506l188.718 110.664c10.486 6.18 16.963 17.623 16.963 30.106s-6.492 23.936-16.963 30.111l-199.194 116.828c-5.105 2.97-10.844 4.521-16.579 4.521z" />
<glyph unicode="&#xe934;" glyph-name="mobox2" data-tags="mobox2" d="M81.1 428.5v-260.7l167-64.6 1.2 256zM505.7 779.3l153.4 65.9 35.1-12.5-155.7-66.9 205-84.4-35-14 1.7-0.6 34.4 14-1.3 0.5 177.9 70.7-226.9 80.7 2 0.9-35.5 12.3-1.6-0.7-143.1 50.8-156.8-56.3-1.3 0.5-35.5-13 0.9-0.4 36 12.9zM763.8 98.6l-26-10.1v256l-213.1-85.8 0.4-252.3-13.1-5.1-13 5 0.3 249.8-224.7 92.6 0.2-255.8-26.7 10.3v-0.4l26.7-10.6v0.7l224.2-86.7v-0.9l12.3-5.3 13.8 4.9v1.3l212.7 82.2v-1.2l26 9.8v1.3l179.2 69.3v259.5l-179.9-72.4zM275.4 680.6l-1.3-0.6 34.4-13.4 1.4 0.6 202-77.9 196.6 78.1-202.8 84.3-195.9-84.4-34.5 13.4 197.7 84.6-149.6 61.5-221.1-79.3zM524.6 286l213.1 85.8v236.3l-213.1-82.4zM746 611.4l-8.3-3.3 8.2 3.2 17.2 6.6v0.1zM763.1 617.9v-235.9l179.9 72.4v233.1zM512 520.8v0zM275.5 613.8l-26.7 10.2v-1.3l-167.7 64.8v-229.9l168.2-71-0.5 236 26.7-10.3-0.9-236.1 224.7-92.6v242.1l12.7-4.9-236.5 91.7z" />
<glyph unicode="&#xe935;" glyph-name="multi-txt" data-tags="multi-txt" d="M896 960h-768c-70.692 0-128-57.308-128-128v0-768c0-70.692 57.308-128 128-128v0h768c70.692 0 128 57.308 128 128v0 768c0 70.692-57.308 128-128 128v0zM960 64c0-35.346-28.654-64-64-64v0h-768c-35.346 0-64 28.654-64 64v0 768c0 35.346 28.654 64 64 64v0h768c35.346 0 64-28.654 64-64v0zM608 640c17.673 0 32 14.327 32 32s-14.327 32-32 32v0h-384c-17.673 0-32-14.327-32-32s14.327-32 32-32v0h160v-416c0-17.673 14.327-32 32-32s32 14.327 32 32v0 416zM800 448h-192c-17.673 0-32-14.327-32-32s14.327-32 32-32v0h192c17.673 0 32 14.327 32 32s-14.327 32-32 32v0zM800 256h-192c-17.673 0-32-14.327-32-32s14.327-32 32-32v0h192c17.673 0 32 14.327 32 32s-14.327 32-32 32v0z" />
<glyph unicode="&#xe936;" glyph-name="new-add" data-tags="new-add" d="M741.6 652.5c0 21.4-17.5 39-39 39h-381c-21.4 0-39-17.5-39-39 0-21.4 17.5-39 39-39h381c21.4 0 39 17.6 39 39zM702.6 510.5h-381c-21.4 0-39-17.5-39-39 0-21.4 17.5-39 39-39h381c21.4 0 39 17.5 39 39s-17.6 39-39 39zM867.4 226.3h-88.8v88.8c0 24.9-20.1 45-45 45s-45-20.1-45-45v-88.8h-88.8c-24.8 0-45-20.2-45-45s20.2-45 45-45h88.8v-88.8c0-24.9 20.1-45 45-45s45 20.1 45 45v88.8h88.8c24.8 0 45 20.3 45 45 0 24.8-20.2 45-45 45zM474.1 77.4h-281.3v742.7h639.7v-418.8c0-21 17-38 38-38s38 17 38 38v444.8c0 27.6-22.4 50-50 50h-691.7c-27.6 0-50-22.4-50-50v-794.7c0-27.6 22.4-50 50-50h307.3c20.8 0.3 37.5 17.2 37.5 38s-16.8 37.7-37.5 38z" />
<glyph unicode="&#xe937;" glyph-name="page-style" data-tags="page-style" horiz-adv-x="1027" d="M513.538 959.797c-374.843 0-513.538-326.926-513.538-510.219s133.362-513.538 502.595-513.538c0 0 91.844-1.659 91.844 80.902s-41.399 56.134-41.399 115.585c-0.312 2.637-0.49 5.692-0.49 8.788 0 37.506 26.135 68.909 61.188 76.988l0.532 0.103c19.751 0 150.111-9.876 222.915 18.171 109.691 43.162 186.573 146.765 189.882 268.731l0.009 0.402c-24.251 255.799-237.981 454.325-498.079 454.325-5.436 0-10.852-0.087-16.247-0.259l0.788 0.020zM200.438 447.918c-0.012 0-0.026 0-0.039 0-49.262 0-89.198 39.935-89.198 89.198s39.935 89.198 89.198 89.198c49.262 0 89.198-39.935 89.198-89.198 0-0.014 0-0.028 0-0.042v0.002c0-49.241-39.917-89.158-89.158-89.158v0zM368.681 668.542c-49.241 0-89.158 39.917-89.158 89.158s39.917 89.158 89.158 89.158c49.241 0 89.158-39.917 89.158-89.158v0c0-49.241-39.917-89.158-89.158-89.158v0zM654.681 668.542c-49.241 0-89.158 39.917-89.158 89.158s39.917 89.158 89.158 89.158c49.241 0 89.158-39.917 89.158-89.158v0c-0.023-49.232-39.927-89.136-89.156-89.158h-0.002zM824.465 447.918c-49.262 0-89.198 39.935-89.198 89.198s39.935 89.198 89.198 89.198c49.262 0 89.198-39.935 89.198-89.198 0-0.014 0-0.028 0-0.042v0.002c-0.023-49.245-39.949-89.158-89.198-89.158v0z" />
<glyph unicode="&#xe938;" glyph-name="panel" data-tags="panel" d="M883.66 107.38h-737.24c-43.66 0-79.38 35.72-79.38 79.38v481.23c0 43.66 35.72 79.38 79.38 79.38h737.24c43.66 0 79.38-35.72 79.38-79.38v-481.24c0-43.65-35.72-79.37-79.38-79.37zM899.040 237.11v380.53c0 36.15-29.58 65.73-65.73 65.73h-636.54c-36.15 0-65.73-29.58-65.73-65.73v-380.53c0-36.15 29.58-65.73 65.73-65.73h636.53c36.16 0 65.74 29.58 65.74 65.73zM793.53 419.38h-334.77c-17.67 0-32 14.33-32 32s14.33 32 32 32h334.77c17.67 0 32-14.33 32-32 0-17.68-14.32-32-32-32zM236.54 451.38c0-26.51 21.49-48 48-48s48 21.49 48 48v0c0 26.51-21.49 48-48 48s-48-21.49-48-48v0zM793.53 291.38h-334.77c-17.67 0-32 14.33-32 32s14.33 32 32 32h334.77c17.67 0 32-14.33 32-32 0-17.68-14.32-32-32-32zM236.54 323.38c0-26.51 21.49-48 48-48s48 21.49 48 48v0c0 26.51-21.49 48-48 48s-48-21.49-48-48v0zM104.68 715.38h832v-128h-832z" />
<glyph unicode="&#xe939;" glyph-name="point" data-tags="point" d="M512 336c61.856 0 112 50.144 112 112s-50.144 112-112 112v0c-61.856 0-112-50.144-112-112s50.144-112 112-112v0z" />
<glyph unicode="&#xe93a;" glyph-name="print" data-tags="print" d="M658.7 339.6h-293.5c-20.5 0-37.2-16.7-37.2-37.2s16.7-37.2 37.2-37.2h293.6c20.5 0 37.2 16.7 37.2 37.2s-16.7 37.2-37.3 37.2zM893.6 721.2h-109.6v109.6c0 36.7-29.9 66.6-66.6 66.6h-411c-36.7 0-66.6-29.9-66.6-66.6v-109.6h-109.5c-36.7 0-66.6-29.9-66.6-66.6v-293.6c0-36.7 29.9-66.6 66.6-66.6h80.2v-227c0-36.7 29.9-66.6 66.6-66.6h469.7c36.7 0 66.6 29.9 66.6 66.6v227h80.2c36.7 0 66.6 29.9 66.6 66.6v293.6c0 36.7-29.9 66.6-66.6 66.6zM314.3 801.4c0 11.9 9.6 21.5 21.5 21.5h352.3c11.9 0 21.5-9.6 21.5-21.5v-80.2h-395.3v80.2zM739 96.8c0-11.9-9.6-21.5-21.5-21.5h-411c-11.9 0-21.5 9.6-21.5 21.5v293.6c0 11.9 9.6 21.5 21.5 21.5h411c11.9 0 21.5-9.6 21.5-21.5v-293.6zM885.8 390.4c0-11.9-9.6-21.5-21.5-21.5h-50.9v50.9c0 36.7-29.9 66.6-66.6 66.6h-469.7c-36.7 0-66.6-29.9-66.6-66.6v-50.9h-50.9c-11.9 0-21.5 9.6-21.5 21.5v234.9c0 11.9 9.6 21.5 21.5 21.5h704.6c11.9 0 21.5-9.6 21.5-21.5v-234.9zM658.7 222.1h-293.5c-20.5 0-37.2-16.7-37.2-37.2s16.7-37.2 37.2-37.2h293.6c20.5 0 37.2 16.7 37.2 37.2s-16.7 37.2-37.3 37.2zM753.1 567.9c0-26.51 21.49-48 48-48s48 21.49 48 48v0c0 26.51-21.49 48-48 48s-48-21.49-48-48v0z" />
<glyph unicode="&#xe93b;" glyph-name="qr-code" data-tags="qr-code" d="M214.633 446.206c13.973 0 25.3-11.327 25.3-25.3l-0.001-103.468h110.335c3.348 0 6.544-0.651 9.47-1.833-4.428 4.539-7.159 10.751-7.159 17.601 0 0.012 0 0.024 0 0.035v-0.002 85.368c0 13.973 11.327 25.3 25.3 25.3h87.333c13.973 0 25.3-11.327 25.3-25.3v-85.368c0-13.972-11.327-25.3-25.3-25.3h-87.333c-0.009 0-0.019 0-0.029 0-3.401 0-6.645 0.673-9.606 1.893l0.168-0.061c4.427-4.539 7.157-10.751 7.157-17.6 0-0.012 0-0.024 0-0.036v0.002-85.367c0-0.010 0-0.022 0-0.034 0-6.849-2.73-13.060-7.162-17.605l0.005 0.005c2.792 1.158 6.035 1.83 9.435 1.83 0.012 0 0.023 0 0.035 0h87.331c13.973 0 25.3-11.327 25.3-25.3v-85.367c0-13.973-11.327-25.3-25.3-25.3h-87.333c-13.973 0-25.3 11.327-25.3 25.3v85.367c0 0.010 0 0.022 0 0.034 0 6.85 2.732 13.063 7.165 17.608l-0.005-0.005c-2.793-1.16-6.037-1.833-9.438-1.833-0.011 0-0.023 0-0.034 0h-110.333l0.001-100.87c0-13.973-11.327-25.3-25.3-25.3h-87.333c-13.973 0-25.3 11.327-25.3 25.3v340.306c0 13.973 11.327 25.3 25.3 25.3h87.333zM833.045 443.906c50.785 0 91.955-41.18 91.955-91.977v-204.651c0-50.798-41.17-91.978-91.955-91.978h-204.6c-50.786 0-91.956 41.18-91.956 91.978v204.65c0 50.799 41.17 91.979 91.955 91.979h204.6zM833.045 384.121h-204.6c-17.536 0-31.795-14.026-32.177-31.473l-0.008-0.72v-204.65c0-17.54 14.022-31.802 31.465-32.185l0.72-0.007h204.6c17.534 0 31.794 14.026 32.176 31.473l0.008 0.719v204.65c0 17.54-14.023 31.803-31.466 32.185l-0.718 0.008zM784.755 327.785c13.974 0 25.3-11.328 25.3-25.3v-105.763c0-13.973-11.326-25.3-25.3-25.3h-108.021c-13.973 0-25.3 11.327-25.3 25.3v105.763c0 13.972 11.327 25.3 25.3 25.3h108.023zM398.556 890c50.786 0 91.956-41.18 91.956-91.978v-204.651c0-50.798-41.17-91.978-91.955-91.978h-204.6c-50.786 0-91.956 41.18-91.956 91.978v204.651c-0.001 50.798 41.169 91.978 91.954 91.978h204.6zM833.046 890c50.784 0 91.954-41.18 91.954-91.978v-204.651c0-50.798-41.17-91.978-91.955-91.978h-204.6c-50.786 0-91.956 41.18-91.956 91.978v204.651c0 50.798 41.17 91.978 91.955 91.978h204.6zM398.556 830.214h-204.6c-17.534 0-31.794-14.026-32.176-31.473l-0.008-0.719v-204.651c0-17.539 14.023-31.802 31.466-32.184l0.718-0.008h204.6c17.536 0 31.795 14.026 32.177 31.473l0.008 0.719v204.651c0 17.54-14.022 31.802-31.465 32.184l-0.72 0.008zM833.046 830.214h-204.6c-17.536 0-31.795-14.026-32.177-31.473l-0.008-0.719v-204.651c0-17.539 14.022-31.802 31.465-32.184l0.72-0.008h204.6c17.534 0 31.794 14.026 32.176 31.473l0.008 0.719v204.651c0 17.54-14.023 31.802-31.466 32.184l-0.718 0.008zM350.268 773.878c13.973 0 25.3-11.327 25.3-25.3v-105.763c0-13.973-11.327-25.3-25.3-25.3h-108.024c-13.973 0-25.3 11.327-25.3 25.3v105.763c0 13.973 11.327 25.3 25.3 25.3h108.023zM784.757 773.878c13.973 0 25.3-11.327 25.3-25.3v-105.763c0-13.973-11.327-25.3-25.3-25.3h-108.024c-13.973 0-25.3 11.327-25.3 25.3v105.763c0 13.973 11.327 25.3 25.3 25.3h108.023z" />
<glyph unicode="&#xe93c;" glyph-name="radion" data-tags="radion" d="M512 960c281.992 0 512-230.008 512-512s-230.008-512-512-512-512 230.008-512 512 230.008 512 512 512zM512 896c-246.754 0-448-201.246-448-448s201.246-448 448-448 448 201.246 448 448-201.246 448-448 448zM512 653.282c113.062 0 205.282-92.22 205.282-205.282s-92.22-205.282-205.282-205.282-205.282 92.22-205.282 205.282 92.22 205.282 205.282 205.282z" />
<glyph unicode="&#xe93d;" glyph-name="release" data-tags="release" d="M460.8 601.6c0-28.277 22.923-51.2 51.2-51.2s51.2 22.923 51.2 51.2v0 153.6h102.4l-153.6 204.8-153.6-204.8h102.4zM972.8 857.6h-153.6c-28.277 0-51.2-22.923-51.2-51.2s22.923-51.2 51.2-51.2v0h102.4v-716.8h-819.2v716.8h102.4c28.277 0 51.2 22.923 51.2 51.2s-22.923 51.2-51.2 51.2v0h-153.6c-28.277 0-51.2-22.923-51.2-51.2v-819.2c0-28.277 22.923-51.2 51.2-51.2v0h921.6c28.277 0 51.2 22.923 51.2 51.2v0 819.2c0 28.277-22.923 51.2-51.2 51.2v0zM716.8 243.2h-409.6c-28.277 0-51.2-22.923-51.2-51.2s22.923-51.2 51.2-51.2h409.6c28.277 0 51.2 22.923 51.2 51.2s-22.923 51.2-51.2 51.2v0zM307.2 345.6h409.6c28.277 0 51.2 22.923 51.2 51.2s-22.923 51.2-51.2 51.2h-409.6c-28.277 0-51.2-22.923-51.2-51.2s22.923-51.2 51.2-51.2v0z" />
<glyph unicode="&#xe93e;" glyph-name="report" data-tags="report" d="M870.4-64h-716.8c-28.277 0-51.2 22.923-51.2 51.2v0 921.6c0 28.277 22.923 51.2 51.2 51.2h569.685c0.023 0 0.050 0 0.078 0 11.678 0 22.26-4.692 29.964-12.293l155.984-155.984c7.596-7.7 12.288-18.282 12.288-29.96 0-0.027 0-0.055 0-0.082v0.004-774.485c0-28.277-22.923-51.2-51.2-51.2v0zM153.6 925.867c-9.426 0-17.067-7.641-17.067-17.067v0-921.6c0-9.426 7.641-17.067 17.067-17.067v0h716.8c9.426 0 17.067 7.641 17.067 17.067v0 774.485c0 0.006 0 0.013 0 0.020 0 2.257-0.913 4.301-2.39 5.783v0l-155.989 155.989c-1.481 1.476-3.525 2.389-5.783 2.389-0.007 0-0.014 0-0.021 0h0.001zM904.533 755.2h-170.667c-9.426 0-17.067 7.641-17.067 17.067v0 170.667h34.133v-153.6h153.6zM204.8 789.333h443.733v-34.133h-443.733zM204.8 652.8h614.4v-34.133h-614.4zM238.933 516.267h546.133v-34.133h-546.133zM238.933 618.667h546.133v-102.4h-546.133zM443.733 345.6h341.333v-102.4h-341.333zM238.933 379.733h546.133v-34.133h-546.133zM204.8 106.667h614.4v-34.133h-614.4zM204.8 72.533v580.267h34.133v-580.267zM785.067 72.533v580.267h34.133v-580.267zM238.933 243.2h546.133v-34.133h-546.133zM409.6 106.667v375.467h34.133v-375.467z" />
<glyph unicode="&#xe93f;" glyph-name="resource" data-tags="resource" d="M515.567-49.494c-275.806 0-500.226 224.409-500.226 500.192 0 275.84 224.42 500.226 500.226 500.226s500.237-224.386 500.237-500.226c-0.011-275.783-224.431-500.192-500.237-500.192zM515.567 853.863c-222.309 0-403.177-180.845-403.177-403.165 0-222.286 180.857-403.132 403.177-403.132 222.298 0 403.177 180.857 403.177 403.132 0 222.32-180.879 403.165-403.177 403.165zM477.332 133.214l-0.045 73.456-6.739 0.7c-97.647 9.9-172.288 52.12-193.252 108.518l81.753 19.992c13.874-17.554 54.31-38.054 109.783-45.437l8.478-1.151v128.522l-6.288 1.039c-75.939 12.192-118.701 30.57-137.474 40.493l-3.138 1.682c-38.811 26.224-59.3 59.153-59.3 95.277 0.023 71.3 82.058 129.414 199.449 141.256l6.751 0.643v71.627h82.080l0.023-72.112 6.626-0.779c87.883-10.047 156.812-46.656 182.618-96.394l-79.529-28.052c-15.206 15.804-50.652 33.742-101.113 41.328l-8.613 1.298v-134.155l6.175-1.14c54.412-9.697 98.957-22.352 128.782-36.609 13.49-6.502 23.718-12.88 31.089-19.473 2.732-2.54 5.136-5.069 7.383-7.451 17.904-20.5 27.116-43.281 27.116-67.597 0-69.832-79.732-127.709-193.929-140.714l-6.638-0.734-0.034-74.088-82.013 0.056zM559.413 290.048l8.625 1.321c64.718 9.832 109.828 38.122 109.828 57.347 0.113 19.112-44.986 47.277-109.828 57.042l-8.625 1.309v-117.019zM468.821 614.475c-71.514-9.528-115.551-40.244-115.664-58.069 0-17.825 44.037-48.462 115.664-58.013l8.478-1.129v118.351l-8.478-1.14z" />
<glyph unicode="&#xe940;" glyph-name="rule" data-tags="rule" d="M864 800h-164.512c-14.59 55.558-64.314 95.893-123.476 96h-0.012c-70.692 0-128-57.308-128-128s57.308-128 128-128v0c59.174 0.107 108.898 40.442 123.289 95.11l0.199 0.89h164.512c17.673 0 32-14.327 32-32v0-288c0-17.673-14.327-32-32-32v0h-304c-17.673 0-32-14.327-32-32s14.327-32 32-32v0h304c53.019 0 96 42.981 96 96v0 288c0 53.019-42.981 96-96 96v0zM576 704c-35.348 0.009-64 28.667-64 64.016 0 35.355 28.661 64.016 64.016 64.016 0.006 0 0.011 0 0.017 0h-0.001c35.348-0.009 64-28.667 64-64.016 0-35.355-28.661-64.016-64.016-64.016-0.006 0-0.011 0-0.017 0h0.001zM832 256c-57.376 0-105.376-38.016-121.632-90.048h-326.368c-17.13 0.058-31.073 13.621-31.742 30.595l-0.002 0.061c55.681 14.561 96.103 64.417 96.103 123.714 0 70.516-57.164 127.68-127.68 127.68-0.239 0-0.478-0.001-0.716-0.002h0.037c-47.264 0-88.064-25.888-110.24-64h-49.76c-17.673 0-32 14.327-32 32v0 288c0 17.673 14.327 32 32 32v0h208c17.673 0 32 14.327 32 32s-14.327 32-32 32v0h-208c-53.019 0-96-42.981-96-96v0-288c0-53.019 42.981-96 96-96v0h32c0.1-59.233 40.518-108.997 95.271-123.323l0.889-0.197c0.775-52.359 43.377-94.511 95.835-94.56h322.693c12.515-58.606 63.857-101.92 125.315-101.92 70.692 0 128 57.308 128 128s-57.308 128-128 128c-0.001 0-0.002 0-0.003 0v0zM256 320c0.009 35.348 28.667 64 64.016 64 35.355 0 64.016-28.661 64.016-64.016 0-0.006 0-0.011 0-0.017v0.001c-0.009-35.348-28.667-64-64.016-64-35.355 0-64.016 28.661-64.016 64.016 0 0.006 0 0.011 0 0.017v-0.001zM832 64c-35.348 0.009-64 28.667-64 64.016 0 35.355 28.661 64.016 64.016 64.016 0.006 0 0.011 0 0.017 0h-0.001c35.348-0.009 64-28.667 64-64.016 0-35.355-28.661-64.016-64.016-64.016-0.006 0-0.011 0-0.017 0h0.001z" />
<glyph unicode="&#xe941;" glyph-name="script" data-tags="script" d="M263.616 89.984l440.256 751.872 61.376-35.904-440.256-751.808-61.376 35.84zM78.016 450.496l192.768 190.592-4.864 8.512-32.256 55.040-205.76-203.648c-13.165-13.1-21.312-31.233-21.312-51.268 0-19.651 7.838-37.472 20.558-50.507l-0.014 0.015 205.76-207.872 37.504 64.192-192.384 194.944zM996.032 500.992l-205.76 203.648-32.256-55.040-4.928-8.576 192.832-190.592-192.448-194.944 37.44-64.192 205.824 207.872c12.729 13.033 20.581 30.878 20.581 50.556 0 20.030-8.136 38.16-21.284 51.266l-0.002 0.002z" />
<glyph unicode="&#xe942;" glyph-name="script-mange" data-tags="script-mange" d="M198.4 761.6h67.2v-67.2h-67.2zM332.8 761.6h67.2v-67.2h-67.2zM467.2 761.6h67.2v-67.2h-67.2zM293.2 187.2c4.4-5.3 10.8-8 17.2-8 5.1 0 10.1 1.7 14.3 5.2l134.4 112c5.1 4.3 8.1 10.6 8.1 17.2 0 6.7-3 13-8.1 17.2l-134.4 112c-9.5 7.9-23.6 6.6-31.6-2.9-7.9-9.5-6.6-23.6 2.9-31.6l113.7-94.8-113.7-94.7c-9.4-7.9-10.7-22-2.8-31.6zM601.6 336c-12.4 0-22.4-10-22.4-22.4s10-22.4 22.4-22.4h134.4c12.4 0 22.4 10 22.4 22.4s-10 22.4-22.4 22.4h-134.4zM937.6 268.8c12.4 0 22.4 10 22.4 22.4v560c0 24.7-20.1 44.8-44.8 44.8h-806.4c-24.7 0-44.8-20.1-44.8-44.8v-806.4c0-24.7 20.1-44.8 44.8-44.8h806.4c24.7 0 44.8 20.1 44.8 44.8v112c0 12.4-10 22.4-22.4 22.4s-22.4-10-22.4-22.4v-112h-806.4v537.6h806.4v-291.2c0-12.4 10-22.4 22.4-22.4zM108.8 627.2v224h806.4v-224h-806.4z" />
<glyph unicode="&#xe943;" glyph-name="search" data-tags="search" d="M424.024 193.902c-91.619 0-177.754 35.679-242.538 100.464-133.735 133.737-133.735 351.344 0 485.078 64.784 64.784 150.919 100.462 242.538 100.462s177.754-35.677 242.539-100.462c133.733-133.735 133.735-351.34 0-485.078-64.785-64.783-150.922-100.464-242.539-100.464zM424.024 763.915c-60.637 0-117.643-23.613-160.523-66.489-88.512-88.51-88.51-232.53 0-321.040 42.876-42.876 99.885-66.491 160.523-66.491s117.643 23.614 160.523 66.491c88.51 88.51 88.51 232.53 0 321.040-42.876 42.876-99.885 66.489-160.523 66.489zM886.838 16.096c-14.842 0-29.684 5.663-41.010 16.986l-261.286 261.285c-22.647 22.649-22.647 59.369 0 82.018 22.647 22.647 59.37 22.647 82.018 0l261.286-261.286c22.647-22.649 22.647-59.369 0-82.018-11.325-11.322-26.167-16.985-41.010-16.985z" />
<glyph unicode="&#xe944;" glyph-name="set" data-tags="set" horiz-adv-x="1097" d="M512 448c0 40.381-14.285 74.86-42.86 103.429-28.57 28.57-63.048 42.854-103.429 42.854s-74.86-14.285-103.429-42.854c-28.57-28.575-42.86-63.048-42.86-103.429s14.29-74.86 42.86-103.429c28.575-28.57 63.048-42.854 103.429-42.854s74.86 14.285 103.429 42.854c28.575 28.57 42.86 63.048 42.86 103.429zM950.861 155.428c0 19.809-7.24 36.951-21.719 51.43-14.469 14.469-31.616 21.709-51.425 21.709s-36.956-7.24-51.43-21.709c-14.474-14.479-21.714-31.621-21.714-51.43 0-20.188 7.148-37.432 21.432-51.717s31.524-21.432 51.717-21.432 37.427 7.148 51.717 21.432c14.275 14.29 21.422 31.529 21.422 51.717zM950.861 740.572c0 19.809-7.24 36.951-21.719 51.425-14.469 14.474-31.616 21.714-51.425 21.714s-36.956-7.24-51.43-21.714-21.714-31.621-21.714-51.425c0-20.193 7.148-37.432 21.432-51.717s31.524-21.427 51.717-21.432c20.188 0 37.427 7.142 51.717 21.432 14.275 14.29 21.422 31.524 21.422 51.717v0zM731.428 499.999v-105.713c0-3.809-1.336-7.526-3.999-11.146-2.668-3.615-5.714-5.617-9.144-6.001l-88.571-13.711c-4.188-13.332-10.286-27.812-18.284-43.428 12.948-18.284 30.095-40.192 51.43-65.715 2.668-4.188 3.999-8.003 3.999-11.423 0-4.577-1.336-8.192-3.999-10.86-8.765-11.428-24.479-28.477-47.145-51.139-22.666-22.671-37.622-34.002-44.856-34.002-4.188 0-8.192 1.331-12.001 3.999l-65.715 51.425c-14.095-7.235-28.764-13.143-44.001-17.715-4.188-41.139-8.571-70.666-13.143-88.571-2.668-9.139-8.381-13.716-17.142-13.716h-106.286c-4.193 0-8.003 1.428-11.428 4.285-3.425 2.862-5.335 6.19-5.714 9.999l-13.143 87.429c-12.954 3.809-27.238 9.713-42.86 17.715l-67.425-50.857c-2.668-2.668-6.477-3.999-11.428-3.999-4.193 0-8.192 1.521-12.001 4.572-54.856 50.668-82.289 81.142-82.289 91.428 0 3.425 1.336 7.045 3.999 10.854 3.809 5.335 11.622 15.427 23.429 30.285s20.762 26.476 26.86 34.862c-8.76 16.758-15.432 32.379-19.999 46.853l-86.856 13.716c-3.809 0.379-7.045 2.191-9.713 5.432-2.673 3.236-4.004 6.948-4.004 11.141v105.713c0 3.809 1.331 7.521 3.999 11.141s5.714 5.617 9.144 6.001l88.571 13.716c4.188 13.332 10.286 27.807 18.284 43.428-12.954 18.284-30.095 40.192-51.425 65.715-2.668 4.188-3.999 8.003-3.999 11.428 0 4.572 1.331 8.381 3.999 11.428 8.381 11.428 24.003 28.38 46.853 50.857 22.856 22.477 37.903 33.715 45.143 33.715 4.188 0 8.192-1.331 12.001-3.999l65.715-51.43c12.954 6.856 27.622 12.954 44.001 18.284 4.188 41.144 8.571 70.477 13.143 88.003 2.668 9.144 8.381 13.716 17.147 13.716h106.286c4.188 0 8.003-1.428 11.428-4.285 3.43-2.857 5.335-6.19 5.714-9.999l13.143-87.429c12.954-3.809 27.238-9.713 42.86-17.715l67.43 50.857c3.046 2.668 6.856 3.999 11.428 3.999 4.188 0 8.192-1.521 12.001-4.572 54.856-50.668 82.278-81.147 82.278-91.428 0-3.046-1.331-6.666-3.999-10.86-4.572-6.093-12.57-16.379-24.003-30.858-11.423-14.474-19.999-25.902-25.708-34.284 8.76-18.284 15.242-33.905 19.43-46.858l86.856-13.143c3.804-0.763 7.045-2.765 9.713-6.001 2.662-3.236 3.994-6.948 3.994-11.141v0zM1097.139 195.43v-80c0-6.098-28.38-12.001-85.14-17.715-4.572-10.286-10.286-20.188-17.142-29.716 19.425-43.049 29.138-69.33 29.138-78.858 0-1.521-0.758-2.857-2.284-3.999-46.474-27.044-70.093-40.571-70.856-40.571-3.052 0-11.812 8.955-26.291 26.86-14.474 17.9-24.381 30.853-29.711 38.856-7.619-0.758-13.338-1.147-17.147-1.147s-9.523 0.384-17.147 1.147c-5.33-8.003-15.242-20.956-29.711-38.856-14.479-17.905-23.24-26.86-26.291-26.86-0.758 0-24.381 13.527-70.856 40.571-1.526 1.147-2.284 2.478-2.284 3.999 0 9.528 9.708 35.809 29.138 78.858-6.856 9.523-12.57 19.43-17.142 29.716-56.76 5.714-85.146 11.617-85.146 17.715v80c0 6.093 28.385 12.001 85.146 17.71 4.951 11.049 10.665 20.956 17.142 29.722-19.43 43.044-29.138 69.33-29.138 78.853 0 1.526 0.758 2.857 2.284 3.999 1.526 0.758 8.192 4.572 19.999 11.423 11.807 6.861 23.045 13.332 33.715 19.43 10.665 6.098 16.379 9.144 17.142 9.144 3.052 0 11.812-8.852 26.291-26.573 14.469-17.71 24.381-30.572 29.711-38.569 7.619 0.758 13.332 1.147 17.147 1.147s9.523-0.384 17.147-1.147c19.425 27.049 36.951 48.379 52.572 64l3.43 1.147c1.521 0 25.139-13.332 70.856-40.003 1.526-1.147 2.284-2.473 2.284-3.999 0-9.523-9.713-35.809-29.138-78.853 6.472-8.765 12.191-18.668 17.142-29.722 56.76-5.709 85.14-11.617 85.14-17.71zM1097.139 780.575v-80c0-6.098-28.38-12.001-85.14-17.715-4.572-10.286-10.286-20.188-17.142-29.716 19.43-43.049 29.143-69.335 29.143-78.858 0-1.521-0.758-2.857-2.284-3.999-46.474-27.049-70.093-40.571-70.856-40.571-3.052 0-11.812 8.955-26.291 26.86-14.474 17.905-24.381 30.858-29.711 38.856-7.619-0.763-13.338-1.147-17.147-1.147s-9.523 0.384-17.147 1.147c-5.33-8.003-15.242-20.956-29.711-38.856-14.479-17.905-23.24-26.86-26.291-26.86-0.758 0-24.381 13.522-70.856 40.571-1.526 1.142-2.284 2.478-2.284 3.999 0 9.523 9.708 35.809 29.138 78.858-6.856 9.523-12.57 19.425-17.142 29.716-56.76 5.714-85.146 11.617-85.146 17.715v80c0 6.093 28.385 12.001 85.146 17.71 4.951 11.049 10.665 20.951 17.142 29.716-19.43 43.049-29.138 69.335-29.138 78.858 0 1.521 0.758 2.857 2.284 3.999 1.526 0.763 8.192 4.572 19.999 11.428s23.045 13.332 33.715 19.43c10.665 6.093 16.379 9.144 17.142 9.144 3.052 0 11.812-8.858 26.291-26.573 14.469-17.71 24.381-30.572 29.711-38.569 7.619 0.758 13.332 1.142 17.147 1.142s9.523-0.384 17.147-1.142c19.425 27.049 36.951 48.379 52.572 64l3.43 1.142c1.521 0 25.139-13.332 70.856-40.003 1.526-1.142 2.284-2.478 2.284-3.999 0-9.523-9.713-35.809-29.138-78.858 6.472-8.76 12.191-18.668 17.142-29.716 56.755-5.714 85.135-11.617 85.135-17.71z" />
<glyph unicode="&#xe945;" glyph-name="set2" data-tags="set2" d="M913.866 539.001l-75.695 17.139c-6.748 21.496-14.369 39.792-23.401 57.239l0.927-1.97 40.933 69.47c15.279 24.926 23.013 61.548 0 84.992l-41.715 42.496c-11.237 11.48-26.328 16.33-41.58 16.33-15.791 0-31.771-5.255-43.682-13.716l-66.371-43.062c-15.109 8.238-32.928 16.046-51.439 22.359l-2.482 0.735-17.004 77.986c-5.039 28.645-29.561 59.608-62.141 59.608h-58.907c-32.552 0-52.493-31.448-58.961-60.066l-18.944-77.043c-19.914-6.467-39.128-14.794-57.371-24.576l-68.015 44.032c-12.231 8.53-27.392 13.652-43.747 13.716h-0.016c-15.171 0-30.289-4.851-41.553-16.33l-41.688-42.496c-23.013-23.444-15.279-60.066 0-84.965l43.062-73.135c-8.057-16.627-15.252-33.684-20.776-51.604l-75.587-17.139c-28.106-5.174-58.503-30.181-58.503-63.353v-60.066c0-33.145 30.882-53.491 58.961-60.066l76.584-19.483c5.309-16.546 11.857-32.472 19.375-47.885l-43.089-73.189c-15.279-24.872-22.986-61.467 0-84.911l41.715-42.469c11.237-11.533 26.355-16.357 41.58-16.357 15.791 0 31.771 5.255 43.709 13.608l68.15 44.355c18.405-9.863 37.672-18.243 57.775-24.765l18.863-76.881c6.467-28.618 26.381-60.066 58.961-60.066h58.934c32.525 0 57.101 30.963 62.168 59.635l17.031 78.201c20.765 6.969 38.37 14.659 55.162 23.669l-1.887-0.925 66.506-43.224c12.221-8.474 27.352-13.556 43.668-13.608h0.013c15.252 0 30.37 4.851 41.58 16.276l41.715 42.55c23.013 23.444 15.279 60.066 0 84.911l-40.96 69.551c8.246 16.465 15.387 33.684 21.127 51.523l76.584 19.483c28.106 6.575 58.961 26.893 58.961 60.066v60.066c-0.054 33.172-30.424 58.179-58.53 63.353zM498.742 256.512c-103.855 0-188.443 85.935-188.443 191.731 0 105.715 84.588 191.731 188.443 191.731 103.909 0 188.497-85.989 188.497-191.731 0-105.795-84.588-191.731-188.497-191.731z" />
</font>
</defs>
</svg>
